#VERSION:0.83;
#TITLE:남자 없이 잘 살아;
#SUBTITLE:;
#ARTIST:miss A;
#TITLETRANSLIT:I Don't Need A Man;
#SUBTITLETRANSLIT:;
#ARTISTTRANSLIT:;
#GENRE:Pop;
#ORIGIN:;
#CREDIT:chewi;
#BANNER:I Don't Need A Man.png;
#BACKGROUND:I Don't Need A Man-bg.png;
#PREVIEWVID:;
#JACKET:I Don't Need A Man-jacket.png;
#CDIMAGE:;
#DISCIMAGE:;
#LYRICSPATH:;
#CDTITLE:cdtitle.png;
#MUSIC:I Don't Need A Man.ogg;
#OFFSET:-0.732000;
#SAMPLESTART:68.036003;
#SAMPLELENGTH:15.000000;
#SELECTABLE:YES;
#BPMS:0.000=78.000;
#STOPS:;
#DELAYS:;
#WARPS:;
#TIMESIGNATURES:0.000=4=4;
#TICKCOUNTS:0.000=4;
#COMBOS:0.000=1;
#SPEEDS:0.000=1.000=0.000=0;
#SCROLLS:0.000=1.000;
#FAKES:;
#LABELS:0.000=Song Start;
#BGCHANGES:-0.500=I Don't Need a Man.avi=1.000=0=0=1=====,
99999=-nosongbg-=1.000=0=0=0 // don't automatically add -songbackground-
;
#KEYSOUNDS:;
#ATTACKS:
;

//---------------dance-single - ----------------
#NOTEDATA:;
#CHARTNAME:;
#STEPSTYPE:dance-single;
#DESCRIPTION:;
#CHARTSTYLE:;
#DIFFICULTY:Easy;
#METER:2;
#RADARVALUES:0.082675,0.094846,0.021434,0.085737,0.000000,54.000000,52.000000,2.000000,8.000000,0.000000,0.000000,0.000000,0.000000,0.000000,0.082675,0.094846,0.021434,0.085737,0.000000,54.000000,52.000000,2.000000,8.000000,0.000000,0.000000,0.000000,0.000000,0.000000;
#CREDIT:;
#NOTES:
0000
0000
0000
0000
,
0000
0000
0000
0000
,
1000
0000
1000
0000
,
0001
0000
0001
0000
,
0100
0000
0100
0000
,
0110
0000
0000
0010
,
0020
0000
0000
0030
,
0200
0000
0000
0300
,
0002
0000
0000
0003
,
1000
1000
1000
0000
,
0000
1000
0000
0100
,
0000
0001
0000
0010
,
0000
1000
0000
0100
,
0000
0001
0000
0010
,
0000
0001
0000
0100
,
0000
1000
0000
0010
,
0000
0001
0000
0100
,
0000
1000
0000
0010
,
0020
0000
0000
0030
,
0010
0010
0010
0000
,
0200
0000
0000
0300
,
0100
0100
0100
0000
,
0000
0010
0000
0100
,
0000
1000
0000
0001
,
0000
1000
0000
0010
,
0110
0000
0000
0010
,
0020
0000
0000
0030
,
2000
0000
0000
3000
,
0002
0000
0000
0003
,
1000
1000
1000
0000
;

//---------------dance-single - ----------------
#NOTEDATA:;
#CHARTNAME:;
#STEPSTYPE:dance-single;
#DESCRIPTION:;
#CHARTSTYLE:;
#DIFFICULTY:Beginner;
#METER:1;
#RADARVALUES:0.042868,0.046619,0.000000,0.000000,0.000000,28.000000,28.000000,0.000000,0.000000,0.000000,0.000000,0.000000,0.000000,0.000000,0.042868,0.046619,0.000000,0.000000,0.000000,28.000000,28.000000,0.000000,0.000000,0.000000,0.000000,0.000000,0.000000,0.000000;
#CREDIT:;
#NOTES:
// measure 0
0000
0000
0000
0000
,  // measure 1
0000
0000
0000
0000
,  // measure 2
1000
0000
0000
0000
,  // measure 3
0001
0000
0000
0000
,  // measure 4
1000
0000
0000
0000
,  // measure 5
0001
0000
0000
0000
,  // measure 6
0010
0000
0000
0000
,  // measure 7
0010
0000
0000
0000
,  // measure 8
0001
0000
0000
0000
,  // measure 9
0010
0000
0000
0000
,  // measure 10
1000
0000
0000
0000
,  // measure 11
0001
0000
0000
0000
,  // measure 12
0001
0000
0000
0000
,  // measure 13
1000
0000
0000
0000
,  // measure 14
0010
0000
0000
0000
,  // measure 15
0010
0000
0000
0000
,  // measure 16
1000
0000
0000
0000
,  // measure 17
0001
0000
0000
0000
,  // measure 18
0001
0000
0000
0000
,  // measure 19
0010
0000
0000
0000
,  // measure 20
1000
0000
0000
0000
,  // measure 21
1000
0000
0000
0000
,  // measure 22
0010
0000
0000
0000
,  // measure 23
0010
0000
0000
0000
,  // measure 24
0010
0000
0000
0000
,  // measure 25
0001
0000
0000
0000
,  // measure 26
1000
0000
0000
0000
,  // measure 27
1000
0000
0000
0000
,  // measure 28
0001
0000
0000
0000
,  // measure 29
0001
0000
0000
0000
;

//---------------dance-single - ----------------
#NOTEDATA:;
#CHARTNAME:;
#STEPSTYPE:dance-single;
#DESCRIPTION:;
#CHARTSTYLE:;
#DIFFICULTY:Medium;
#METER:6;
#RADARVALUES:0.174535,0.189692,0.107171,0.235776,0.000000,114.000000,104.000000,10.000000,22.000000,0.000000,0.000000,0.000000,0.000000,0.000000,0.174535,0.189692,0.107171,0.235776,0.000000,114.000000,104.000000,10.000000,22.000000,0.000000,0.000000,0.000000,0.000000,0.000000;
#CREDIT:;
#NOTES:
0000
0000
0000
0000
,
0000
0000
0000
0000
,
2000
0000
3100
0000
1000
0100
1000
0000
,
0002
0000
0103
0000
0001
0100
0001
0000
,
0200
0000
0310
0000
0100
0010
0100
0000
,
0220
0000
0000
0330
,
2002
0000
0000
3003
,
2200
0000
0000
3300
,
0022
0000
0000
0033
,
0001
1000
0010
0100
0001
0000
0000
0000
,
1000
0000
1000
0000
1000
0100
0010
0000
,
0001
0000
0001
0000
0001
0100
0010
0000
,
0010
0000
0010
0000
0010
0100
0001
0000
,
0010
0000
0010
0000
0010
0100
1000
0000
,
1000
0000
0001
0000
1000
0100
0010
0000
,
0001
0000
1000
0000
0001
0100
0010
0000
,
1000
0000
0010
0000
1000
0010
0001
0000
,
0001
0000
0010
0000
0001
0010
1000
0000
,
1010
0000
0000
0000
0100
0100
0100
0000
,
0001
1000
0001
1000
,
0011
0000
0000
0000
0100
0100
0100
0000
,
0010
0100
1000
0001
,
2000
0000
3100
0000
1000
0100
1000
0000
,
0002
0000
0103
0000
0001
0100
0001
0000
,
0200
0000
0310
0000
0100
0010
0100
0000
,
0220
0000
0000
0330
,
2002
0000
0000
3003
,
2200
0000
0000
3300
,
0022
0000
0000
0033
,
0001
1000
0010
0100
0001
0000
0000
0000
;

//---------------dance-single - ----------------
#NOTEDATA:;
#CHARTNAME:;
#STEPSTYPE:dance-single;
#DESCRIPTION:;
#CHARTSTYLE:;
#DIFFICULTY:Hard;
#METER:8;
#RADARVALUES:0.269458,0.286950,0.192907,0.021434,0.101812,176.000000,158.000000,18.000000,2.000000,0.000000,0.000000,0.000000,0.000000,0.000000,0.269458,0.286950,0.192907,0.021434,0.101812,176.000000,158.000000,18.000000,2.000000,0.000000,0.000000,0.000000,0.000000,0.000000;
#CREDIT:;
#NOTES:
0000
0000
0000
0000
,
0000
0000
0000
0000
,
1000
0100
1000
0100
1000
0000
1001
0000
,
0001
0100
0001
0100
0001
0010
0001
0010
,
0100
0010
0100
0010
0110
0000
1001
0000
,
1000
0000
0000
0001
0000
0000
1000
0000
0000
0001
0000
0000
1001
0000
0000
0000
,
0100
0000
0000
0010
0000
0000
0100
0000
0000
0010
0000
0000
0110
0000
0000
0000
,
0010
0000
0000
1000
0000
0000
0001
0000
0000
0100
0000
0000
0101
0000
0000
0000
,
0001
0000
0000
1000
0000
0000
0100
0000
0000
0010
0000
0000
0110
0000
0000
0000
,
0010
0100
1000
0001
1001
0000
0000
0000
,
1000
0010
1000
0000
0001
0000
0100
0000
,
0001
0010
0001
0000
1000
0000
0100
0000
,
1000
0001
0010
0000
0001
1000
0100
0000
,
1000
0001
0100
1000
0100
0001
0010
0000
,
0100
0010
0001
0000
1000
0000
0100
0000
,
0010
0100
1000
0000
0001
0000
1000
0000
,
0010
0100
0001
0000
1000
0010
0100
0000
,
0001
1000
0100
1000
0001
0010
0001
0000
,
0010
0000
0000
0100
0000
0000
0010
0000
0000
0000
0001
0000
0010
0000
0000
0000
,
0001
0101
1000
1010
,
1000
0000
0000
0010
0000
0000
1000
0000
0000
0000
0010
0000
1000
0000
0000
0000
,
0010
0000
0100
0000
0001
0000
0010
0000
0100
0000
0000
0000
0100
1000
0100
0000
,
0001
0010
0001
0010
0001
0000
1001
0000
,
1000
0010
1000
0010
1000
0100
1000
0100
,
0010
0100
0010
0100
0110
0000
1001
0000
,
0001
0000
0000
1000
0000
0000
0001
0000
0000
1000
0000
0000
1001
0000
0000
0000
,
0010
0000
0000
0100
0000
0000
0010
0000
0000
0100
0000
0000
0110
0000
0000
0000
,
0100
0000
0000
0001
0000
0000
1000
0000
0000
0010
0000
0000
1010
0000
0000
0000
,
1000
0000
0000
0001
0000
0000
0010
0000
0000
0100
0000
0000
0110
0000
0000
0000
,
0100
0010
0001
1000
2002
0000
3003
0000
;
