#TITLE:I Can Be Somebody (feat. Erin McCarley);
#SUBTITLE:;
#ARTIST:Deorro;
#TITLETRANSLIT:;
#SUBTITLETRANSLIT:;
#ARTISTTRANSLIT:;
#GENRE:Progressive House;
#CREDIT:chewi;
#BANNER:;
#BACKGROUND:;
#LYRICSPATH:;
#CDTITLE:cdtitle.png;
#MUSIC:I Can Be Somebody (feat. Erin McCarley).ogg;
#OFFSET:-0.065955;
#SAMPLESTART:75.070000;
#SAMPLELENGTH:15.000000;
#SELECTABLE:YES;
#BPMS:0.000000=128.000000
;
#STOPS:156.000000=1.406242
;
#BGCHANGES:;
#KEYSOUNDS:;
#ATTACKS:;

//---------------dance-single - ----------------
#NOTES:
     dance-single:
     :
     Beginner:
     2:
     0.095740,0.152723,0.025776,0.077328,0.000000,78.000000,75.000000,3.000000,9.000000,0.000000,0.000000,0.095740,0.152723,0.025776,0.077328,0.000000,78.000000,75.000000,3.000000,9.000000,0.000000,0.000000:
// measure 0
0000
0000
0000
0000
,  // measure 1
0000
0000
0000
0000
,  // measure 2
0000
0000
0000
0000
,  // measure 3
0000
0000
0000
0000
,  // measure 4
0000
1000
0000
1000
,  // measure 5
0000
1000
0000
0000
,  // measure 6
0000
0001
0000
0001
,  // measure 7
0000
0000
0000
0000
,  // measure 8
0000
0100
0000
0100
,  // measure 9
0000
0100
0000
0000
,  // measure 10
0000
0010
0000
0010
,  // measure 11
0000
0010
0000
0000
,  // measure 12
0000
1000
0000
1000
,  // measure 13
0000
1000
0000
0000
,  // measure 14
0000
0001
0000
0001
,  // measure 15
0000
0001
0000
0000
,  // measure 16
1000
0000
0000
0000
,  // measure 17
0000
0000
0000
0000
,  // measure 18
0001
0000
0000
0000
,  // measure 19
0000
0000
0000
0000
,  // measure 20
0100
0000
0000
0000
,  // measure 21
0000
0000
0000
0000
,  // measure 22
0010
0000
0000
0000
,  // measure 23
0000
0000
0000
0000
,  // measure 24
0020
0000
0000
0030
,  // measure 25
0010
0010
0010
0000
,  // measure 26
0020
0000
0000
0030
,  // measure 27
0010
0010
0010
0000
,  // measure 28
0200
0000
0000
0300
,  // measure 29
0100
0100
0100
0000
,  // measure 30
0200
0000
0000
0300
,  // measure 31
0100
0100
0100
0000
,  // measure 32
2000
0000
0000
0000
,  // measure 33
0000
0000
0000
3000
,  // measure 34
0002
0000
0000
0000
,  // measure 35
0000
0000
0000
0003
,  // measure 36
1000
0000
1000
0000
,  // measure 37
1000
0000
1000
0000
,  // measure 38
0001
0000
0001
0000
,  // measure 39
0000
0100
0100
0100
,  // measure 40
0000
0100
0000
0000
,  // measure 41
0000
0010
0010
0010
,  // measure 42
0000
0010
0000
0000
,  // measure 43
0000
1000
1000
1000
,  // measure 44
0000
1000
0000
0000
,  // measure 45
0000
0001
0001
0001
,  // measure 46
0000
0001
0000
0000
,  // measure 47
0000
1001
0000
0000
,  // measure 48
0000
0010
0000
0000
,  // measure 49
0000
0100
0000
0000
,  // measure 50
0000
0010
0000
0000
,  // measure 51
0000
0110
0000
0000
,  // measure 52
0000
0001
0000
0000
,  // measure 53
0000
1000
0000
0000
,  // measure 54
0000
0001
0000
0000
,  // measure 55
0000
0002
0000
0000
,  // measure 56
0003
2000
0000
0000
,  // measure 57
3000
0002
0000
0000
,  // measure 58
0003
1000
0000
0001
,  // measure 59
0000
1001
0000
0000
;

//---------------dance-single - ----------------
#NOTES:
     dance-single:
     :
     Easy:
     4:
     0.164476,0.254539,0.042960,0.025776,0.000000,134.000000,129.000000,5.000000,3.000000,0.000000,0.000000,0.164476,0.254539,0.042960,0.025776,0.000000,134.000000,129.000000,5.000000,3.000000,0.000000,0.000000:
// measure 0
0000
0000
0000
0000
,  // measure 1
0000
0000
0000
0000
,  // measure 2
0000
0000
0000
0000
,  // measure 3
0000
0000
0000
0000
,  // measure 4
0000
1000
0000
1000
,  // measure 5
0000
0000
1000
0000
0000
1000
1000
0000
,  // measure 6
0000
0001
0000
0001
,  // measure 7
0000
0000
0000
0000
,  // measure 8
0000
0010
0000
0010
,  // measure 9
0000
0000
0010
0000
0000
0010
0010
0000
,  // measure 10
0000
0100
0000
0100
,  // measure 11
0000
0000
0100
0000
0000
0100
0100
0000
,  // measure 12
0000
1000
0000
0001
,  // measure 13
0000
0000
1000
0000
0000
1000
1000
0000
,  // measure 14
0000
1000
0000
0001
,  // measure 15
0000
0000
1000
0000
0000
0001
0001
0000
,  // measure 16
0001
0000
0000
0000
,  // measure 17
0000
0000
0000
0000
,  // measure 18
1000
0000
0000
0000
,  // measure 19
0000
0000
0000
0000
,  // measure 20
0100
0000
0000
0000
,  // measure 21
0000
0000
0000
0000
,  // measure 22
0010
0000
0000
0000
,  // measure 23
0000
0000
0000
0000
,  // measure 24
0100
0100
0100
0100
,  // measure 25
0100
0000
0000
0000
,  // measure 26
0010
0010
0010
0010
,  // measure 27
0010
0000
0000
0000
,  // measure 28
0001
0001
0001
0001
,  // measure 29
0001
0000
0000
0000
,  // measure 30
1000
1000
1000
1000
,  // measure 31
1000
0000
0000
0000
,  // measure 32
1001
0001
0001
0001
,  // measure 33
0001
0001
0001
0000
,  // measure 34
1001
1000
1000
1000
,  // measure 35
1000
1000
1000
0000
,  // measure 36
0110
0100
0100
0100
,  // measure 37
0100
0100
0100
0000
,  // measure 38
0110
0010
0010
0010
,  // measure 39
0000
0010
0010
1000
,  // measure 40
0000
0010
0010
0100
,  // measure 41
0000
0010
0010
0001
,  // measure 42
0000
0010
0010
0100
,  // measure 43
0000
0100
0100
0010
,  // measure 44
0000
0100
0100
0001
,  // measure 45
0000
0100
0100
0010
,  // measure 46
0000
0100
0100
1000
,  // measure 47
0000
0100
0010
1000
,  // measure 48
0000
0001
1000
0001
,  // measure 49
0000
0010
0100
1000
,  // measure 50
0000
0001
1000
0001
,  // measure 51
0000
1000
0001
0100
,  // measure 52
0000
0010
0100
0010
,  // measure 53
0000
0100
0010
1000
,  // measure 54
0000
0001
0100
0010
,  // measure 55
1000
0002
0000
0000
,  // measure 56
0000
2000
0000
0000
,  // measure 57
0003
0200
0000
0000
,  // measure 58
0000
0000
0000
0000
,  // measure 59
3300
1001
0000
0000
;

//---------------dance-single - ----------------
#NOTES:
     dance-single:
     :
     Medium:
     6:
     0.230757,0.279993,0.017184,0.103104,0.000000,188.000000,186.000000,2.000000,12.000000,0.000000,0.000000,0.230757,0.279993,0.017184,0.103104,0.000000,188.000000,186.000000,2.000000,12.000000,0.000000,0.000000:
// measure 0
0000
0000
0000
0000
,  // measure 1
0000
0000
0000
0000
,  // measure 2
0000
0000
0000
0000
,  // measure 3
0000
0000
0000
0000
,  // measure 4
0000
1000
0000
0001
,  // measure 5
0000
0000
0100
0000
0000
0010
0010
0000
,  // measure 6
0000
0010
0000
0100
,  // measure 7
0000
0000
0000
0000
0000
0010
0100
0000
,  // measure 8
0000
0001
0000
1000
,  // measure 9
0000
0000
0100
0000
0000
0010
0010
0000
,  // measure 10
0000
0100
0000
1000
,  // measure 11
0000
0000
0001
0000
0000
0010
0010
0000
,  // measure 12
0000
0001
0000
1000
,  // measure 13
0000
0000
0001
0000
0000
0100
0100
0000
,  // measure 14
0000
0010
0000
1000
,  // measure 15
0000
0000
0010
0000
0000
1000
0010
0000
,  // measure 16
1000
1000
0000
1000
1000
0000
0000
0000
,  // measure 17
0000
0000
0000
0000
,  // measure 18
0001
0000
0000
0000
,  // measure 19
0000
0000
0000
0000
,  // measure 20
0010
0010
0000
0010
0010
0000
0000
0000
,  // measure 21
0000
0000
0000
0000
,  // measure 22
0100
0000
0000
0000
,  // measure 23
0000
0000
0000
0000
,  // measure 24
1000
0000
0010
0000
0100
0000
0010
1000
,  // measure 25
0001
0010
0100
1000
,  // measure 26
0001
0010
0100
1000
,  // measure 27
0001
0000
1000
0001
0000
1000
0001
0000
,  // measure 28
0000
0000
1000
0000
0010
0000
0100
0001
,  // measure 29
0100
0010
1000
0001
,  // measure 30
1000
0100
0010
0100
,  // measure 31
1000
0000
0100
1000
0000
0100
1000
0000
,  // measure 32
1100
0100
0100
0100
,  // measure 33
0010
0010
0010
0010
,  // measure 34
0011
0001
0001
0001
,  // measure 35
0100
0100
0100
0100
,  // measure 36
0200
0320
2030
3002
,  // measure 37
0023
0230
2300
3002
,  // measure 38
2003
3020
0230
0302
,  // measure 39
0003
0000
0100
0001
0000
0100
0001
0000
,  // measure 40
0000
0000
1000
0100
0000
1000
0100
0000
,  // measure 41
0000
0000
0010
0100
0000
0010
0100
0000
,  // measure 42
0000
0000
1000
0001
0000
1000
0001
0000
,  // measure 43
0000
0000
0100
0001
0000
0100
0001
0000
,  // measure 44
0000
0000
1000
0010
0000
1000
0010
0000
,  // measure 45
0000
0000
0010
0100
0000
0010
0100
0000
,  // measure 46
0000
0000
0001
1000
0000
0001
1000
0000
,  // measure 47
0001
0001
1000
0000
0100
0000
0010
0000
,  // measure 48
0100
1000
0001
0010
,  // measure 49
0100
0010
0001
0100
,  // measure 50
1000
0010
0001
0100
,  // measure 51
1000
0010
0001
0100
,  // measure 52
1000
0100
0001
0100
,  // measure 53
1000
0010
0001
0010
,  // measure 54
1000
0010
0010
0100
,  // measure 55
0100
0100
0010
0000
0010
0000
0010
0000
,  // measure 56
0010
1000
1000
1000
,  // measure 57
1000
0001
0001
0001
,  // measure 58
0001
0100
0100
0100
,  // measure 59
0100
0100
0000
0000
;

//---------------dance-single - ----------------
#NOTES:
     dance-single:
     :
     Hard:
     10:
     0.419782,0.471702,0.042960,0.017184,0.124584,342.000000,337.000000,5.000000,2.000000,0.000000,0.000000,0.419782,0.471702,0.042960,0.017184,0.124584,342.000000,337.000000,5.000000,2.000000,0.000000,0.000000:
// measure 0
0000
0000
0000
0000
,  // measure 1
0000
0000
0000
0000
,  // measure 2
0000
0000
0000
0000
,  // measure 3
0000
0000
0000
0000
,  // measure 4
0001
0001
0010
0010
0001
0001
0100
0100
,  // measure 5
0001
0001
0010
0010
0001
0100
0010
0000
,  // measure 6
1000
1000
0100
0100
1000
1000
0010
0010
,  // measure 7
0000
0000
0000
0000
0000
1000
1000
0000
,  // measure 8
0001
0001
1000
1000
0100
0100
0010
0010
,  // measure 9
0100
0100
1000
1000
0001
0010
0100
0000
,  // measure 10
1000
1000
0001
0001
0100
0100
0010
0010
,  // measure 11
0100
0100
0001
0001
1000
0010
0100
0000
,  // measure 12
0001
0001
1000
1000
0100
0100
0010
0010
,  // measure 13
0100
0100
1000
1000
0001
0010
0100
0000
,  // measure 14
1000
1000
0001
0001
0100
0100
0010
0010
,  // measure 15
0100
0100
0001
0001
1000
0010
0100
0000
,  // measure 16
0001
0100
0000
0001
0100
0000
0000
0000
,  // measure 17
0000
0000
0000
0000
1000
0100
0010
0100
,  // measure 18
0000
1000
0000
0001
0000
0010
0000
0001
,  // measure 19
0000
0000
0000
1000
0000
0000
0000
0000
,  // measure 20
1000
0010
0000
1000
0010
0000
0000
0000
,  // measure 21
0000
0000
0000
0000
1000
0010
0100
0001
,  // measure 22
0000
0100
0000
0010
0000
0000
0000
1000
,  // measure 23
0100
0010
0100
0000
1000
0000
1100
0000
,  // measure 24
1000
0000
0000
0000
0100
0000
0000
0000
1000
0000
0000
0001
0000
0000
0100
0000
,  // measure 25
0000
0000
0010
0000
0000
1000
0000
0000
0001
0000
0000
0100
0000
0000
0001
0000
,  // measure 26
0100
0000
0000
0000
0010
0000
0000
0000
0100
0000
0000
0010
0000
0000
1000
0000
,  // measure 27
0000
0000
0001
0000
0000
0010
0000
0000
0100
0000
0000
1000
0000
0000
0001
0000
,  // measure 28
0001
0000
0000
0000
0010
0000
0000
0000
0001
0000
0000
1000
0000
0000
0010
0000
,  // measure 29
0000
0000
0100
0000
0000
0001
0000
0000
1000
0000
0000
0010
0000
0000
1000
0000
,  // measure 30
0010
0000
0000
0000
0100
0000
0000
0000
0010
0000
0000
0100
0000
0000
0001
0000
,  // measure 31
0000
0000
1000
0000
0000
0100
0000
0000
0010
0000
0000
0001
0000
0000
1000
0000
,  // measure 32
0001
1000
0001
1000
0001
1000
0001
1000
,  // measure 33
0010
0100
0010
0100
0010
0100
0010
0100
,  // measure 34
0010
1000
0010
1000
0010
1000
0010
1000
,  // measure 35
0001
0100
0001
0100
0001
0100
0001
0100
,  // measure 36
0001
0001
1000
1000
0100
0100
0010
0010
,  // measure 37
0100
0100
1000
1000
0001
0001
0100
0100
,  // measure 38
0010
0010
0010
0010
0010
0010
0010
0010
,  // measure 39
0000
0000
0000
0000
0100
0000
0000
0000
0001
0000
0000
0000
1000
0000
0000
0010
,  // measure 40
0000
0000
1000
0000
0000
0000
0001
0000
0000
0010
0000
0000
0100
0000
0000
1000
,  // measure 41
0000
0000
0001
0000
1000
0000
0000
0000
0100
0000
0000
0000
0010
0000
0000
0100
,  // measure 42
0000
0000
1000
0000
0000
0000
0001
0000
0000
0010
0000
0000
0100
0000
0000
1000
,  // measure 43
0000
0000
0001
0000
1000
0000
0000
0000
0001
0000
0000
0000
0100
0000
0000
0010
,  // measure 44
0000
0000
0100
0000
0000
0000
0001
0000
0000
1000
0000
0000
0010
0000
0000
1000
,  // measure 45
0000
0000
0001
0000
0010
0000
0000
0000
0100
0000
0000
0000
1000
0000
0000
0001
,  // measure 46
0000
0000
0010
0000
0000
0000
0100
0000
0000
0010
0000
0000
0001
0000
0000
0000
,  // measure 47
1001
0000
1001
0000
1000
0000
0001
0000
1000
0000
0100
0000
0010
0000
0000
0010
,  // measure 48
0000
0000
0010
0000
0100
0000
1000
0000
0001
0000
0010
0000
0001
0000
0000
0001
,  // measure 49
0000
0000
0001
0000
0010
0000
0100
0000
1000
0000
0001
0000
1000
0000
0000
1000
,  // measure 50
0000
1000
0001
1000
0100
0000
1000
0001
,  // measure 51
0100
0000
0000
0000
0100
0000
0010
0000
1000
0000
0010
0000
0100
0000
0000
0100
,  // measure 52
0000
0000
0100
0000
0010
0000
1000
0000
0001
0000
0010
0000
0100
0000
0000
0100
,  // measure 53
0000
0000
0100
0000
0010
0000
0100
0000
1000
0000
0001
0000
1000
0000
0000
1000
,  // measure 54
0000
1000
0001
1000
0100
1000
0001
0000
,  // measure 55
1001
0000
0001
0100
0001
0100
0001
0100
,  // measure 56
0001
0100
0010
1000
0010
1000
0010
1000
,  // measure 57
0010
1000
0001
0001
1000
1000
0100
0100
,  // measure 58
0010
0010
0100
0100
0010
0010
0001
0001
,  // measure 59
1000
1000
2002
0000
0000
0000
0000
0000
,  // measure 60
0000
0000
0000
0000
,  // measure 61
3003
0000
0000
0000
;
