#VERSION:0.82;
#TITLE:내가 제일 잘 나가;
#SUBTITLE:;
#ARTIST:2NE1;
#TITLETRANSLIT:I Am The Best;
#SUBTITLETRANSLIT:;
#ARTISTTRANSLIT:;
#GENRE:Urban Electro Pop;
#ORIGIN:;
#CREDIT:chewi;
#BANNER:I Am The Best.png;
#BACKGROUND:I Am The Best-bg.png;
#PREVIEWVID:;
#JACKET:I Am The Best-jacket.png;
#CDIMAGE:;
#DISCIMAGE:;
#LYRICSPATH:;
#CDTITLE:cdtitle.png;
#MUSIC:I Am The Best.ogg;
#OFFSET:-0.208000;
#SAMPLESTART:22.708000;
#SAMPLELENGTH:15.000000;
#SELECTABLE:YES;
#BPMS:0.000=128.000;
#STOPS:;
#DELAYS:;
#WARPS:;
#TIMESIGNATURES:0.000=4=4;
#TICKCOUNTS:0.000=4;
#COMBOS:0.000=1;
#SPEEDS:0.000=1.000=0.000=0;
#SCROLLS:0.000=1.000;
#FAKES:;
#LABELS:0.000=Song Start;
#BGCHANGES:15.500=I Am The Best.avi=1.000=1=0=0=StretchNoLoop==CrossFade==,
207.000=I Am The Best-bg.png=1.000=1=0=1===CrossFade==,
99999=-nosongbg-=1.000=0=0=0 // don't automatically add -songbackground-
;
#KEYSOUNDS:;
#ATTACKS:
;

//---------------dance-single - ----------------
#NOTEDATA:;
#CHARTNAME:;
#STEPSTYPE:dance-single;
#DESCRIPTION:;
#CHARTSTYLE:;
#DIFFICULTY:Beginner;
#METER:2;
#RADARVALUES:0.103888,0.104473,0.040970,0.040970,0.000000,63.000000,4.000000,4.000000,0.000000,0.000000,0.000000,0.000000,0.000000,0.103888,0.104473,0.040970,0.040970,0.000000,63.000000,4.000000,4.000000,0.000000,0.000000,0.000000,0.000000,0.000000;
#CREDIT:;
#NOTES:
// measure 0
0000
0000
0000
0000
,  // measure 1
0000
0000
0000
0000
,  // measure 2
0000
0000
0000
0000
,  // measure 3
0000
0000
0000
0000
,  // measure 4
2000
0000
0000
3000
,  // measure 5
1000
0000
0000
0000
,  // measure 6
0002
0000
0000
0003
,  // measure 7
0001
0000
0000
0000
,  // measure 8
2000
0000
0000
3000
,  // measure 9
1000
0000
0000
0000
,  // measure 10
0002
0000
0000
0003
,  // measure 11
0001
0000
0001
0000
,  // measure 12
1001
0000
0000
0000
,  // measure 13
1000
0000
0000
0000
,  // measure 14
1001
0000
0000
0000
,  // measure 15
0001
0000
0000
0000
,  // measure 16
0110
0000
0000
0000
,  // measure 17
0010
0000
0000
0000
,  // measure 18
0110
0000
0000
0000
,  // measure 19
0100
0000
0000
0000
,  // measure 20
1000
0000
1000
0000
,  // measure 21
1000
0000
1000
0000
,  // measure 22
1000
0000
0000
0000
,  // measure 23
0001
0000
0000
0000
,  // measure 24
0001
0000
0001
0000
,  // measure 25
0001
0000
0001
0000
,  // measure 26
0001
0000
0000
0000
,  // measure 27
1000
0000
0000
0000
,  // measure 28
0010
0000
0010
0000
,  // measure 29
0010
0000
0010
0000
,  // measure 30
0100
0000
0100
0000
,  // measure 31
0100
0000
0100
0000
,  // measure 32
0010
0000
0010
0000
,  // measure 33
0010
0000
0000
0000
,  // measure 34
0100
0000
0100
0000
,  // measure 35
0100
0000
0000
0000
,  // measure 36
1000
0000
0000
0000
,  // measure 37
1000
0000
0000
0000
,  // measure 38
0001
0000
0000
0000
,  // measure 39
0001
0000
0000
0000
,  // measure 40
0010
0000
0000
0000
,  // measure 41
0010
0000
0000
0000
,  // measure 42
0100
0000
0000
0000
,  // measure 43
0100
0000
0000
0000
,  // measure 44
0010
0000
0010
0000
,  // measure 45
0010
0000
0000
0000
,  // measure 46
0010
0000
0010
0000
,  // measure 47
0010
0000
0000
0000
,  // measure 48
0100
0000
0100
0000
,  // measure 49
0100
0000
0000
0000
,  // measure 50
0100
0000
0100
0000
,  // measure 51
0100
0000
0000
0000
;

//---------------dance-single - ----------------
#NOTEDATA:;
#CHARTNAME:;
#STEPSTYPE:dance-single;
#DESCRIPTION:;
#CHARTSTYLE:;
#DIFFICULTY:Easy;
#METER:4;
#RADARVALUES:0.153637,0.158246,0.030727,0.030727,0.000000,99.000000,3.000000,3.000000,0.000000,0.000000,0.000000,0.000000,0.000000,0.153637,0.158246,0.030727,0.030727,0.000000,99.000000,3.000000,3.000000,0.000000,0.000000,0.000000,0.000000,0.000000;
#CREDIT:;
#NOTES:
0000
0000
0000
0000
,
0000
0000
0000
0000
,
0000
0000
0000
0000
,
0000
0000
0000
0000
,
0010
1000
0100
0000
,
0000
0000
0000
0000
,
0010
0001
0100
0000
,
0000
0000
0000
0000
,
0010
1000
0100
0000
,
0000
0000
0000
0000
,
0010
0001
0100
0000
,
0200
0000
0000
0300
,
0100
0100
0100
0000
,
0100
0010
0100
0000
,
0010
0010
0010
0000
,
0010
0100
0010
0000
,
1000
1000
1000
0000
,
0001
1000
0001
0000
,
0001
0001
0001
0000
,
1001
0000
0000
0000
,
1000
0000
0100
0000
,
0010
0000
0001
0000
,
0001
0000
0000
0000
,
1000
0000
0000
0000
,
1000
0000
0010
0000
,
0100
0000
0001
0000
,
0100
0000
0000
0000
,
0010
0000
0000
0000
,
0010
0000
0100
0000
,
0001
0001
0001
0000
,
0010
0000
0100
0000
,
1000
1000
1000
0000
,
0100
0000
0100
0000
,
0100
0100
0100
0000
,
0010
0000
0010
0000
,
0010
0010
0010
0000
,
0002
0000
0000
0003
,
0001
0000
0000
0000
,
2000
0000
0000
3000
,
1000
0000
0000
0000
,
0010
0010
0010
0000
,
0010
0000
0000
0000
,
0100
0100
0100
0000
,
0100
0000
0000
0000
,
1000
0000
0001
0000
,
1000
0001
1000
0000
,
0001
0000
1000
0000
,
0001
1000
0001
0000
,
1000
0000
0001
0000
,
1000
0001
1001
0000
,
0001
0000
1000
0000
,
0001
1000
1001
0000
;

//---------------dance-single - ----------------
#NOTEDATA:;
#CHARTNAME:;
#STEPSTYPE:dance-single;
#DESCRIPTION:;
#CHARTSTYLE:;
#DIFFICULTY:Medium;
#METER:7;
#RADARVALUES:0.283862,0.263743,0.030727,0.112667,0.000000,180.000000,3.000000,11.000000,0.000000,0.000000,0.000000,0.000000,0.000000,0.283862,0.263743,0.030727,0.112667,0.000000,180.000000,3.000000,11.000000,0.000000,0.000000,0.000000,0.000000,0.000000;
#CREDIT:;
#NOTES:
0000
0000
0000
0000
,
0000
0000
0000
0000
,
0000
0000
0000
0000
,
0000
0000
0000
0000
,
0001
1000
0010
0100
,
0002
1000
0010
1003
,
1000
0100
0010
0001
,
2000
0100
0010
3100
,
1000
0010
0100
0001
,
0200
0010
0001
0310
,
0010
1000
0001
1000
,
2002
0000
0000
3003
,
1000
0000
1000
1000
1000
0000
0000
0000
,
1000
0001
0010
0100
,
0010
0000
0010
0010
0010
0000
0000
0000
,
0010
0100
0010
0001
,
1000
0000
1000
1000
1000
0000
0000
0000
,
1000
0010
0100
0001
,
0100
0000
0100
0100
0100
0000
0000
0000
,
0010
0010
0000
0000
,
0010
1000
0001
1000
,
0010
1000
0001
0010
,
0100
0000
0000
0100
0100
0000
0000
0000
,
0010
0000
0000
0010
0010
0000
0000
0000
,
0010
0001
1000
0100
,
1000
0010
0100
0001
,
0100
0000
0000
0100
0100
0000
0000
0000
,
0010
0000
0000
0010
0010
0000
0000
0000
,
0100
0010
1000
0001
,
0010
1000
0100
0001
,
0010
1000
0010
0001
,
0100
1000
0010
0001
,
0100
0010
0100
0010
,
0100
0010
0100
0010
0100
0000
0000
0000
,
0001
1000
0001
1000
,
0001
1000
0001
1000
0001
0000
0000
0000
,
2001
0000
3002
0000
,
0203
0000
0000
0310
0000
0000
0000
0000
,
0120
0000
0230
0000
,
0320
0000
0000
1030
0000
0000
0000
0000
,
1000
0100
0001
0100
,
1000
0010
0001
0010
,
1000
0001
1000
0001
,
1000
0001
1000
0001
1000
0000
0000
0000
,
1000
0000
1000
1000
1000
0000
0000
0000
,
1000
0001
0010
0100
,
0010
0000
0010
0010
0010
0000
0000
0000
,
0010
0100
0010
0001
,
1000
0000
1000
1000
1000
0000
0000
0000
,
1000
0010
0100
0001
,
0100
0000
0100
0100
0100
0000
0100
0010
,
0100
0000
0010
0010
0010
0000
0000
0000
;

//---------------dance-single - ----------------
#NOTEDATA:;
#CHARTNAME:;
#STEPSTYPE:dance-single;
#DESCRIPTION:;
#CHARTSTYLE:;
#DIFFICULTY:Hard;
#METER:11;
#RADARVALUES:0.475542,0.477042,0.153637,0.297031,0.061455,281.000000,15.000000,29.000000,0.000000,0.000000,0.000000,0.000000,0.000000,0.475542,0.477042,0.153637,0.297031,0.061455,281.000000,15.000000,29.000000,0.000000,0.000000,0.000000,0.000000,0.000000;
#CREDIT:;
#NOTES:
0000
0000
0000
0000
,
0000
0000
0000
0000
,
0000
0000
0000
0000
,
0000
0000
0000
0000
0000
0000
1000
0100
,
0010
0000
0001
0010
0100
0000
1000
0000
,
0001
0000
0100
0000
0010
0000
0100
0001
,
0010
0000
0100
1000
0010
0000
1000
0000
,
0001
0000
0100
0000
0010
0000
0100
0010
,
1000
0000
0100
0010
0001
0000
1000
0000
,
0100
0000
0010
0000
0001
0000
1000
0010
,
0100
0000
0001
0100
0010
0000
1000
0001
,
2000
3002
0203
0310
,
1001
0000
1000
0001
0010
0100
0000
1000
,
0001
0100
0020
0000
0130
0000
0110
0000
,
1000
0000
1000
0010
0100
0001
0000
0001
,
1000
0100
0020
0000
0130
0000
0010
0000
,
0110
0000
0100
1000
0001
0100
0000
0100
,
0001
1000
0200
0000
0310
0000
0101
0000
,
0010
0000
0100
0010
1000
0010
0000
0100
,
0010
0000
0100
0000
0001
0000
0000
0000
0000
0000
1000
0001
1000
0000
0000
0000
,
1000
0001
1000
0001
0010
0100
0010
0100
,
0020
0032
0203
2300
,
3020
0000
0000
0100
0130
0000
0000
0000
,
0200
0000
0000
0010
0310
0000
0000
0000
,
0100
0010
0100
0010
1000
0001
1000
0001
,
2000
3200
0302
0023
,
0230
0000
0000
0001
0301
0000
0000
0000
,
0002
0000
0000
0100
0103
0000
0000
0000
,
0001
0100
1000
0100
0001
0100
1000
0100
,
0001
0010
1000
0010
0001
0010
1000
0000
,
1000
0010
0001
0010
1000
0010
0001
0010
,
1000
0100
0001
0100
1000
0100
0001
0000
,
1000
0001
1000
0001
0100
0010
0100
0010
,
0100
0001
1000
0010
2000
3001
0000
0000
,
1000
0100
0010
0001
0010
0100
1000
0001
,
1000
0001
0010
0100
2000
3010
0000
0000
,
1020
0000
2030
0000
,
3020
0000
0000
0130
0000
0100
0001
0010
,
0012
0000
0023
0000
,
0230
0000
0000
0310
0000
0100
0010
0100
,
1000
0100
1100
0000
0001
0100
0101
0000
,
0100
0010
1001
0000
0010
0100
1001
0000
,
1000
0100
0010
0001
1000
0100
1000
0100
,
2000
0000
0000
0000
3010
0000
0100
0000
0001
0100
0001
0000
0000
0000
0000
0000
,
0101
0000
0000
0100
0001
0000
0100
0000
0010
0000
1000
0000
0001
0000
1000
0000
,
0001
0000
1000
0001
0000
0001
1000
0000
0010
0000
0100
0000
0001
0000
1000
0000
,
1100
0000
0000
1000
0100
0000
1000
0000
0010
0000
0100
0000
0001
0000
0001
0000
,
0100
0000
0010
1000
0000
1000
0010
0000
1000
0000
0001
0000
0010
0000
0100
0000
,
0110
0000
0000
0010
0100
0000
0010
0000
0100
0000
0010
0000
0001
0000
1000
0000
,
0001
0000
1000
0001
0000
0001
0010
0000
0100
0000
1000
0000
0100
0000
0010
0000
,
1100
0000
0000
1000
0010
0000
0100
0000
0001
0000
0100
0000
0010
0000
1000
0000
,
2002
0000
0000
3003
;
