#TITLE:Human After All;
#SUBTITLE:;
#ARTIST:Daft Punk;
#TITLETRANSLIT:;
#SUBTITLETRANSLIT:;
#ARTISTTRANSLIT:;
#GENRE:;
#CREDIT:Chewi☆;
#MENUCOLOR:#FFFFFF;
#METERTYPE:DDR X;
#BANNER:Human After All.png;
#BACKGROUND:Human After All-bg.png;
#LYRICSPATH:;
#CDTITLE:./CDTITLES/DanceDanceRevolution skyMIX3 -breeze-.png;
#MUSIC:Human After All.mp3;
#OFFSET:-0.786;
#SAMPLESTART:36.005;
#SAMPLELENGTH:15.000;
#SELECTABLE:YES;
#LISTSORT:;
#DISPLAYBPM:136.000;
#BPMS:0.000=136.240;
#STOPS:;
#BGCHANGES:;
#ATTACKS:;

//---------------dance-single - Chewi----------------
#NOTES:
     dance-single:
     Chewi:
     Beginner:
     2:
     0.108,0.139,0.046,0.037,0.000: // measure 1
0000
0000
0000
0000
,  // measure 2
0000
0000
0000
0000
,  // measure 3
0000
0000
0000
0000
,  // measure 4
0000
0000
0000
0000
,  // measure 5
1000
0000
0000
0000
,  // measure 6
0001
0000
0000
0000
,  // measure 7
1000
0000
0000
0000
,  // measure 8
0001
0000
0000
0000
,  // measure 9
0100
0000
0000
0000
,  // measure 10
0010
0000
0000
0000
,  // measure 11
0100
0000
0000
0000
,  // measure 12
0010
0000
0000
0000
,  // measure 13
1000
0000
0000
0000
,  // measure 14
0001
0000
0000
0000
,  // measure 15
1000
0000
0000
0000
,  // measure 16
0001
0000
0000
0000
,  // measure 17
1000
0000
0000
0000
,  // measure 18
0001
0000
0000
0000
,  // measure 19
0010
0000
0000
0000
,  // measure 20
0100
0000
0000
0000
,  // measure 21
0001
0000
0001
0000
,  // measure 22
1000
0000
1000
0000
,  // measure 23
0010
0000
0010
0000
,  // measure 24
0100
0000
0100
0000
,  // measure 25
0001
0000
0001
0000
,  // measure 26
1000
0000
1000
0000
,  // measure 27
0100
0000
0100
0000
,  // measure 28
0010
0000
0010
0000
,  // measure 29
0001
0000
0000
0000
,  // measure 30
1000
0000
0000
0000
,  // measure 31
1001
0000
0000
0000
,  // measure 32
0110
0000
0000
0000
,  // measure 33
0010
0000
0000
0000
,  // measure 34
0100
0000
0000
0000
,  // measure 35
0110
0000
0000
0000
,  // measure 36
1001
0000
0000
0000
,  // measure 37
2000
0000
0000
3000
,  // measure 38
1000
0000
0000
0000
,  // measure 39
0002
0000
0000
0003
,  // measure 40
0001
0000
0000
0000
,  // measure 41
0020
0000
0000
0030
,  // measure 42
0010
0000
0000
0000
,  // measure 43
0200
0000
0000
0300
,  // measure 44
0100
0000
0000
0000
,  // measure 45
0100
0000
0100
0000
,  // measure 46
0100
0000
0100
0000
,  // measure 47
0001
0000
0001
0000
,  // measure 48
0001
0000
0001
0000
,  // measure 49
0010
0000
0010
0000
,  // measure 50
0010
0000
0010
0000
,  // measure 51
1000
0000
1000
0000
,  // measure 52
1000
0000
1000
0000
,  // measure 53
1000
0000
0000
0000
,  // measure 54
0001
0000
0000
0000
,  // measure 55
0010
0000
0000
0000
,  // measure 56
0100
0000
0000
0000
,  // measure 57
0010
0000
0000
0000
,  // measure 58
1000
0000
0000
0000
,  // measure 59
0100
0000
0000
0000
,  // measure 60
0001
0000
0000
0000
,  // measure 61
1001
0000
0000
0000
;

//---------------dance-single - Chewi----------------
#NOTES:
     dance-single:
     Chewi:
     Easy:
     5:
     0.247,0.251,0.148,0.342,0.000: // measure 1
0000
0000
0000
0000
,  // measure 2
0000
0000
0000
0000
,  // measure 3
0000
0000
0000
0000
,  // measure 4
0000
0000
0000
0000
,  // measure 5
2000
3000
2000
3000
,  // measure 6
0002
0003
0002
0003
,  // measure 7
2000
3000
2000
3000
,  // measure 8
0002
0003
0002
0003
,  // measure 9
0200
0300
0200
0300
,  // measure 10
0020
0030
0020
0030
,  // measure 11
0200
0300
0200
0300
,  // measure 12
0020
0030
0020
0030
,  // measure 13
2000
3000
0100
0000
,  // measure 14
0002
0003
0010
0000
,  // measure 15
2000
3000
0010
0000
,  // measure 16
0002
0003
0100
0000
,  // measure 17
2000
3000
1000
0000
,  // measure 18
0002
0003
0001
0000
,  // measure 19
0020
0030
0100
0000
,  // measure 20
0200
0300
0010
0000
,  // measure 21
0002
0010
0000
0010
,  // measure 22
0000
0010
0000
0013
,  // measure 23
2000
0010
0000
0010
,  // measure 24
0000
0010
0000
3010
,  // measure 25
0002
0100
0000
0100
,  // measure 26
0000
0100
0000
0103
,  // measure 27
2000
0100
0000
0100
,  // measure 28
0000
0100
0000
3100
,  // measure 29
0001
0000
0001
0000
,  // measure 30
1000
0000
1000
0000
,  // measure 31
1001
0000
0110
0000
,  // measure 32
1001
0000
0110
0000
,  // measure 33
0010
0000
0010
0000
,  // measure 34
0100
0000
0100
0000
,  // measure 35
1001
0000
0110
0000
,  // measure 36
1001
0000
0110
0000
,  // measure 37
1000
1000
1000
1000
,  // measure 38
1000
1000
1000
1000
,  // measure 39
0001
0001
0001
0001
,  // measure 40
0001
0001
0001
0001
,  // measure 41
0010
0010
0010
0010
,  // measure 42
0010
0010
0010
0010
,  // measure 43
0100
0100
0100
0100
,  // measure 44
0100
0100
0100
0100
,  // measure 45
0200
0300
0200
0300
,  // measure 46
0200
0300
0200
0300
,  // measure 47
0001
0000
1000
0000
,  // measure 48
0001
0000
1000
0000
,  // measure 49
0020
0030
0020
0030
,  // measure 50
0020
0030
0020
0030
,  // measure 51
1000
0000
0001
0000
,  // measure 52
1000
0000
0001
0000
,  // measure 53
1001
0000
0110
0000
,  // measure 54
1001
0000
0110
0000
,  // measure 55
1000
0000
0100
0000
,  // measure 56
0001
0000
0010
0000
,  // measure 57
1001
0000
0110
0000
,  // measure 58
1001
0000
0110
0000
,  // measure 59
0001
0000
0010
0000
,  // measure 60
1000
0000
0100
0100
,  // measure 61
0200
0300
0000
0000
;

//---------------dance-single - Chewi----------------
#NOTES:
     dance-single:
     Chewi:
     Medium:
     8:
     0.316,0.334,0.046,0.129,0.000: // measure 1
0000
0000
0000
0000
,  // measure 2
0000
0000
0000
0000
,  // measure 3
0000
0000
0000
0000
,  // measure 4
0000
0000
0000
0000
,  // measure 5
1000
0100
0000
0000
1000
0100
0000
0000
,  // measure 6
1000
0100
0000
0000
1000
0100
0000
0000
,  // measure 7
0001
0100
0000
0000
0001
0100
0000
0000
,  // measure 8
0001
0100
0000
0000
0001
0100
0000
0000
,  // measure 9
0010
0100
0000
0000
0010
0100
0000
0000
,  // measure 10
0010
0100
0000
0000
0010
0100
0000
0000
,  // measure 11
1000
0001
0000
0000
1000
0001
0000
0000
,  // measure 12
1000
0001
0000
0000
1000
0001
0000
0000
,  // measure 13
2000
0100
0000
3100
,  // measure 14
0002
0010
0000
0013
,  // measure 15
2000
0010
0000
3010
,  // measure 16
0002
0100
0000
0103
,  // measure 17
2000
0001
0000
3100
,  // measure 18
0002
1000
0000
0103
,  // measure 19
0020
0001
0000
1030
,  // measure 20
0200
0001
0000
1300
,  // measure 21
0010
0010
0100
0100
,  // measure 22
0010
0010
0100
0100
,  // measure 23
0001
0001
1000
1000
,  // measure 24
0001
0001
1000
1000
,  // measure 25
0010
0010
0100
0100
,  // measure 26
0010
0010
0100
0100
,  // measure 27
0001
0001
0100
0100
,  // measure 28
1000
1000
0010
0010
,  // measure 29
0100
0010
0100
0000
1000
0000
0100
0000
,  // measure 30
0010
0100
0010
0000
0001
0000
0100
0000
,  // measure 31
0001
0100
1000
0000
0010
0000
1000
0000
,  // measure 32
1000
0100
0001
0000
0010
0000
1000
0000
,  // measure 33
0010
0100
0001
0000
0100
0000
0010
0000
,  // measure 34
0100
0010
1000
0000
0100
0000
0010
0000
,  // measure 35
0100
1000
0001
0000
0100
0000
0010
0000
,  // measure 36
0010
1000
0001
0000
0010
0000
0100
0000
,  // measure 37
0012
0000
0010
0000
,  // measure 38
1000
0000
0103
0000
,  // measure 39
2010
0000
0001
0000
,  // measure 40
0100
0000
3010
0000
,  // measure 41
1002
0000
0100
0000
,  // measure 42
0010
0000
1003
0000
,  // measure 43
0210
0000
0001
0000
,  // measure 44
1000
0000
0301
0000
,  // measure 45
0001
0000
0010
0000
0001
0010
0001
0000
,  // measure 46
1000
0000
0100
0000
1000
0100
1000
0000
,  // measure 47
0001
0000
1000
0000
0001
1000
0001
0000
,  // measure 48
1000
0000
0001
0000
1000
0001
1000
0000
,  // measure 49
0010
0001
0100
1000
,  // measure 50
0010
1000
0100
0001
,  // measure 51
0010
0100
0001
0010
,  // measure 52
0001
0100
0010
0001
,  // measure 53
0100
0100
0100
0000
0000
0100
0100
0000
,  // measure 54
0010
0010
0010
0000
0000
0010
0010
0000
,  // measure 55
1000
0001
1000
0000
0000
0001
1000
0000
,  // measure 56
0001
1000
0001
0000
0000
1000
0001
0000
,  // measure 57
1000
0100
1000
0000
0000
0100
1000
0000
,  // measure 58
0001
0010
0001
0000
0000
0001
0010
0000
,  // measure 59
0010
0100
0010
0000
0000
0100
0010
0000
,  // measure 60
0001
1000
0010
0000
0100
0000
0000
0202
,  // measure 61
0000
0303
0000
0000
;

//---------------dance-single - Chewi----------------
#NOTES:
     dance-single:
     Chewi:
     Hard:
     10:
     0.462,0.418,0.037,0.018,0.000: // measure 1
0000
0000
0000
0000
,  // measure 2
0000
0000
0000
0000
,  // measure 3
0000
0000
0000
0000
,  // measure 4
0000
0000
0000
0000
,  // measure 5
1000
0010
0001
0000
1000
0010
0001
0000
,  // measure 6
1000
0010
0001
0000
1000
0010
0001
0000
,  // measure 7
1000
0100
0001
0000
1000
0100
0001
0000
,  // measure 8
1000
0100
0001
0000
1000
0100
0001
0000
,  // measure 9
1000
0010
0100
0000
1000
0010
0100
0000
,  // measure 10
1000
0010
0100
0000
1000
0010
0100
0000
,  // measure 11
0001
0010
0100
0000
0001
0010
0100
0000
,  // measure 12
0001
0010
0100
0000
0001
0010
0100
0000
,  // measure 13
0010
0100
1000
0000
0010
0100
0001
0000
,  // measure 14
0010
0100
1000
0000
0010
0100
0001
0000
,  // measure 15
1000
0001
0100
0000
0001
1000
0100
0000
,  // measure 16
1000
0001
0100
0000
0001
1000
0100
0000
,  // measure 17
1000
0010
0100
0000
0001
0010
0100
0000
,  // measure 18
1000
0010
0100
0000
0001
0010
0100
0000
,  // measure 19
1000
0010
0001
0000
1000
0010
0001
0000
,  // measure 20
0001
0010
1000
0000
0001
0010
1000
0000
,  // measure 21
0100
0010
0001
0100
0000
0010
0100
0000
,  // measure 22
0010
1000
0100
0010
0000
0100
0010
0000
,  // measure 23
0001
1000
0010
0100
0000
0010
0100
0000
,  // measure 24
0001
1000
0100
0010
0000
0100
0010
0000
,  // measure 25
0001
0010
0100
1000
0000
0100
1000
0000
,  // measure 26
1000
0100
0010
0001
0000
0010
0001
0000
,  // measure 27
1000
0010
0001
0010
0000
0100
0100
0000
,  // measure 28
1000
0100
0001
0100
0000
0100
0100
0000
,  // measure 29
1000
0100
0010
0000
1000
0100
0010
0000
,  // measure 30
1000
0100
0010
0000
1000
0100
0010
0000
,  // measure 31
0001
0010
0100
0000
0001
0010
0100
0000
,  // measure 32
0001
0010
0100
0000
0001
0010
0100
0000
,  // measure 33
1000
0001
0100
0000
0001
1000
0100
0000
,  // measure 34
1000
0001
0100
0000
0001
1000
0100
0000
,  // measure 35
1000
0001
0010
0000
0001
1000
0010
0000
,  // measure 36
1000
0001
0010
0000
0001
1000
0010
0000
,  // measure 37
0001
0100
1000
0010
0001
0000
0100
0000
,  // measure 38
0001
0010
1000
0100
0001
0000
0010
0000
,  // measure 39
1000
0010
0100
1000
0010
0000
0100
0000
,  // measure 40
0001
0010
0100
0001
0010
0000
0100
0000
,  // measure 41
0010
0001
0100
1000
0010
0000
0100
0000
,  // measure 42
0010
1000
0100
0001
0010
0000
0001
0000
,  // measure 43
0010
0100
1000
0001
0100
0000
0010
0000
,  // measure 44
0100
0010
1000
0001
0010
0000
0100
0000
,  // measure 45
0011
0100
1000
0000
0010
1000
0100
0000
,  // measure 46
0010
0001
0100
0000
0010
1000
0100
0000
,  // measure 47
1100
0010
0001
0000
0100
0001
0010
0000
,  // measure 48
0100
1000
0010
0000
0100
0001
0010
0000
,  // measure 49
0110
0001
1000
0000
0010
0100
0001
0000
,  // measure 50
0100
0010
1000
0000
0010
0100
0001
0000
,  // measure 51
1100
0010
0001
0000
0100
1000
0010
0000
,  // measure 52
0100
0001
0010
0000
0100
0010
0100
0000
,  // measure 53
0010
0001
0100
0001
0010
0010
0010
0000
,  // measure 54
0100
1000
0010
1000
0100
0100
0100
0000
,  // measure 55
1000
0001
0100
0001
1000
1000
1000
0000
,  // measure 56
1000
0100
0001
0100
0001
0001
0001
0000
,  // measure 57
0100
0010
1000
0001
0010
0010
0010
0000
,  // measure 58
1000
0100
0010
0001
0010
0010
0010
0000
,  // measure 59
0001
0100
1000
0010
1000
1000
1000
0000
,  // measure 60
1000
0010
0100
0001
0020
0000
0130
2000
,  // measure 61
0000
3000
0000
0000
;
