#TITLE:How Bizarre;
#SUBTITLE:;
#ARTIST:OMC;
#TITLETRANSLIT:;
#SUBTITLETRANSLIT:;
#ARTISTTRANSLIT:;
#GENRE:;
#CREDIT:Chewi☆;
#MENUCOLOR:;
#METERTYPE:DDR X;
#BANNER:How Bizarre.png;
#BACKGROUND:How Bizarre-bg.png;
#LYRICSPATH:;
#CDTITLE:;
#MUSIC:How Bizarre.mp3;
#OFFSET:-0.529;
#SAMPLESTART:61.571;
#SAMPLELENGTH:15.000;
#SELECTABLE:YES;
#LISTSORT:;
#DISPLAYBPM:125.000;
#BPMS:0.000=124.900;
#STOPS:;
#BGCHANGES:;
#ATTACKS:;

//---------------dance-single - Chewi----------------
#NOTES:
     dance-single:
     Chewi:
     Hard:
     10:
     0.397,0.386,0.177,0.000,0.000:
0000
0000
0000
0000
,
0000
0000
0000
0000
,
0000
0000
0000
0000
,
0000
0000
0000
0000
,
1000
0100
0010
0000
0001
0000
0101
0000
,
0001
0100
0010
0000
1000
0000
1010
0000
,
1000
0001
1000
0000
0001
1000
0001
0000
,
1000
0100
0010
0000
0001
0010
0100
0000
,
1000
0000
0100
0010
0001
0000
0000
0000
,
0001
0000
0100
0010
1000
0000
0000
0000
,
0010
0000
0100
0000
0001
0000
0010
0100
,
1100
0101
1100
0000
,
1000
0000
0100
0000
0010
0001
0100
0000
,
0010
0000
0100
0010
0100
0000
0101
0000
,
0001
0000
0010
0100
1000
0000
0010
0000
,
1000
0000
0100
0010
0100
0000
0000
0000
,
1000
0001
0100
0000
0010
1000
1000
0000
,
1000
0001
0010
0000
0100
0010
0010
0000
,
0011
0000
1100
0000
0101
0000
0100
0010
,
0000
0010
0100
0001
1000
0000
0100
0010
,
0001
0000
0010
0001
0010
0000
0001
0100
,
0001
0000
0100
1000
0100
0000
1000
0010
,
1000
0000
0010
0100
0010
0000
1000
0001
,
1000
0000
0100
0010
0001
0010
0100
1000
,
0010
1000
0100
0000
0010
0001
0100
0000
,
0010
0101
1000
1100
,
1000
0100
0010
0000
0001
0100
0010
0000
,
1000
1010
0001
0011
,
1000
0100
1000
0000
0100
0010
0001
0000
,
0001
0100
0001
0000
0100
0010
1000
0000
,
0010
0000
0010
0000
0010
0100
0001
1000
,
0000
0100
0010
0100
1000
0000
0010
0010
,
1000
0000
0001
1000
0100
0000
1000
0100
,
1000
0000
1000
0001
0010
0000
0001
0010
,
0001
0000
0010
0100
1000
0000
0010
0100
,
0001
0000
0100
0010
1000
0001
1000
0100
,
0010
0001
0010
0000
0100
0000
1100
0000
,
1000
0001
1000
0000
0001
0000
1000
0000
,
0010
0100
0001
0000
0100
0000
0101
0000
,
0001
0100
0010
0000
1000
0000
0100
0000
,
0010
0000
0100
0000
1000
0001
0100
1000
,
0010
0000
0001
0000
0010
0000
0100
1000
,
0010
0000
1000
0000
0100
0001
0010
1000
,
0100
0000
0010
0000
0100
1000
0001
1000
,
0100
0000
0010
0000
1000
0100
0010
1000
,
0100
0000
0010
0000
0001
0010
0100
1000
,
0010
1000
0001
0010
,
0100
1000
0100
0000
0010
0001
0010
0000
,
0100
0000
1000
0000
0001
0100
0010
0000
,
1000
1100
0001
0101
,
1000
0000
0010
0000
0100
0001
0010
0000
,
0100
0110
0010
0110
,
0010
0001
0010
0000
0100
1000
0100
0000
,
1000
0100
0010
0001
0010
0000
0000
0000
,
0001
0100
0001
0000
0100
0010
0100
0000
,
0010
1000
0100
0010
0001
0000
0010
0100
,
1000
0000
0001
0000
0100
0010
0000
0010
,
0100
0000
0101
0000
1000
0010
0100
0001
,
1000
0000
0000
0000
;

//---------------dance-single - Chewi----------------
#NOTES:
     dance-single:
     Chewi:
     Medium:
     7:
     0.294,0.359,0.204,0.000,0.000:
0000
0000
0000
0000
,
0000
0000
0000
0000
,
0000
0000
0000
0000
,
0000
0000
0000
0000
,
1000
0100
0001
0010
,
1000
0100
1000
0000
,
1000
0010
0001
0100
,
1000
0010
1000
0000
,
0110
0000
0010
0100
0010
0000
0000
0000
,
0110
0000
0100
0010
0100
0000
0000
0000
,
1000
0100
0010
0001
,
0011
1001
1100
0000
,
1000
0000
0001
0000
1000
0100
1000
0000
,
0001
1000
1100
0000
,
1000
0000
0001
0000
1000
0001
1000
0000
,
0001
0100
0101
0000
,
0100
0000
0010
0000
1000
0010
1000
0000
,
0100
0010
0011
0000
,
0001
0000
0010
0000
0100
1000
0010
0000
,
1000
0100
1100
0000
,
0000
0000
1000
0001
1000
0000
0001
0000
,
0101
0000
0001
1000
0001
0000
1000
0000
,
1100
0000
0100
0010
0100
0000
0010
0000
,
0011
0000
0100
0010
0100
0000
0010
0000
,
1010
1000
0001
0000
,
1000
0100
0010
0000
,
0011
0010
0100
0000
,
1000
0010
0100
0000
,
0001
0000
0100
0000
0001
0100
0001
0000
,
0100
0010
1000
0000
,
1000
0000
0100
0000
0010
0100
1000
0000
,
0010
0100
0010
0000
,
0000
0000
1000
0001
1000
0000
0001
0000
,
0101
0000
1000
0001
1000
0000
1000
0000
,
1100
0010
0011
1000
,
1100
0001
1000
0010
,
0100
0001
0010
0000
,
1000
0100
0001
0000
,
0010
1000
0100
0000
,
0010
0100
1000
0000
,
0010
0100
0001
0010
,
0100
0001
0010
0000
,
1000
0100
0010
1000
,
0100
0010
0001
0000
,
0100
0010
1000
0001
,
0010
0100
1000
0000
,
1000
0100
0001
0100
,
1000
0010
1000
0000
0001
0010
0001
0000
,
0010
0100
1000
0001
,
0100
0110
0010
0110
,
0010
1000
0100
0010
,
0001
0011
1000
1010
,
1000
0001
0100
0010
,
0001
0100
1000
0010
,
0100
0010
1000
0100
,
0010
1000
0100
0010
,
0001
0000
0010
0000
0100
1000
0000
0010
,
0000
0000
0000
0100
0010
0100
0000
0110
;

//---------------dance-single - Chewi----------------
#NOTES:
     dance-single:
     Chewi:
     Beginner:
     2:
     0.139,0.180,0.027,0.000,0.000:
0000
0000
0000
0000
,
0000
0000
0000
0000
,
0000
0000
0000
0000
,
0000
0000
0000
0000
,
1000
0000
0100
0000
,
0001
0000
0100
0000
,
1000
0000
0001
0000
,
1000
0000
0001
0000
,
1000
0000
0010
0000
,
0001
0000
0001
0000
,
0001
0000
0010
0000
,
1000
0000
1000
0000
,
1001
0000
0010
0000
,
0010
0000
0010
0000
,
0110
0000
1000
0000
,
1000
0000
1000
0000
,
0001
0000
0100
0000
,
0010
0000
0100
0000
,
1000
0000
0010
0000
,
0100
0000
0010
0000
,
0000
0100
0000
0100
,
0000
0100
0000
0100
,
0000
0010
0000
0010
,
0000
0010
0000
0010
,
0010
0000
0010
0000
,
0100
0000
0100
0000
,
0001
0000
0001
0000
,
1000
0000
1000
0000
,
0100
0000
0100
0000
,
0010
0000
0010
0000
,
0001
0000
0100
0000
,
0001
0000
0100
0000
,
0000
0010
0000
0010
,
0000
0010
0000
0010
,
0000
0100
0000
0100
,
0000
0100
0000
0100
,
0100
0000
1000
0000
,
1000
0000
0010
0000
,
0100
0000
0100
0000
,
0010
0000
0100
0000
,
0010
0000
1000
0000
,
0001
0000
0000
0000
,
0010
0000
0100
0000
,
0010
0000
0000
0000
,
0100
0000
1000
0000
,
1000
0000
0100
0000
,
0010
0000
0001
0000
,
0100
0000
1000
0000
,
1000
0000
0100
0000
,
0001
0000
1000
0000
,
0001
0000
0100
0000
,
1000
0000
0100
0000
,
0100
0000
1000
0000
,
0001
0000
0001
0000
,
0010
0000
1000
0000
,
0010
0000
0010
0000
,
0010
0000
0001
0000
,
1000
0000
1000
0000
,
0110
0000
0000
0000
;

//---------------dance-single - Chewi----------------
#NOTES:
     dance-single:
     Chewi:
     Easy:
     4:
     0.217,0.231,0.062,0.000,0.000:
0000
0000
0000
0000
,
0000
0000
0000
0000
,
0000
0000
0000
0000
,
0000
0000
0000
0000
,
1000
1000
0100
0000
,
0001
0001
0100
0000
,
1000
0000
0001
0000
,
1000
0000
0001
0000
,
1000
0100
0010
0000
,
0001
0000
0001
0000
,
0001
0100
0010
0000
,
1000
0000
1000
0000
,
1001
0000
0110
0000
,
0010
0100
0010
0000
,
0110
0000
1001
0000
,
1000
0001
1000
0000
,
0001
0000
0100
0000
,
0010
0001
0100
0000
,
1000
0000
0010
0000
,
0100
1000
0010
0000
,
0000
0100
0001
0100
,
0001
0100
1000
0100
,
1000
0010
1000
0010
,
1000
0010
0001
0010
,
0010
0100
0010
0000
,
0100
0010
0100
0000
,
0001
0100
0001
0000
,
1000
0100
1000
0000
,
0100
0100
0100
0000
,
0010
0010
0010
0000
,
0001
0010
0100
1000
,
0001
0010
0100
1000
,
0000
0010
0001
0010
,
0001
0010
1000
0010
,
1000
0100
1000
0100
,
1000
0100
0001
0100
,
0001
0010
1000
0000
,
1000
0100
0010
0000
,
0100
0010
0100
0000
,
0010
0001
0100
0000
,
0010
0010
1000
0100
,
0001
0000
0000
0010
,
0010
0001
0100
1000
,
0010
0000
0000
0100
,
0100
0010
1000
0001
,
1000
0000
0100
0100
,
0010
0000
1001
0000
,
0100
0000
1001
0000
,
1000
0010
0100
0000
,
0001
0010
1000
0100
,
0001
0010
0100
0000
,
1000
0010
0100
0001
,
0100
0010
1000
0000
,
0001
1000
0001
0000
,
0010
0100
1000
0000
,
0010
1000
0010
0000
,
0010
0100
0001
0000
,
1000
0001
1000
0000
,
0110
0000
0000
0000
;
