#TITLE:Hot n Cold;
#SUBTITLE:;
#ARTIST:Katy Perry;
#TITLETRANSLIT:;
#SUBTITLETRANSLIT:;
#ARTISTTRANSLIT:;
#GENRE:;
#CREDIT:Chewi☆;
#MENUCOLOR:;
#METERTYPE:DDR X;
#BANNER:Hot n Cold.png;
#BACKGROUND:Hot n Cold-bg.png;
#LYRICSPATH:;
#CDTITLE:;
#MUSIC:Hot n Cold.mp3;
#OFFSET:-0.140;
#SAMPLESTART:32.550;
#SAMPLELENGTH:15.000;
#SELECTABLE:YES;
#LISTSORT:;
#DISPLAYBPM:132.000;
#BPMS:0.000=132.000;
#STOPS:;
#BGCHANGES:;
#ATTACKS:;

//---------------dance-single - Chewi----------------
#NOTES:
     dance-single:
     Chewi:
     Hard:
     10:
     0.408,0.455,0.287,0.042,0.000:
0000
0000
0000
0000
,
0000
0000
0000
0000
,
1000
0100
1000
1100
,
0001
0100
0001
0101
,
0100
0010
0100
0110
,
1000
0001
1000
1001
,
0001
0010
0100
0000
0010
0100
0010
0000
,
1000
0100
0010
0000
0100
0010
0100
0000
,
1000
0100
1000
0000
0100
0100
0100
0000
,
0001
0100
0001
0000
0100
0100
0100
0000
,
0010
0100
0010
0000
1000
0100
0010
0000
,
0100
0010
0100
0000
0010
0001
0100
0000
,
0001
0100
0001
0000
0100
0010
0100
0000
,
0010
1000
0010
0000
1000
0100
1000
0000
,
0100
0110
0011
0110
,
0100
0110
1100
0110
,
0001
0100
1000
0010
,
0001
0010
1000
0100
,
0010
0100
0010
0100
0010
0100
0010
0100
,
0001
1000
0001
1000
0001
1000
0001
1000
,
1001
1100
1001
0000
,
1000
0001
0100
0000
,
0001
0100
0001
0100
0001
0100
0001
0100
,
0010
0100
0010
0100
0010
0100
0010
0100
,
0110
1001
0110
0000
,
0010
0100
1000
0000
,
1000
0000
0100
1000
0010
0100
0001
0100
,
0010
0100
0001
0010
,
0001
0000
0010
0100
1000
0010
1000
0100
,
0010
0001
1000
0010
,
0100
0010
0100
0010
0100
0010
0100
0010
,
1000
0010
1000
0010
1000
0010
1000
0010
,
1000
0100
0010
0000
0011
0000
0000
0000
,
0001
0100
0010
0000
1010
0000
0000
0000
,
1000
0100
1000
0000
0100
0001
0100
0000
,
0001
0100
1000
0100
0001
0100
1000
0100
,
1000
0010
1000
0000
0001
0010
0001
0000
,
0001
0010
1000
0010
0001
0010
1000
0010
,
0100
0010
0100
0000
0001
0100
0001
0000
,
0001
0100
1000
0100
0001
0010
0100
0010
,
0001
0100
0001
0000
0100
0010
0100
0000
,
0010
1000
0100
1000
0010
1000
0100
0010
,
1001
0100
1001
0010
,
0010
0100
0001
0000
0001
0100
0010
0000
,
1000
0100
0001
0010
1000
0000
0100
0000
,
0100
1000
0010
0001
0100
0000
1000
0000
,
1001
0100
1001
0010
,
0101
0010
1100
0010
,
0001
0010
0100
1000
0001
0010
0100
1000
,
0001
0100
0010
1000
0001
0100
0010
1000
,
0001
1001
1000
1001
,
0202
0000
0000
0003
,
2000
0000
0000
0300
,
0020
0000
0000
3000
,
0002
0000
0000
0000
,
0000
0000
0000
0033
,
0001
0010
0100
1000
0001
0000
1100
0000
,
1000
0100
0010
0001
1000
0000
1010
0000
,
0110
1001
0110
0000
,
0110
0001
0110
1000
;

//---------------dance-single - Chewi----------------
#NOTES:
     dance-single:
     Chewi:
     Medium:
     6:
     0.292,0.303,0.161,0.059,0.000: // measure 1
0000
0000
0000
0000
,  // measure 2
0000
0000
0000
0000
,  // measure 3
1000
1000
1000
1000
,  // measure 4
0001
0001
0001
0001
,  // measure 5
0100
0100
0100
0100
,  // measure 6
0010
0010
0010
0010
,  // measure 7
0010
0100
0010
0100
,  // measure 8
0001
1000
0001
1000
,  // measure 9
1000
0001
1000
0001
,  // measure 10
0010
0100
0010
0100
,  // measure 11
0010
0001
0100
1000
,  // measure 12
0010
1000
0100
0001
,  // measure 13
0010
0100
0010
0100
,  // measure 14
1000
0100
1000
0100
,  // measure 15
0001
0100
0001
0100
,  // measure 16
0010
0100
0010
0100
,  // measure 17
0100
0010
0100
0010
,  // measure 18
1000
1010
0001
0011
,  // measure 19
1000
0000
1000
0000
1000
1000
1000
0000
,  // measure 20
0001
0000
0001
0000
0001
0001
0001
0000
,  // measure 21
0110
0000
1001
0000
,  // measure 22
0110
0000
1001
0000
,  // measure 23
0100
0000
0100
0000
0100
0100
0100
0000
,  // measure 24
0010
0000
0010
0000
0010
0010
0010
0000
,  // measure 25
0110
0000
1001
0000
,  // measure 26
0110
0000
1001
0000
,  // measure 27
0020
0000
0100
1000
,  // measure 28
0100
1000
0130
0000
,  // measure 29
0200
0000
0010
0001
,  // measure 30
0010
0001
0310
0000
,  // measure 31
0001
0000
1000
0000
0001
0001
0001
0000
,  // measure 32
1000
0000
0001
0000
1000
1000
1000
0000
,  // measure 33
1100
0000
0101
0000
,  // measure 34
0011
0000
1010
0000
,  // measure 35
0010
0010
0010
0010
,  // measure 36
0010
0100
0010
0000
0100
0010
0100
0000
,  // measure 37
0100
0100
0100
0100
,  // measure 38
0100
0010
0100
0000
0010
0100
0010
0000
,  // measure 39
0010
1000
0100
0010
,  // measure 40
1000
0100
0001
0100
,  // measure 41
0010
0001
0100
1000
,  // measure 42
0010
0001
0010
1000
,  // measure 43
1010
0000
0011
0000
,  // measure 44
0001
0010
1000
0000
1000
0010
0001
0000
,  // measure 45
0001
0100
0010
0001
,  // measure 46
0100
0010
1000
0100
,  // measure 47
1100
0000
0101
0000
,  // measure 48
0001
0100
1000
0000
1000
0100
0001
0000
,  // measure 49
0001
0010
0100
0001
,  // measure 50
0010
0100
1000
0001
,  // measure 51
1000
1000
1000
0000
0001
0001
0001
0000
,  // measure 52
2002
0000
0000
3000
,  // measure 53
0200
0000
0000
0003
,  // measure 54
0020
0000
0000
0300
,  // measure 55
2000
0000
0000
0000
,  // measure 56
0000
0000
0000
3030
,  // measure 57
0010
0000
0010
0000
0010
0100
0010
0000
,  // measure 58
0100
0000
0100
0000
0100
0010
0100
0000
,  // measure 59
1000
0100
0010
1000
,  // measure 60
1000
0100
0001
0000
0001
0100
1000
0000
;

//---------------dance-single - Chewi----------------
#NOTES:
     dance-single:
     Chewi:
     Easy:
     4:
     0.209,0.254,0.085,0.118,0.000: // measure 1
0000
0000
0000
0000
,  // measure 2
0000
0000
0000
0000
,  // measure 3
2000
0000
0000
3000
,  // measure 4
0200
0000
0000
0300
,  // measure 5
0020
0000
0000
0030
,  // measure 6
0002
0000
0000
0003
,  // measure 7
0001
0100
1000
0000
,  // measure 8
1000
0010
0001
0000
,  // measure 9
0001
0010
1000
0000
,  // measure 10
1000
0100
0001
0000
,  // measure 11
2000
0000
0000
3000
,  // measure 12
0002
0000
0000
0003
,  // measure 13
0200
0000
0000
0300
,  // measure 14
0020
0000
0000
0030
,  // measure 15
0100
0010
0001
0000
,  // measure 16
0001
0100
1000
0000
,  // measure 17
0100
1000
0010
0000
,  // measure 18
1000
0010
0001
0000
,  // measure 19
0010
0010
0010
0010
,  // measure 20
0100
0100
0100
0100
,  // measure 21
1000
0000
0001
0000
,  // measure 22
1000
0000
0001
0000
,  // measure 23
0001
0001
0001
0001
,  // measure 24
1000
1000
1000
1000
,  // measure 25
0100
0000
0010
0000
,  // measure 26
0100
0000
0010
0000
,  // measure 27
2002
0000
0000
3000
,  // measure 28
0100
0100
0103
0000
,  // measure 29
0220
0000
0000
0030
,  // measure 30
0010
0010
0310
0000
,  // measure 31
0010
1000
0010
1000
,  // measure 32
0100
1000
0100
1000
,  // measure 33
0100
0000
0010
0000
,  // measure 34
0100
0000
0010
0000
,  // measure 35
0001
0001
0001
0000
,  // measure 36
0001
1000
0010
0100
,  // measure 37
0100
0100
0100
0000
,  // measure 38
0100
0010
1000
0001
,  // measure 39
1000
1000
1000
0000
,  // measure 40
0001
0010
0100
1000
,  // measure 41
0100
0100
0100
0000
,  // measure 42
0010
0100
0010
0110
,  // measure 43
1002
0000
1000
0000
,  // measure 44
1000
1000
1003
0000
,  // measure 45
1000
0010
0001
0100
,  // measure 46
1000
0100
0010
0001
,  // measure 47
0210
0000
0010
0000
,  // measure 48
0010
0010
0310
0000
,  // measure 49
0100
0001
0010
1000
,  // measure 50
0100
1000
0010
0100
,  // measure 51
0001
0000
0000
0000
,  // measure 52
1001
0000
0000
0000
,  // measure 53
0110
0000
0000
0000
,  // measure 54
1001
0000
0000
0000
,  // measure 55
0110
0000
0000
0000
,  // measure 56
0000
0000
0000
0000
,  // measure 57
1000
0001
1000
0001
,  // measure 58
0100
0010
0100
0010
,  // measure 59
0110
0000
1000
0000
,  // measure 60
0010
0000
0001
1000
,  // measure 61
0001
0000
0000
0000
;

//---------------dance-single - Chewi----------------
#NOTES:
     dance-single:
     Chewi:
     Beginner:
     2:
     0.124,0.151,0.034,0.101,0.000:
0000
0000
0000
0000
,
0000
0000
0000
0000
,
1000
0000
0000
0000
,
0001
0000
0000
0000
,
1000
0000
0000
0000
,
0001
0000
0000
0000
,
0010
0000
0000
0000
,
0100
0000
0000
0000
,
0010
0000
0000
0000
,
0100
0000
0000
0000
,
0001
0000
0000
0000
,
0100
0000
0000
0000
,
1000
0000
0000
0000
,
0010
0000
0000
0000
,
0001
0000
0000
0000
,
0010
0000
0000
0000
,
1000
0000
0000
0000
,
0100
0000
0000
0000
,
0020
0000
0000
0030
,
0020
0000
0000
0030
,
0010
0000
0110
0000
,
0100
0000
0010
0000
,
0200
0000
0000
0300
,
0200
0000
0000
0300
,
0100
0000
0110
0000
,
0010
0000
0100
0000
,
2000
0000
0000
3000
,
1000
0000
1000
0000
,
0002
0000
0000
0003
,
0001
0000
0001
0000
,
0001
0000
1000
0000
,
0001
0000
1000
0000
,
0010
0000
0110
0000
,
0100
0000
0010
0000
,
0001
0001
0001
0000
,
0001
0000
1000
0000
,
1000
1000
1000
0000
,
1000
0000
0001
0000
,
0100
0100
0100
0000
,
0010
0000
0100
0000
,
0010
0010
0010
0000
,
0010
0000
0010
0000
,
0002
0000
0000
0003
,
0002
0000
0000
0003
,
0001
0000
1000
0000
,
0001
0000
1000
0000
,
2000
0000
0000
3000
,
2000
0000
0000
3000
,
1000
0000
0001
0000
,
0100
0000
0010
0000
,
0110
0000
0000
0000
,
0002
0000
0000
0000
,
0000
0000
0000
0003
,
2000
0000
0000
0000
,
0000
0000
0000
3000
,
0000
0000
0000
0000
,
0100
0100
0100
0000
,
1000
0000
0010
0000
,
0010
0010
0010
0000
,
1000
0000
0100
0000
;
