#VERSION:0.83;
#TITLE:Hot Summer;
#SUBTITLE:;
#ARTIST:f(x);
#TITLETRANSLIT:;
#SUBTITLETRANSLIT:;
#ARTISTTRANSLIT:;
#GENRE:Pop;
#ORIGIN:;
#CREDIT:chewi;
#BANNER:Hot Summer.png;
#BACKGROUND:Hot Summer-bg.png;
#PREVIEWVID:;
#JACKET:Hot Summer-jacket.png;
#CDIMAGE:;
#DISCIMAGE:;
#LYRICSPATH:;
#CDTITLE:cdtitle.png;
#MUSIC:Hot Summer.ogg;
#OFFSET:-0.002000;
#SAMPLESTART:62.441002;
#SAMPLELENGTH:15.000000;
#SELECTABLE:YES;
#DISPLAYBPM:123.000000;
#BPMS:0.000=123.000;
#STOPS:;
#DELAYS:;
#WARPS:;
#TIMESIGNATURES:0.000=4=4;
#TICKCOUNTS:0.000=4;
#COMBOS:0.000=1;
#SPEEDS:0.000=1.000=0.000=0;
#SCROLLS:0.000=1.000;
#FAKES:;
#LABELS:0.000=Song Start;
#BGCHANGES:0.000=Hot Summer.avi=1.000=1=0=1===CrossFade==,
174.000=Hot Summer-bg.png=1.000=1=0=1===CrossFade==,
99999=-nosongbg-=1.000=0=0=0 // don't automatically add -songbackground-
;
#KEYSOUNDS:;
#ATTACKS:
;

//---------------dance-single - ----------------
#NOTEDATA:;
#CHARTNAME:;
#STEPSTYPE:dance-single;
#DESCRIPTION:;
#CHARTSTYLE:;
#DIFFICULTY:Beginner;
#METER:2;
#RADARVALUES:0.119896,0.172674,0.068049,0.068049,0.000000,74.000000,68.000000,6.000000,6.000000,0.000000,0.000000,0.000000,0.000000,0.000000,0.119896,0.172674,0.068049,0.068049,0.000000,74.000000,68.000000,6.000000,6.000000,0.000000,0.000000,0.000000,0.000000,0.000000;
#CREDIT:;
#DISPLAYBPM:130.000000;
#NOTES:
// measure 0
0000
0000
0000
0000
,  // measure 1
0000
0000
0000
0000
,  // measure 2
0000
0000
0000
0000
,  // measure 3
0000
0000
0000
0000
,  // measure 4
2000
0000
0000
3000
,  // measure 5
1000
0000
1000
0000
,  // measure 6
0002
0000
0000
0003
,  // measure 7
0001
0000
0001
0000
,  // measure 8
1001
0000
0000
0000
,  // measure 9
0100
0000
0100
0000
,  // measure 10
0110
0000
0000
0000
,  // measure 11
0010
0000
0010
0000
,  // measure 12
1001
0000
0000
0000
,  // measure 13
1000
0000
1000
0000
,  // measure 14
1001
0000
0000
0000
,  // measure 15
0001
0000
0001
0000
,  // measure 16
0002
0000
0000
0003
,  // measure 17
0001
0001
0001
0000
,  // measure 18
2000
0000
0000
3000
,  // measure 19
1000
1000
1000
0000
,  // measure 20
0020
0000
0000
0030
,  // measure 21
0010
0010
0010
0000
,  // measure 22
0200
0000
0000
0300
,  // measure 23
0100
0100
0100
0000
,  // measure 24
0010
0000
0000
0000
,  // measure 25
0100
0000
0000
0000
,  // measure 26
1000
0000
0000
0000
,  // measure 27
0001
0000
0000
0000
,  // measure 28
1000
0000
0000
0000
,  // measure 29
0010
0000
0000
0000
,  // measure 30
0100
0000
0000
0000
,  // measure 31
0001
0000
0000
0000
,  // measure 32
0000
0001
0001
0000
,  // measure 33
0001
0001
0001
0000
,  // measure 34
0000
1000
1000
0000
,  // measure 35
1000
1000
1000
0000
,  // measure 36
0000
0100
0100
0000
,  // measure 37
0100
0100
0100
0000
,  // measure 38
0000
0010
0010
0000
,  // measure 39
0010
0010
0010
0000
,  // measure 40
0110
0000
0000
0000
,  // measure 41
0010
0000
0010
0000
,  // measure 42
1001
0000
0000
0000
,  // measure 43
1000
0000
1000
0000
;

//---------------dance-single - ----------------
#NOTEDATA:;
#CHARTNAME:;
#STEPSTYPE:dance-single;
#DESCRIPTION:;
#CHARTSTYLE:;
#DIFFICULTY:Easy;
#METER:4;
#RADARVALUES:0.174983,0.173666,0.000000,0.000000,0.000000,108.000000,108.000000,0.000000,0.000000,0.000000,0.000000,0.000000,0.000000,0.000000,0.174983,0.173666,0.000000,0.000000,0.000000,108.000000,108.000000,0.000000,0.000000,0.000000,0.000000,0.000000,0.000000,0.000000;
#CREDIT:;
#DISPLAYBPM:130.000000;
#NOTES:
// measure 0
0000
0000
0000
0000
,  // measure 1
0000
0000
0000
0000
,  // measure 2
0000
0000
0000
0000
,  // measure 3
0000
0000
0000
0000
,  // measure 4
1000
0000
0010
0000
,  // measure 5
0100
0001
0100
0000
,  // measure 6
0001
0000
0100
0000
,  // measure 7
0010
1000
0010
0000
,  // measure 8
0010
0000
1000
0000
,  // measure 9
0100
0010
0001
0100
,  // measure 10
0001
0000
0100
0000
,  // measure 11
0010
1000
0010
1000
,  // measure 12
0100
0000
0010
0000
,  // measure 13
0001
0100
0001
0100
,  // measure 14
0010
0000
1000
0000
,  // measure 15
0001
0100
0001
0100
,  // measure 16
0100
0000
0100
0000
,  // measure 17
0100
0010
1000
0001
,  // measure 18
0010
0000
0010
0000
,  // measure 19
0010
0100
1000
0001
,  // measure 20
1000
0000
1000
0000
,  // measure 21
1000
0010
0100
0001
,  // measure 22
0100
0000
0100
0000
,  // measure 23
0001
0100
0010
1000
,  // measure 24
1000
0000
0100
0000
,  // measure 25
0001
0000
0010
0000
,  // measure 26
1000
0000
0100
0000
,  // measure 27
0001
0000
0100
0000
,  // measure 28
1000
0000
0010
0000
,  // measure 29
0001
0000
0100
0000
,  // measure 30
1000
0000
0010
0000
,  // measure 31
0001
0000
0010
0000
,  // measure 32
0000
0010
0100
0000
,  // measure 33
0010
0100
1000
0000
,  // measure 34
0000
0010
0100
0000
,  // measure 35
0010
0100
0001
1000
,  // measure 36
0000
0001
1000
0000
,  // measure 37
1000
0100
0001
0000
,  // measure 38
0000
1000
0001
0000
,  // measure 39
0001
0010
1000
0010
,  // measure 40
1000
0000
0100
0000
,  // measure 41
0010
0001
0100
1000
,  // measure 42
0010
0000
0001
0000
,  // measure 43
0010
1000
0100
0001
;

//---------------dance-single - ----------------
#NOTEDATA:;
#CHARTNAME:;
#STEPSTYPE:dance-single;
#DESCRIPTION:;
#CHARTSTYLE:;
#DIFFICULTY:Medium;
#METER:6;
#RADARVALUES:0.267335,0.346340,0.226829,0.090732,0.000000,165.000000,145.000000,20.000000,8.000000,0.000000,0.000000,0.000000,0.000000,0.000000,0.267335,0.346340,0.226829,0.090732,0.000000,165.000000,145.000000,20.000000,8.000000,0.000000,0.000000,0.000000,0.000000,0.000000;
#CREDIT:;
#DISPLAYBPM:130.000000;
#NOTES:
// measure 0
0000
0000
0000
0000
,  // measure 1
0000
0000
0000
0000
,  // measure 2
0000
0000
0000
0000
,  // measure 3
0000
0000
0000
0000
,  // measure 4
1000
0100
0000
0010
0000
0011
0000
0000
,  // measure 5
0001
0000
0101
0000
1100
1000
0000
0000
,  // measure 6
1000
0010
0000
0100
0000
0101
0000
0000
,  // measure 7
1000
0000
1100
0000
0101
0001
0000
0000
,  // measure 8
0100
0010
0100
0010
,  // measure 9
1000
0100
0001
0010
,  // measure 10
0000
1000
0100
0001
,  // measure 11
0100
1000
0010
0100
,  // measure 12
0000
0100
0010
0100
,  // measure 13
0010
1000
0100
0001
,  // measure 14
0000
0010
1000
0010
,  // measure 15
0001
0010
0010
0001
,  // measure 16
1000
0010
0000
0010
1000
0000
0001
0000
,  // measure 17
1000
0001
0100
0001
,  // measure 18
1000
0100
0000
0100
1000
0000
0010
0000
,  // measure 19
1000
0001
0100
0001
,  // measure 20
0100
0010
0000
0010
0100
0000
0001
0000
,  // measure 21
0010
0100
1000
0100
,  // measure 22
1000
0001
0000
0001
1000
0000
1000
0000
,  // measure 23
0001
0100
0010
0100
,  // measure 24
0020
1000
0000
0100
,  // measure 25
0000
0001
0000
0230
,  // measure 26
0302
0023
0000
0100
,  // measure 27
0000
1000
0000
0230
,  // measure 28
2300
0001
0000
0010
,  // measure 29
0000
0100
0000
3020
,  // measure 30
0230
0001
0000
0010
,  // measure 31
0000
1000
0000
0310
,  // measure 32
0000
0110
0110
0000
,  // measure 33
0100
0000
0010
0000
0100
0010
0000
0000
,  // measure 34
0000
1001
1001
0000
,  // measure 35
1000
0000
0001
0000
1000
0001
1000
0001
,  // measure 36
0000
0011
0011
0000
,  // measure 37
0010
0000
0001
0000
0010
0001
0000
0000
,  // measure 38
0000
1100
1100
0000
,  // measure 39
1000
0000
0100
0000
1000
0100
1000
0100
,  // measure 40
1000
0100
0000
0010
0000
0011
0000
0000
,  // measure 41
0001
0000
0101
0000
1100
1000
0000
0000
,  // measure 42
1000
0010
0000
0100
0000
0101
0000
0000
,  // measure 43
1000
0000
1100
0000
0101
0001
0000
0000
;

//---------------dance-single - ----------------
#NOTEDATA:;
#CHARTNAME:;
#STEPSTYPE:dance-single;
#DESCRIPTION:;
#CHARTSTYLE:;
#DIFFICULTY:Hard;
#METER:9;
#RADARVALUES:0.361307,0.371079,0.000000,0.317561,0.000000,223.000000,223.000000,0.000000,28.000000,0.000000,0.000000,0.000000,0.000000,0.000000,0.361307,0.371079,0.000000,0.317561,0.000000,223.000000,223.000000,0.000000,28.000000,0.000000,0.000000,0.000000,0.000000,0.000000;
#CREDIT:;
#DISPLAYBPM:130.000000;
#NOTES:
// measure 0
0000
0000
0000
0000
,  // measure 1
0000
0000
0000
0000
,  // measure 2
0000
0000
0000
0000
,  // measure 3
0000
0000
0000
0000
,  // measure 4
1000
0100
1000
0002
0000
2003
0000
3010
,  // measure 5
0200
0000
0320
0000
1030
0001
0000
0000
,  // measure 6
0001
0010
0001
0200
0000
0320
0000
1030
,  // measure 7
0002
0000
0023
0000
0130
1000
0000
0000
,  // measure 8
0000
0001
1000
0010
0100
0010
1000
0100
,  // measure 9
0020
0032
2003
3002
,  // measure 10
0003
1000
0001
0010
0100
1000
0010
0100
,  // measure 11
0002
0203
0302
2003
,  // measure 12
3000
0100
1000
0010
0100
0001
0010
0100
,  // measure 13
2000
3002
0203
0320
,  // measure 14
0030
0100
0010
0100
0001
1000
0100
0010
,  // measure 15
0100
0100
0010
0010
0000
0001
1000
0000
,  // measure 16
1000
1000
1000
1000
0000
0001
0000
1000
,  // measure 17
0001
0100
0001
0100
0000
0010
1000
0001
,  // measure 18
0010
0010
0010
0010
0000
0100
0000
0010
,  // measure 19
0001
0010
0001
0100
0000
0010
1000
0100
,  // measure 20
1000
1000
1000
1000
0000
1000
0000
0001
,  // measure 21
1000
0010
1000
0010
0000
0100
0001
1000
,  // measure 22
0100
0100
0100
0100
0000
0010
0000
0100
,  // measure 23
1000
0010
1000
0010
0100
0001
0100
0001
,  // measure 24
0001
0010
0001
0000
1000
0010
1000
0000
,  // measure 25
0001
0000
1000
0000
0001
0010
0100
1000
,  // measure 26
0001
0010
0001
0000
1000
0010
1000
0000
,  // measure 27
0010
0000
0100
0000
0001
0010
0100
1000
,  // measure 28
1000
0100
1000
0000
0001
0100
0001
0000
,  // measure 29
1000
0000
0001
0000
1000
0100
0010
0001
,  // measure 30
1000
0100
1000
0000
0001
0100
0001
0000
,  // measure 31
0100
0000
0010
0000
1000
0100
0010
0001
,  // measure 32
0000
0000
1000
0000
0001
0001
0000
0100
,  // measure 33
0010
0000
1000
0000
0100
0100
0000
0000
,  // measure 34
0000
0000
0100
0000
0010
0010
0000
0001
,  // measure 35
1000
0000
0010
0000
0100
0001
0100
0001
,  // measure 36
0000
0000
0001
0000
1000
1000
0000
0010
,  // measure 37
0100
0000
0001
0000
0010
0010
0000
0000
,  // measure 38
0000
0000
0010
0000
0100
0100
0000
1000
,  // measure 39
0001
0000
0100
0000
0010
1000
0010
1000
,  // measure 40
1000
0100
1000
0002
0000
2003
0000
3010
,  // measure 41
0200
0000
0320
0000
1030
0001
0000
0000
,  // measure 42
0001
0010
0001
0200
0000
0320
0000
1030
,  // measure 43
0002
0000
0023
0000
0130
1000
0000
0000
;
