#VERSION:0.83;
#TITLE:Hot Right Now (feat. Rita Ora);
#SUBTITLE:;
#ARTIST:DJ Fresh;
#TITLETRANSLIT:;
#SUBTITLETRANSLIT:;
#ARTISTTRANSLIT:;
#GENRE:Drum & Bass;
#ORIGIN:;
#CREDIT:chewi;
#BANNER:Hot Right Now (feat. Rita Ora).png;
#BACKGROUND:Hot Right Now (feat. Rita Ora)-bg.png;
#PREVIEWVID:;
#JACKET:Hot Right Now (feat. Rita Ora)-jacket.png;
#CDIMAGE:;
#DISCIMAGE:;
#LYRICSPATH:;
#CDTITLE:cdtitle.png;
#MUSIC:Hot Right Now (feat. Rita Ora).ogg;
#OFFSET:-0.180000;
#SAMPLESTART:22.122000;
#SAMPLELENGTH:15.000000;
#SELECTABLE:YES;
#BPMS:0.000=87.500,
28.000=175.000,
32.000=350.000,
40.000=175.000,
180.000=350.000,
188.000=175.000;
#STOPS:;
#DELAYS:;
#WARPS:;
#TIMESIGNATURES:0.000=4=4;
#TICKCOUNTS:0.000=4;
#COMBOS:0.000=1;
#SPEEDS:0.000=1.000=0.000=0;
#SCROLLS:0.000=1.000;
#FAKES:;
#LABELS:0.000=Song Start;
#BGCHANGES:0.000=Hot Right Now (feat. Rita Ora).avi=1.000=1=0=0=StretchNoLoop==CrossFade==,
99999=-nosongbg-=1.000=0=0=0 // don't automatically add -songbackground-
;
#KEYSOUNDS:;
#ATTACKS:
;

//---------------dance-single - ----------------
#NOTEDATA:;
#CHARTNAME:;
#STEPSTYPE:dance-single;
#DESCRIPTION:;
#CHARTSTYLE:;
#DIFFICULTY:Beginner;
#METER:3;
#RADARVALUES:0.112797,0.167680,0.059431,0.050941,0.000000,93.000000,86.000000,7.000000,6.000000,0.000000,0.000000,0.000000,0.000000,0.000000,0.112797,0.167680,0.059431,0.050941,0.000000,93.000000,86.000000,7.000000,6.000000,0.000000,0.000000,0.000000,0.000000,0.000000;
#CREDIT:;
#NOTES:
0000
0000
0000
0000
,
0000
0000
0000
0000
,
0000
0000
0000
0000
,
0000
0000
0000
0000
,
1000
0000
0000
0000
,
0001
0000
0000
0000
,
0200
0000
0000
0300
,
0200
0000
0000
0300
,
0100
0000
0000
0000
,
0000
0000
0000
0000
,
0100
0000
0000
0000
,
0100
0000
0000
0000
,
0010
0000
0000
0000
,
0010
0000
0000
0000
,
1000
0000
0000
0000
,
1000
0000
0000
0000
,
0001
0000
0000
0000
,
0001
0000
0000
0000
,
1000
0000
1000
0000
,
1000
0000
0000
0000
,
1000
0000
1000
0000
,
1000
0000
0000
0000
,
0001
0000
0001
0000
,
0001
0000
0000
0000
,
0001
0000
0001
0000
,
0001
0000
0000
0000
,
1001
0000
0000
0000
,
0001
0000
0000
0000
,
0001
0000
0000
0000
,
0001
0000
0000
0000
,
0002
0000
0000
0003
,
0001
0000
0001
0000
,
2000
0000
0000
3000
,
1000
0000
1000
0000
,
0010
0000
0000
0000
,
0100
0000
0000
0000
,
0010
0000
0000
0000
,
0100
0000
0000
0000
,
0200
0000
0000
0300
,
0100
0000
0000
0000
,
0020
0000
0000
0030
,
0010
0000
0000
0000
,
0110
0000
0000
0000
,
1000
0000
0000
0000
,
1001
0000
0000
0000
,
0001
0000
0000
0000
,
0000
0000
0000
0000
,
0001
0000
0000
0000
,
0001
0000
0000
0000
,
1000
0000
0000
0000
,
1000
0000
0000
0000
,
0010
0000
0000
0000
,
0010
0000
0000
0000
,
0100
0000
0000
0000
,
0100
0000
0000
0000
,
0010
0000
0010
0000
,
0010
0000
0000
0000
,
0100
0000
0100
0000
,
0100
0000
0000
0000
,
0001
0000
0001
0000
,
0001
0000
0000
0000
,
1000
0000
1000
0000
,
1000
0000
0000
0000
,
1001
0000
0000
0000
,
1000
0000
0000
0000
,
0001
0000
0000
0000
,
1000
0000
0000
0000
,
0110
0000
0000
0000
,
0100
0000
0000
0000
,
0010
0000
0000
0000
,
0100
0000
0000
0000
,
0110
0000
0000
0000
,
0010
0000
0000
0000
,
0010
0000
0000
0000
,
0010
0000
0010
0000
,
0110
0000
0000
0000
,
0100
0000
0000
0000
,
0100
0000
0000
0000
,
0100
0000
0100
0000
,
0100
0000
0000
0000
;

//---------------dance-single - ----------------
#NOTEDATA:;
#CHARTNAME:;
#STEPSTYPE:dance-single;
#DESCRIPTION:;
#CHARTSTYLE:;
#DIFFICULTY:Easy;
#METER:5;
#RADARVALUES:0.223169,0.267439,0.169802,0.050941,0.000000,184.000000,164.000000,20.000000,6.000000,0.000000,0.000000,0.000000,0.000000,0.000000,0.223169,0.267439,0.169802,0.050941,0.000000,184.000000,164.000000,20.000000,6.000000,0.000000,0.000000,0.000000,0.000000,0.000000;
#CREDIT:;
#NOTES:
0000
0000
0000
0000
,
0000
0000
0000
0000
,
0000
0000
0000
0000
,
0000
0000
0000
0000
,
0020
0030
0010
0010
,
0200
0300
0100
0100
,
0001
1000
0001
1000
,
0001
0000
1000
0000
,
0001
0000
0000
0000
,
0000
0000
0000
0000
,
1000
0000
1000
0000
,
1000
0100
1000
0000
,
0100
1000
0100
0000
,
1000
0100
1000
0000
,
0001
0000
0001
0000
,
0001
0100
0001
0000
,
0100
0001
0100
0000
,
0001
0100
0001
0000
,
0100
0000
0100
0000
,
0100
0010
0100
0000
,
0010
0100
0010
0000
,
0100
0010
0100
0000
,
0010
0000
0010
0000
,
0010
1000
0010
0000
,
1000
0010
1000
0000
,
0010
1000
0010
0000
,
1001
0000
0000
0000
,
0110
0000
0000
0000
,
1001
0000
0000
0000
,
0110
0000
0000
0000
,
0010
0000
1000
0000
,
0010
1000
0010
0000
,
0100
0000
0001
0000
,
0100
0001
0100
0000
,
0001
0000
1000
0000
,
0001
1000
0001
0000
,
1000
0000
0001
0000
,
1000
0001
1000
0000
,
0100
0000
0010
0000
,
0100
0010
0100
0000
,
0010
0000
0100
0000
,
0010
0100
0010
0000
,
0020
0000
0000
0030
,
0002
0000
0000
0003
,
2000
0000
0000
3000
,
0200
0000
0000
0000
,
0000
0000
0300
0000
,
0100
0000
0100
0000
,
0100
0010
0100
0000
,
0010
0100
0010
0000
,
0100
0010
0100
0000
,
0010
0000
0010
0000
,
0001
0010
0001
0000
,
0010
0001
0010
0000
,
0001
0010
0001
0000
,
1000
0000
0001
0000
,
1000
0001
0100
0000
,
0001
1000
0100
0000
,
1000
0001
0100
0000
,
0010
0000
0010
0000
,
1000
0001
0010
0000
,
0001
1000
0010
0000
,
1000
0001
0010
0000
,
1001
0000
0000
0000
,
0110
0000
0000
0000
,
1001
0000
0000
0000
,
0110
0000
0000
0000
,
1001
0000
0000
0000
,
0110
0000
0000
0000
,
1001
0000
0000
0000
,
0110
0000
0000
0000
,
1001
0000
1000
0000
,
1001
0000
0001
0000
,
1001
0000
1000
0000
,
1001
0000
0001
0000
,
0110
0000
0010
0000
,
0110
0000
0100
0000
,
0110
0000
0010
0000
,
0110
0000
0100
0100
;

//---------------dance-single - ----------------
#NOTEDATA:;
#CHARTNAME:;
#STEPSTYPE:dance-single;
#DESCRIPTION:;
#CHARTSTYLE:;
#DIFFICULTY:Medium;
#METER:8;
#RADARVALUES:0.395397,0.501448,0.246213,0.127352,0.000000,326.000000,297.000000,29.000000,15.000000,0.000000,0.000000,0.000000,0.000000,0.000000,0.395397,0.501448,0.246213,0.127352,0.000000,326.000000,297.000000,29.000000,15.000000,0.000000,0.000000,0.000000,0.000000,0.000000;
#CREDIT:;
#NOTES:
0000
0000
0000
0000
,
0000
0000
0000
0000
,
0000
0000
0000
0000
,
0000
0000
0000
0000
,
1000
0000
0100
0000
0010
0001
0010
0000
,
0001
0000
0010
0000
0100
1000
0100
0000
,
1000
0000
0001
0000
1000
0001
1000
0000
,
0001
0000
1000
0000
,
0001
0000
1000
0000
,
0001
0000
0000
0000
,
1001
0100
0010
1000
,
0001
0010
0100
0000
,
1000
0001
0010
0100
,
1000
0001
0100
0010
,
1000
0001
0100
0010
,
0100
0001
0010
0000
,
0100
1000
0100
0001
,
0100
1000
0010
0001
,
0010
0100
0001
0010
,
0100
1000
0010
0000
,
1000
0100
0010
0001
,
1000
0100
0001
0100
,
1000
0001
0100
0010
,
1000
0001
0100
0000
,
0010
0100
0001
1000
,
0001
1001
1000
1001
,
2000
0000
3001
0000
1000
0001
1000
0000
,
0002
0000
1003
0000
0001
1000
0001
0000
,
0020
0000
0130
0000
0010
0100
0010
0000
,
0110
0110
1001
1001
,
1000
0100
0010
0001
,
1000
0000
0100
0000
1000
0001
1000
0000
,
0001
0100
0010
1000
,
0001
0000
0100
0000
0001
1000
0001
0000
,
1000
0100
0001
1000
,
0010
0001
1000
1001
,
0001
0100
1000
0001
,
0010
1000
0001
1001
,
0010
0000
0100
0000
0010
0100
0010
0000
,
0100
0000
0010
0000
0100
0010
0100
0000
,
1000
0000
0001
0000
1000
0001
1000
0000
,
0001
0000
1000
0000
0001
1000
0001
0000
,
1001
1000
0001
1000
,
1001
0001
1000
0001
,
0100
0010
1000
0001
,
0010
0000
0000
0000
,
0000
0000
0000
0000
,
0001
0010
0100
1000
,
1010
0100
1000
0000
,
1000
0010
0100
0001
,
0010
0100
0100
0010
,
0001
0010
0100
1000
,
0001
1001
1000
0000
,
0001
0100
1000
0010
,
0001
0100
1000
0100
,
0001
1000
0100
0010
,
0110
0010
0001
0000
,
1000
1000
0001
1000
,
0001
0100
0010
1000
,
0001
0100
0010
0100
,
0001
0101
0001
0000
,
1000
0100
0001
0010
,
1000
0100
0001
0100
,
2000
0000
3001
0000
1000
0001
1000
0000
,
0002
0000
1003
0000
0001
1000
0001
0000
,
2000
0000
3001
0000
1000
0001
1000
0000
,
0101
1100
0101
1100
,
0020
0000
0130
0000
0010
0100
0010
0000
,
0200
0000
0310
0000
0100
0010
0100
0000
,
0020
0000
0130
0000
0010
0100
0010
0000
,
0011
1010
0011
1010
,
1002
0010
1000
0103
,
2001
0010
0001
3100
,
1002
0010
1000
0103
,
0100
0100
0010
0010
,
0120
1000
0100
1030
,
0120
0001
0100
0031
,
0120
1000
0100
1030
,
0001
0000
1000
0000
0001
1000
0001
0000
;

//---------------dance-single - ----------------
#NOTEDATA:;
#CHARTNAME:;
#STEPSTYPE:dance-single;
#DESCRIPTION:;
#CHARTSTYLE:;
#DIFFICULTY:Hard;
#METER:12;
#RADARVALUES:0.521536,0.569209,0.186783,0.016980,0.012735,430.000000,408.000000,22.000000,2.000000,0.000000,0.000000,2.000000,0.000000,0.000000,0.521536,0.569209,0.186783,0.016980,0.012735,430.000000,408.000000,22.000000,2.000000,0.000000,0.000000,2.000000,0.000000,0.000000;
#CREDIT:;
#NOTES:
// measure 0
0000
0000
0000
0000
,  // measure 1
0000
0000
0000
0000
,  // measure 2
0000
0000
0000
0000
,  // measure 3
0000
0000
0000
0000
,  // measure 4
0021
0000
0100
0000
0001
0100
0031
0000
,  // measure 5
0102
0000
0100
0000
1000
0010
1003
0000
,  // measure 6
1000
0010
0100
0001
1000
0010
0100
0001
,  // measure 7
1000
0100
0010
0001
1000
0100
0010
0001
,  // measure 8
4000
0000
0000
0000
,  // measure 9
0000
0000
3001
0000
,  // measure 10
1000
0000
0001
1000
0000
1000
0001
0000
,  // measure 11
0100
0000
0010
0100
0000
0100
0010
0000
,  // measure 12
1000
0000
0010
1000
0000
1000
0010
0000
,  // measure 13
1000
0100
0010
0001
0010
0000
0011
0000
,  // measure 14
0001
0000
0010
0001
0000
0001
0010
0000
,  // measure 15
0100
0000
0010
0100
0000
0100
0010
0000
,  // measure 16
0100
0000
1000
0100
0000
0100
1000
0000
,  // measure 17
0001
0010
0100
1000
0001
0000
1001
0000
,  // measure 18
1000
0000
0001
0100
0000
0100
0001
0000
,  // measure 19
1000
0000
0010
1000
0000
1000
0010
0000
,  // measure 20
0100
0000
0010
0100
0000
0100
0010
0000
,  // measure 21
1000
0100
0010
0001
1000
0000
1001
0000
,  // measure 22
1000
0000
0100
0010
0000
0010
0100
0000
,  // measure 23
1000
0000
0001
1000
0000
1000
0001
0000
,  // measure 24
1000
0000
0100
0010
0000
0010
0001
0000
,  // measure 25
1000
0100
0010
0001
1000
0000
1001
0000
,  // measure 26
1000
0001
1000
0000
0001
1000
0001
0000
,  // measure 27
1000
0100
0010
0000
0001
0010
0100
0000
,  // measure 28
1000
0001
1000
0000
0001
1000
0001
0000
,  // measure 29
1000
0010
0100
0000
0001
0100
0010
0000
,  // measure 30
1000
0001
1000
0000
0100
0000
0010
0000
,  // measure 31
0001
0010
0100
1000
0001
0000
1001
0000
,  // measure 32
1000
0001
1000
0000
0010
0000
0100
0000
,  // measure 33
0001
0100
0010
1000
0001
0000
1001
0000
,  // measure 34
0001
0010
1000
0001
,  // measure 35
0100
0000
1000
0000
0001
1000
0001
0000
,  // measure 36
1000
0010
0001
1000
,  // measure 37
0100
0000
0001
0000
1000
0001
1000
0000
,  // measure 38
0001
1000
0001
0000
0010
0000
0100
0000
,  // measure 39
1000
0100
0010
0001
1000
0000
1001
0000
,  // measure 40
0001
1000
0001
0000
0100
0000
0010
0000
,  // measure 41
1000
0010
0100
0001
1000
0000
1001
0000
,  // measure 42
1000
0000
0100
0000
0010
0001
0100
0000
,  // measure 43
0010
0000
1000
0000
0001
0100
0010
0000
,  // measure 44
1000
1000
0001
0001
1000
0100
0010
0001
,  // measure 45
0040
0000
0000
0000
,  // measure 46
0000
0000
0031
0000
,  // measure 47
0001
0000
1000
0001
0000
0001
1000
0000
,  // measure 48
0010
0000
0100
0010
0000
0010
0100
0000
,  // measure 49
0001
0000
0100
0001
0000
0001
0100
0000
,  // measure 50
0001
0000
0010
0000
0100
0000
1000
0000
0100
0000
1000
0100
1000
0000
0000
0000
,  // measure 51
1000
0000
0100
1000
0000
1000
0100
0000
,  // measure 52
0010
0000
0100
0010
0000
0010
0100
0000
,  // measure 53
0010
0000
0001
0010
0000
0010
0001
0000
,  // measure 54
1000
0000
0100
0000
0010
0000
0001
0000
1000
0000
0001
1000
0001
0000
0000
0000
,  // measure 55
0001
0000
1000
0010
0000
0010
1000
0000
,  // measure 56
0001
0000
0100
0001
0000
0001
0100
0000
,  // measure 57
0010
0000
0100
0010
0000
0010
0100
0000
,  // measure 58
0001
0000
0010
0000
0100
0000
1000
0000
0001
0000
1000
0001
1000
0000
0000
0000
,  // measure 59
0001
0000
0010
0100
0000
0100
0010
0000
,  // measure 60
0001
0000
1000
0001
0000
0001
1000
0000
,  // measure 61
0001
0000
0010
0100
0000
0100
1000
0000
,  // measure 62
0001
0010
0100
1000
0001
1001
1001
0000
,  // measure 63
0001
1000
0001
0000
1000
0001
1000
0000
,  // measure 64
0001
0010
0100
0000
1000
0100
0010
0000
,  // measure 65
0001
1000
0001
0000
1000
0001
1000
0000
,  // measure 66
0101
1010
0101
1010
,  // measure 67
1000
0010
1000
0000
0001
0100
0001
0000
,  // measure 68
1000
0100
1000
0000
0001
0010
0001
0000
,  // measure 69
0010
0100
0010
0000
0100
0010
0100
0000
,  // measure 70
0010
0100
1000
0001
0010
0100
1000
0000
,  // measure 71
0001
1000
0001
0000
1000
0001
1001
0000
,  // measure 72
0001
0100
0001
0000
0100
0010
0110
0000
,  // measure 73
0010
1000
0010
0000
1000
0001
1001
0000
,  // measure 74
0001
0010
0100
1000
0001
0010
0100
1000
,  // measure 75
0001
1000
0001
0000
1000
0001
1001
0000
,  // measure 76
0001
0100
0001
0000
0100
0001
0101
0000
,  // measure 77
0010
0100
0010
0000
0100
0010
0110
0000
,  // measure 78
0010
0001
1000
0100
0010
0100
1000
0001
;
