#TITLE:Hot Foot;
#SUBTITLE:;
#ARTIST:Snappy Jit feat. Jammin Joe;
#TITLETRANSLIT:;
#SUBTITLETRANSLIT:;
#ARTISTTRANSLIT:;
#GENRE:;
#CREDIT:Tiffany West;
#BANNER:Hot Foot.png;
#BACKGROUND:Hot Foot-bg.png;
#LYRICSPATH:;
#CDTITLE:cdtitle.png;
#MUSIC:Hot Foot.ogg;
#OFFSET:-0.001000;
#SAMPLESTART:51.896999;
#SAMPLELENGTH:12.000000;
#SELECTABLE:YES;
#BPMS:0.000000=148.007004
;
#STOPS:
;
#BGCHANGES:;
#KEYSOUNDS:;
#ATTACKS:;

//---------------dance-single - Tiffany West----------------
#NOTES:
     dance-single:
     Tiffany West:
     Beginner:
     3:
     0.164535,0.214992,0.115174,0.038391,0.000000,120.000000,108.000000,12.000000,4.000000,0.000000,0.000000,0.164535,0.214992,0.115174,0.038391,0.000000,120.000000,108.000000,12.000000,4.000000,0.000000,0.000000:
0000
0000
0000
0000
,
0000
0000
0000
0000
,
0000
0000
0000
0000
,
0000
0000
0000
0000
,
1000
0000
1000
0000
,
1000
0000
0000
0000
,
0001
0000
0001
0000
,
0001
0000
0000
0000
,
0110
0000
0000
0000
,
1001
0000
0000
0000
,
1001
0000
0000
0000
,
0110
0000
0000
0000
,
1001
0000
0000
0000
,
1001
0000
0000
0000
,
0110
0000
0000
0000
,
0110
0000
0000
0000
,
1000
0000
1000
0000
,
1000
0000
1000
0000
,
0001
0000
0001
0000
,
0001
0000
0001
0000
,
0100
0000
0100
0000
,
0100
0000
0100
0000
,
0010
0000
0010
0000
,
0010
0000
0010
0000
,
1000
0000
1000
0000
,
0001
0000
0001
0000
,
1000
0000
1000
0000
,
0001
0000
0001
0000
,
0100
0000
0100
0000
,
0010
0000
0010
0000
,
0100
0000
0100
0000
,
0010
0000
0010
0000
,
2000
0000
0000
3000
,
1000
0000
1000
0000
,
0002
0000
0000
0003
,
0001
0000
0001
0000
,
0020
0000
0000
0030
,
0010
0000
0010
0000
,
0200
0000
0000
0300
,
0100
0000
0100
0000
,
1000
0000
0001
0000
,
1000
0000
0000
0000
,
0001
0000
1000
0000
,
0001
0000
0000
0000
,
0100
0000
0010
0000
,
0100
0000
0000
0000
,
0010
0000
0100
0000
,
0010
0000
0000
0000
,
0010
0010
0010
0000
,
0010
0000
0010
0000
,
0100
0100
0100
0000
,
0100
0000
0100
0000
,
1000
1000
1000
0000
,
1000
0000
1000
0000
,
0001
0001
0001
0000
,
0001
0000
0001
0000
,
1001
0000
0000
0000
,
1000
1000
1000
0000
,
0110
0000
0000
0000
,
0010
0010
0010
0000
,
0110
0000
0000
0000
,
0100
0100
0100
0000
,
1001
0000
0000
0000
,
0001
0001
0001
0001
,
0001
0000
0000
0000
;

//---------------dance-single - Tiffany West----------------
#NOTES:
     dance-single:
     Tiffany West:
     Easy:
     6:
     0.230348,0.244745,0.086381,0.000000,0.000000,168.000000,159.000000,9.000000,0.000000,0.000000,0.000000,0.230348,0.244745,0.086381,0.000000,0.000000,168.000000,159.000000,9.000000,0.000000,0.000000,0.000000:
0000
0000
0000
0000
,
0000
0000
0000
0000
,
0000
0000
0000
0000
,
0000
0000
0000
0000
,
0010
0000
1000
0000
,
0100
0100
0100
0000
,
0010
0000
0001
0000
,
0100
0100
0100
0000
,
0110
0000
0100
0000
,
0010
0000
1000
0000
,
1001
0000
1000
0000
,
0001
0000
0010
0000
,
0011
0000
0010
0000
,
0100
0000
1000
0000
,
1100
0000
1000
0000
,
0100
0000
0000
0000
,
1000
1000
1000
0000
,
0001
0001
0001
0000
,
1000
0001
1000
0000
,
0001
1000
0001
0000
,
1001
0000
0100
0000
,
1000
0000
0100
0000
,
0001
0000
0010
0000
,
1000
0000
0010
0000
,
0010
0010
0100
0000
,
0100
0100
0010
0000
,
1000
1000
0001
0000
,
0001
0001
1000
0000
,
1000
0001
0010
0000
,
0001
1000
0010
0000
,
1000
0001
0100
0000
,
0100
0001
0100
0000
,
0001
0010
0100
1000
,
0001
0010
0100
0000
,
1000
0010
0100
0001
,
1000
0010
0100
0000
,
0001
0010
0100
1000
,
0001
0010
0100
0000
,
1000
0010
0100
0001
,
1000
0010
0100
0000
,
0001
0000
1001
0000
,
1000
0000
1000
0100
,
1000
0000
1001
0000
,
0001
0000
0001
0100
,
0001
0000
1001
0000
,
1000
0001
0010
0000
,
0010
0000
0110
0000
,
0100
1000
0001
0010
,
0001
0000
0001
0000
,
0001
0001
0001
0000
,
1000
0000
1000
0000
,
1000
1000
1000
0000
,
0010
0000
0010
0000
,
0010
0010
0010
0000
,
0100
0000
0100
0000
,
0100
0100
0100
0000
,
1000
0000
0001
0000
,
1000
0100
0001
0000
,
0001
0000
1000
0000
,
0001
0100
1000
0000
,
1000
0000
0010
0000
,
1000
0001
0010
0000
,
0001
0000
0010
0000
,
0001
1000
0010
0100
;

//---------------dance-single - Tiffany West----------------
#NOTES:
     dance-single:
     Tiffany West:
     Medium:
     10:
     0.414079,0.428304,0.326327,0.000000,0.019196,302.000000,268.000000,34.000000,0.000000,0.000000,0.000000,0.414079,0.428304,0.326327,0.000000,0.019196,302.000000,268.000000,34.000000,0.000000,0.000000,0.000000:
0000
0000
0000
0000
,
0000
0000
0000
0000
,
0000
0000
0000
0000
,
0000
0000
0000
0000
,
1000
0000
0010
0010
0000
1000
1000
0000
,
0010
0000
0100
0000
0001
1000
0001
0000
,
0001
0000
0010
0010
0000
0100
0100
0000
,
1000
0001
1000
0001
1000
0001
1000
0000
,
1000
0000
0010
1000
0000
0010
1000
0000
,
0010
0100
0101
0000
,
0001
0000
0100
0001
0000
0100
0001
0000
,
0100
0010
1010
0000
,
1000
0000
0001
1000
0000
0001
1000
0000
,
0001
1000
1100
0000
,
0010
0000
0001
0010
0000
0001
0010
0000
,
0001
0010
0001
0010
0001
0010
0001
0000
,
0001
0100
0001
0000
0100
0000
0001
0000
,
0100
0001
0100
0000
0001
0000
0001
0000
,
0100
0010
0100
0000
0010
0000
0100
0000
,
0010
0100
0010
0000
0100
0000
0100
0000
,
1000
0100
0010
0000
1001
0000
0000
0000
,
0001
0010
0100
0000
1001
0000
0000
0000
,
1000
0010
0100
0000
1001
0000
0000
0000
,
0001
0100
0010
0000
1001
0000
0000
0000
,
1100
0000
0101
0000
,
1010
0000
0011
0000
,
1001
0000
0110
0000
,
1010
0000
0110
0000
,
0101
0000
1001
0000
,
1010
0000
1001
0000
,
0011
0000
0110
0000
,
0100
0010
0100
0010
0100
0010
0100
0000
,
1000
0000
0001
1000
0001
0000
1000
0001
,
1000
0000
0001
1000
0001
0000
0000
0000
,
0000
0000
0100
0010
0100
0000
0010
0100
,
0010
0000
0100
0010
0100
0000
0000
0000
,
0000
0000
0001
0100
0001
0000
0100
0001
,
0100
0000
0001
0100
0001
0000
0000
0000
,
0000
0000
1000
0100
1000
0000
0100
1000
,
0100
1000
0100
1000
0100
1000
0100
0000
,
0001
0000
0100
0100
0000
0001
0001
0000
,
0100
0000
0010
0000
1000
0001
1000
0000
,
1000
0000
0100
0100
0000
0010
0010
0000
,
0001
0000
0010
0000
0001
1000
0001
0000
,
1000
0000
0010
0010
0000
1000
1000
0000
,
0010
0000
0100
0000
0001
1000
0001
0000
,
0001
0000
0010
0010
0000
0100
0100
0000
,
1000
0001
1000
0001
1000
0001
1000
0000
,
1000
0000
0010
1000
0000
1000
0010
0000
,
0100
0001
0101
0000
,
0001
0000
0100
0001
0000
0001
0100
0000
,
0001
1000
1001
0000
,
1000
0000
0100
1000
0000
1000
0100
0000
,
1000
0100
1100
0000
,
0100
0000
0010
0100
0000
0100
0010
0000
,
0001
0010
0001
0010
0001
0010
0001
0000
,
0001
0000
0000
0001
0000
0000
0000
0000
1000
0000
0000
0000
1100
0000
0000
0000
,
1000
0001
0101
1100
,
0010
0000
0000
0010
0000
0000
0000
0000
0100
0000
0000
0000
0110
0000
0000
0000
,
0010
0100
1100
0101
,
0100
0000
0000
0100
0000
0000
0000
0000
0001
0000
0000
0000
0101
0000
0000
0000
,
0100
0010
1010
0011
,
1000
0000
0000
0100
0000
0000
0000
0000
1000
0000
0000
0000
1100
0000
0000
0000
,
0001
0010
0100
1000
0001
0010
0100
0000
;

//---------------dance-single - Tiffany West----------------
#NOTES:
     dance-single:
     Tiffany West:
     Hard:
     12:
     0.566273,0.675689,0.575871,0.172761,0.187158,413.000000,353.000000,60.000000,18.000000,0.000000,0.000000,0.566273,0.675689,0.575871,0.172761,0.187158,413.000000,353.000000,60.000000,18.000000,0.000000,0.000000:
// measure 0
0000
0000
0000
0000
,  // measure 1
0000
0000
0000
0000
,  // measure 2
0000
0000
0000
0000
,  // measure 3
0000
0000
0000
0000
,  // measure 4
1000
0000
0010
1000
0000
0010
1000
0000
,  // measure 5
0001
0000
0100
0001
0000
0100
0001
0000
,  // measure 6
1000
0000
0100
1000
0000
0100
1000
0000
,  // measure 7
0001
0000
0100
0010
1000
0001
0100
0010
1000
0001
0010
0100
1000
0000
0000
0000
,  // measure 8
1001
0000
0010
1000
0000
0010
1000
0000
,  // measure 9
1001
0000
0100
0001
0000
0100
0001
0000
,  // measure 10
0110
0000
0100
0010
0000
0100
0010
0000
,  // measure 11
0110
0000
0010
1000
0000
0010
1000
0000
,  // measure 12
1100
0000
1000
0100
0000
1000
0100
0000
,  // measure 13
0011
0000
0010
0001
0000
0010
0001
0000
,  // measure 14
1001
0000
1000
0001
0000
1000
0001
0000
,  // measure 15
1000
0000
0001
0010
0100
1000
0001
0010
0100
1000
0010
0100
0001
0000
0000
0000
,  // measure 16
0101
0000
0000
0101
0000
0100
0100
0000
,  // measure 17
0010
0000
1000
0000
0001
1000
0001
1000
,  // measure 18
1010
0000
0000
1010
0000
0010
0010
0000
,  // measure 19
0100
0000
0001
0000
1000
0001
1000
0001
,  // measure 20
1100
0000
1010
0000
1100
1000
0000
0000
,  // measure 21
0101
0000
0011
0000
0101
0001
0000
0000
,  // measure 22
1010
0000
1100
0000
1010
1000
0000
0000
,  // measure 23
0011
0000
0101
0000
0011
0001
0001
0001
,  // measure 24
0022
0033
0220
0330
,  // measure 25
2200
3300
2002
3003
,  // measure 26
0202
0303
0220
0330
,  // measure 27
2020
3030
2002
3003
,  // measure 28
0102
0000
0103
0100
0110
0000
1000
1000
,  // measure 29
1001
0000
0001
0001
1001
0000
0010
0010
,  // measure 30
0110
0100
1000
0001
,  // measure 31
1000
0000
0001
0100
0010
1000
0001
0100
0010
1000
0100
0010
0001
0000
0000
0000
,  // measure 32
0000
0001
0010
1000
0010
0000
1000
0010
,  // measure 33
0001
0000
1000
0100
0001
0000
0101
0000
,  // measure 34
1100
1000
0010
0001
0010
0000
1000
0010
,  // measure 35
0001
0000
1000
0100
0001
0000
0011
0000
,  // measure 36
1010
1000
0100
0001
0100
0000
0001
0100
,  // measure 37
1000
0000
0001
0010
1000
0000
1010
0000
,  // measure 38
0011
0001
0100
1000
0100
0000
0001
0010
,  // measure 39
0100
0000
1000
0010
0100
0001
1000
0010
0100
0001
1000
0001
1000
0000
0000
0000
,  // measure 40
1001
0000
0100
1000
0000
0100
1000
0000
,  // measure 41
1001
0000
0010
0001
0000
0010
0001
0000
,  // measure 42
0110
0000
0010
0100
0000
0010
0100
0000
,  // measure 43
0110
0000
0100
1000
0000
0100
1000
0000
,  // measure 44
1010
0000
1000
0010
0000
1000
0010
0000
,  // measure 45
0101
0000
0100
0001
0000
0100
0001
0000
,  // measure 46
1001
0000
1000
0001
0000
1000
0001
0000
,  // measure 47
1000
0000
0001
0100
0010
1000
0001
0100
0010
1000
0100
0010
0001
0000
0000
0000
,  // measure 48
1001
0000
0100
0001
0000
0100
0001
0000
,  // measure 49
1001
0000
0010
1000
0000
0010
1000
0000
,  // measure 50
0110
0000
0010
0100
0000
0010
0100
0000
,  // measure 51
0110
0000
0100
0001
0000
0100
0001
0000
,  // measure 52
0011
0000
0001
0010
0000
0001
0010
0000
,  // measure 53
1100
0000
0100
1000
0000
0100
1000
0000
,  // measure 54
1001
0000
0001
1000
0000
0001
1000
0000
,  // measure 55
0001
0000
1000
0100
0010
0001
1000
0100
0010
0001
0100
0010
1000
0000
0000
0000
,  // measure 56
1010
0000
0000
1000
0000
0000
0001
0000
0100
0000
0001
0000
0100
0000
0000
0000
,  // measure 57
0010
1000
0100
1000
0010
0010
0010
0000
,  // measure 58
0101
0000
0000
0001
0000
0000
0010
0000
0001
0000
1000
0000
0001
0000
0000
0000
,  // measure 59
0001
0100
0001
1000
0100
0100
0100
0000
,  // measure 60
1100
0000
0000
1000
0000
0000
0001
0000
0010
0000
0001
0000
0010
0000
0000
0000
,  // measure 61
0100
1000
0010
1000
0100
0100
0100
0000
,  // measure 62
0110
0000
0000
0010
0000
0000
0001
0000
1000
0000
0100
0000
1000
0000
0000
0000
,  // measure 63
0010
0000
0100
0001
1000
0010
0100
0001
1000
0010
0100
0001
0200
0000
0000
0000
,  // measure 64
0300
0000
0000
0000
;
