#VERSION:0.82;
#TITLE:美人計;
#SUBTITLE:;
#ARTIST:蔡依林;
#TITLETRANSLIT:Honey Trap;
#SUBTITLETRANSLIT:;
#ARTISTTRANSLIT:Jolin Tsai;
#GENRE:Vogue Pop;
#ORIGIN:;
#CREDIT:chewi;
#BANNER:Honey Trap.png;
#BACKGROUND:Honey Trap-bg.png;
#PREVIEWVID:;
#JACKET:Honey Trap-jacket.png;
#CDIMAGE:;
#DISCIMAGE:;
#LYRICSPATH:;
#CDTITLE:cdtitle.png;
#MUSIC:Honey Trap.ogg;
#OFFSET:-1.971000;
#SAMPLESTART:49.215000;
#SAMPLELENGTH:15.000000;
#SELECTABLE:YES;
#BPMS:0.000=122.000;
#STOPS:;
#DELAYS:;
#WARPS:;
#TIMESIGNATURES:0.000=4=4;
#TICKCOUNTS:0.000=4;
#COMBOS:0.000=1;
#SPEEDS:0.000=1.000=0.000=0;
#SCROLLS:0.000=1.000;
#FAKES:;
#LABELS:0.000=Song Start;
#BGCHANGES:0.000=Honey Trap.avi=1.000=1=0=0=StretchNoLoop==CrossFade==,
99999=-nosongbg-=1.000=0=0=0 // don't automatically add -songbackground-
;
#KEYSOUNDS:;
#ATTACKS:
;

//---------------dance-single - ----------------
#NOTEDATA:;
#CHARTNAME:;
#STEPSTYPE:dance-single;
#DESCRIPTION:;
#CHARTSTYLE:;
#DIFFICULTY:Beginner;
#METER:1;
#RADARVALUES:0.081166,0.071768,0.039871,0.079742,0.000000,45.000000,4.000000,8.000000,0.000000,0.000000,0.000000,0.000000,0.000000,0.081166,0.071768,0.039871,0.079742,0.000000,45.000000,4.000000,8.000000,0.000000,0.000000,0.000000,0.000000,0.000000;
#CREDIT:;
#NOTES:
0000
0000
0000
0000
,
0000
0000
0000
0000
,
0000
0000
0000
0000
,
0000
0000
0000
0000
,
1000
0000
0000
0000
,
0001
0000
0000
0000
,
0100
0000
0000
0000
,
0010
0000
0000
0000
,
0020
0000
0000
0030
,
0010
0000
0000
0000
,
0200
0000
0000
0300
,
0100
0000
0000
0000
,
2000
0000
0000
3000
,
1000
0000
0000
0000
,
0002
0000
0000
0003
,
0001
0000
0000
0000
,
1001
0000
0000
0000
,
0100
0000
0000
0000
,
0010
0000
0000
0000
,
0100
0000
0000
0000
,
0110
0000
0000
0000
,
0001
0000
0000
0000
,
1000
0000
0000
0000
,
0001
0000
0000
0000
,
2000
0000
0000
3000
,
1000
0000
0000
0000
,
0002
0000
0000
0003
,
0001
0000
0000
0000
,
0200
0000
0000
0300
,
0100
0000
0000
0000
,
0020
0000
0000
0030
,
0010
0000
0000
0000
,
0010
0000
0000
0000
,
0010
0000
0000
0000
,
0100
0000
0000
0000
,
0100
0000
0000
0000
,
0001
0000
0000
0000
,
0001
0000
0000
0000
,
1000
0000
0000
0000
,
1000
0000
0000
0000
,
1001
0000
0000
0000
,
0100
0000
0000
0000
,
0010
0000
0000
0000
,
0100
0000
0000
0000
,
0110
0000
0000
0000
,
1000
0000
0000
0000
,
0001
0000
0000
0000
,
1000
0000
0000
0000
,
1000
0000
0000
0000
;

//---------------dance-single - ----------------
#NOTEDATA:;
#CHARTNAME:;
#STEPSTYPE:dance-single;
#DESCRIPTION:;
#CHARTSTYLE:;
#DIFFICULTY:Easy;
#METER:4;
#RADARVALUES:0.179420,0.215305,0.009968,0.109646,0.000000,114.000000,1.000000,11.000000,0.000000,0.000000,0.000000,0.000000,0.000000,0.179420,0.215305,0.009968,0.109646,0.000000,114.000000,1.000000,11.000000,0.000000,0.000000,0.000000,0.000000,0.000000;
#CREDIT:;
#NOTES:
0000
0000
0000
0000
,
0000
0000
0000
0000
,
0000
0000
0000
0000
,
0000
0000
0000
0000
,
1000
0000
0100
0000
,
0001
0000
0100
0000
,
1000
0000
0010
0000
,
0001
0000
0010
0000
,
0020
0000
0000
0030
,
0010
0100
1000
0000
,
2000
0000
0000
3000
,
1000
0100
0010
0001
,
2000
0000
0000
3000
,
0001
1000
0100
0000
,
0200
0000
0000
0300
,
0100
0010
0001
1000
,
0002
1000
1000
1000
,
0100
0100
0100
0103
,
0100
0010
0100
0000
,
0010
0100
0010
0000
,
0200
0010
0001
0010
,
0001
0001
0001
0301
,
0001
0001
1000
0000
,
1000
1000
0100
0000
,
1000
0000
0001
0000
,
1000
0001
0100
0000
,
0001
0000
1000
0000
,
0001
1000
0100
0100
,
0010
0000
0100
0000
,
0010
0100
1000
0000
,
0010
0000
0100
0000
,
0010
0100
0001
0100
,
0002
0000
0000
1003
,
2000
0000
0000
3100
,
0200
0000
0000
0310
,
0020
0000
0000
0130
,
0000
0010
0000
0010
,
0000
0001
0000
0001
,
0000
1000
0000
1000
,
2000
0000
0000
3000
,
1001
0000
0100
0000
,
0010
0100
0001
0000
,
1000
0000
0100
0000
,
0010
0001
0010
0001
,
0010
0000
0100
0000
,
1000
0100
0001
0000
,
0100
0000
0010
0000
,
0001
0010
0100
1000
,
0001
0000
0000
0000
;

//---------------dance-single - ----------------
#NOTEDATA:;
#CHARTNAME:;
#STEPSTYPE:dance-single;
#DESCRIPTION:;
#CHARTSTYLE:;
#DIFFICULTY:Medium;
#METER:7;
#RADARVALUES:0.307578,0.310995,0.239227,0.209324,0.000000,171.000000,24.000000,21.000000,0.000000,0.000000,0.000000,0.000000,0.000000,0.307578,0.310995,0.239227,0.209324,0.000000,171.000000,24.000000,21.000000,0.000000,0.000000,0.000000,0.000000,0.000000;
#CREDIT:;
#NOTES:
0000
0000
0000
0000
,
0000
0000
0000
0000
,
0000
0000
0000
0000
,
0000
0000
0000
0000
,
2000
0000
3100
0000
0001
0100
0001
0000
,
2000
0000
3100
0000
0001
0010
0001
0000
,
2000
0000
3010
0000
0001
0100
0001
0000
,
2000
0000
3010
0000
1000
0100
1000
0000
,
1001
0000
0010
0100
,
0110
0000
0100
1000
,
1100
0000
0001
0010
,
0002
0023
0230
2300
,
3001
0000
1000
0001
,
0101
0000
0100
0010
,
0110
0000
0010
1000
,
2000
3200
0320
0032
,
0013
0010
0100
1000
,
0100
1000
0100
0000
1000
0100
1000
0000
,
0100
1000
0001
0100
,
0010
0100
0001
0000
0001
0100
0010
0000
,
1000
0010
0100
0010
,
1000
0010
0100
0000
0100
0010
1000
0000
,
0001
1000
0100
0010
,
0100
0010
0001
0000
0001
0010
0100
0000
,
1100
0001
1000
0100
,
1100
0001
1000
0100
,
1100
0001
1000
0100
,
0101
1100
0101
1100
,
0101
1000
0100
1000
,
0101
1000
0100
1000
,
0101
1000
0100
1000
,
0101
0101
1100
1100
,
2002
0000
0000
3003
,
0220
0000
0000
0330
,
2002
0000
0000
3003
,
0220
0000
0000
0330
,
0000
0010
0000
0100
,
0000
0001
0000
1000
,
0000
0100
0100
0010
,
0020
0000
0000
0030
,
0100
0100
0010
0001
,
0010
0001
0010
0000
0001
0010
0001
0000
,
0010
0001
1000
0010
,
0100
0010
1000
0000
1000
0010
0100
0000
,
0001
0100
0010
0100
,
0001
0100
0010
0000
0010
0100
0001
0000
,
1000
0001
0010
0100
,
0010
0100
1000
0000
1000
0100
0010
0000
,
1001
0000
0000
0000
;

//---------------dance-single - ----------------
#NOTEDATA:;
#CHARTNAME:;
#STEPSTYPE:dance-single;
#DESCRIPTION:;
#CHARTSTYLE:;
#DIFFICULTY:Hard;
#METER:10;
#RADARVALUES:0.412952,0.382764,0.269131,0.119614,0.029903,251.000000,27.000000,12.000000,0.000000,0.000000,0.000000,0.000000,0.000000,0.412952,0.382764,0.269131,0.119614,0.029903,251.000000,27.000000,12.000000,0.000000,0.000000,0.000000,0.000000,0.000000;
#CREDIT:;
#NOTES:
// measure 0
0000
0000
0000
0000
,  // measure 1
0000
0000
0000
0000
,  // measure 2
0000
0000
0000
0000
,  // measure 3
0000
0000
0000
0000
,  // measure 4
0102
0000
0013
0000
0100
1000
0001
0000
,  // measure 5
2100
0000
3010
0000
0100
0001
0010
0000
,  // measure 6
1002
0000
0103
0000
0010
1000
0001
0000
,  // measure 7
0010
0100
1000
0001
0100
0010
1000
0000
,  // measure 8
1000
0100
1000
0000
0001
0010
0001
0000
,  // measure 9
1000
0010
1000
0000
0001
0100
0001
0000
,  // measure 10
0100
0010
1000
0000
0100
0010
0001
0000
,  // measure 11
1000
0100
0010
0001
1000
0010
0100
0001
,  // measure 12
0001
0100
1000
0000
0100
0010
0001
0000
,  // measure 13
1000
0100
0001
0000
0100
0010
0001
0000
,  // measure 14
1000
0100
1000
0000
0001
0010
0001
0000
,  // measure 15
0010
0100
1000
0001
0100
0010
1000
0001
,  // measure 16
0101
0100
0010
0010
,  // measure 17
1000
1000
0001
0001
,  // measure 18
0010
0100
0010
0000
0100
0010
0100
0000
,  // measure 19
0100
0010
0001
1000
0100
0010
0100
1000
,  // measure 20
0001
1001
0100
0110
,  // measure 21
0010
1010
0100
0101
,  // measure 22
1000
1100
0001
0011
,  // measure 23
0010
0100
1000
0001
0010
0100
1000
0001
,  // measure 24
1100
0000
0101
0000
1000
0100
0010
0001
,  // measure 25
1000
0000
0001
0000
1000
0010
0100
0001
,  // measure 26
0101
0000
1010
0000
1000
0001
0010
0100
,  // measure 27
1000
0010
1000
0000
0001
0010
0001
0000
,  // measure 28
0011
0000
1100
0000
0010
0001
1000
0100
,  // measure 29
1000
0000
0001
0000
1000
0010
0100
0001
,  // measure 30
0110
0000
1001
0000
0100
0010
1000
0001
,  // measure 31
2002
0000
0000
3003
,  // measure 32
1000
0000
0000
1000
0000
0000
1000
0000
0000
0000
0100
0000
0000
0000
0010
0000
,  // measure 33
0001
0000
0000
0001
0000
0000
0001
0000
0011
0000
0000
0000
1100
0000
0000
0000
,  // measure 34
0001
0000
0000
0001
0000
0000
0001
0000
0000
0000
1000
0000
0100
0000
0010
0000
,  // measure 35
0100
0000
0000
1000
0000
0000
0001
0000
1001
0000
0000
0000
0101
0000
0000
0000
,  // measure 36
0100
0010
2000
0000
3001
0010
0200
0000
,  // measure 37
0310
0001
2000
0000
3100
1000
0002
0000
,  // measure 38
0103
0010
2000
0000
3001
0100
0010
1000
,  // measure 39
2002
0000
0000
3003
,  // measure 40
1010
0010
0100
0100
,  // measure 41
0001
0000
0010
0000
0100
0000
1000
0000
0010
0000
0000
0010
0000
0000
0010
0000
,  // measure 42
0100
0010
0100
0000
0010
0100
0010
0000
,  // measure 43
0100
0001
1000
0010
0100
0010
1000
0100
,  // measure 44
0110
0001
1000
1000
,  // measure 45
0010
0000
1000
0000
0001
0000
0010
0000
0001
0000
0000
0001
0000
0000
0001
0000
,  // measure 46
1000
0001
1000
0000
0001
1000
0001
0000
,  // measure 47
1000
0100
0010
0001
1000
0001
0100
0010
,  // measure 48
0110
0000
0000
0000
;
