#TITLE:Hold It Against Me;
#SUBTITLE:;
#ARTIST:Britney Spears;
#TITLETRANSLIT:;
#SUBTITLETRANSLIT:;
#ARTISTTRANSLIT:;
#GENRE:;
#CREDIT:Chewi☆;
#MENUCOLOR:;
#METERTYPE:DDR X;
#BANNER:Hold It Against Me.png;
#BACKGROUND:Hold It Against Me-bg.png;
#LYRICSPATH:;
#CDTITLE:;
#MUSIC:Hold It Against Me.mp3;
#OFFSET:-0.120;
#SAMPLESTART:21.765;
#SAMPLELENGTH:15.000;
#SELECTABLE:YES;
#LISTSORT:;
#DISPLAYBPM:66.000:133.000;
#BPMS:0.000=133.000,12.000=66.500,14.000=133.000,78.000=66.500,94.000=133.000;
#STOPS:121.000=1.805
;
#BGCHANGES:;
#ATTACKS:;

//---------------dance-single - Chewi----------------
#NOTES:
     dance-single:
     Chewi:
     Hard:
     11:
     0.433,0.420,0.221,0.120,0.040: // measure 1
0000
0000
0000
0000
,  // measure 2
0000
0000
0000
0000
,  // measure 3
0000
0000
0000
0000
,  // measure 4
0000
0000
0000
0000
0220
0000
0330
1000
,  // measure 5
0010
0100
0002
0000
1003
1000
0001
0001
,  // measure 6
0010
0100
0010
0001
0010
0100
0000
1000
,  // measure 7
0010
0100
0002
0000
0103
0100
0010
0010
,  // measure 8
1000
0001
0010
0100
2002
0000
3003
0010
,  // measure 9
1000
0100
0020
0000
0030
0001
0001
0010
,  // measure 10
0100
1000
0001
1000
0010
0100
0001
0100
,  // measure 11
0010
1000
1001
0000
1000
0100
1000
0010
,  // measure 12
1000
0100
0010
0001
0100
0100
0010
0010
,  // measure 13
2000
0000
0000
0000
3000
0000
0000
0001
,  // measure 14
0010
0100
0010
0001
0100
0010
0100
0000
,  // measure 15
0001
1000
0010
0000
1010
0001
1010
0000
,  // measure 16
2002
0000
3003
0000
0001
1000
0100
1000
,  // measure 17
0002
0000
0000
0000
0003
0000
0000
0001
,  // measure 18
0100
0010
1000
0001
0010
1000
0100
0000
,  // measure 19
0100
1000
0010
0000
1000
0010
0001
0010
,  // measure 20
1000
0000
0100
0000
0001
0000
0100
0000
1000
0000
0000
1100
0000
0000
0010
0000
,  // measure 21
0000
0011
0000
0000
0001
0000
0001
0000
1000
0000
0000
1010
0000
0000
0001
0000
,  // measure 22
0000
0101
0000
0000
0100
0000
0100
0000
0010
0000
0000
1010
0000
0000
0100
0000
,  // measure 23
0000
1100
0000
0000
0100
0000
0001
0000
0010
0000
0000
0011
0000
0000
0010
0000
,  // measure 24
0000
1010
0000
0000
0010
0000
0010
0000
0100
0000
0000
0000
0000
0000
0101
0000
,  // measure 25
0000
0000
0010
0000
0000
0001
0010
0100
,  // measure 26
1000
0001
0010
0100
1000
0000
0000
1100
,  // measure 27
0000
0000
0001
0000
0000
0100
0010
1000
,  // measure 28
0001
0100
0010
1000
0010
0000
0000
1010
,  // measure 29
0000
0000
0100
0000
0000
0100
0001
0010
,  // measure 30
0100
1000
0001
1000
0100
0000
0000
1001
,  // measure 31
0000
0000
0000
0000
0001
0100
0110
0000
,  // measure 32
0010
1000
0100
1000
0010
1000
0100
0010
,  // measure 33
0001
1000
0100
0010
0011
0100
0001
0000
,  // measure 34
0010
0100
1000
0010
0100
0001
0100
0010
,  // measure 35
1000
0001
0010
0100
1000
0010
1010
0000
,  // measure 36
0100
0010
0001
1000
0010
0100
0001
0100
,  // measure 37
0010
1000
0001
0010
0110
0001
1000
0000
,  // measure 38
0010
0100
0001
0100
0010
0010
1000
1000
,  // measure 39
0001
0010
0100
1000
0010
1000
0100
0000
,  // measure 40
0100
0001
0010
0000
0010
0001
0100
0000
,  // measure 41
0100
1000
0010
0000
0100
0010
0100
0000
,  // measure 42
1000
0100
0001
0000
0010
0100
0010
0000
,  // measure 43
0001
0100
1000
0000
0010
1000
0100
1000
,  // measure 44
0010
1000
0100
0010
0001
0100
0001
0010
,  // measure 45
0001
0100
0001
0010
0100
1000
0001
0100
,  // measure 46
0010
1000
0001
0010
0100
0100
0010
0010
,  // measure 47
0000
0002
0000
0000
1003
0000
0000
0000
;

//---------------dance-single - Chewi----------------
#NOTES:
     dance-single:
     Chewi:
     Medium:
     7:
     0.258,0.280,0.050,0.000,0.040: // measure 1
0000
0000
0000
0000
,  // measure 2
0000
0000
0000
0000
,  // measure 3
0000
0000
0000
0000
,  // measure 4
0000
0000
1000
0000
,  // measure 5
1000
1000
1000
0000
0000
0000
0010
0000
,  // measure 6
0100
0001
0001
0000
,  // measure 7
0001
0001
0001
0000
0001
0000
0100
0000
,  // measure 8
0010
1000
0010
0000
,  // measure 9
0010
0010
0010
0000
0010
0000
0100
0000
,  // measure 10
0001
1000
1000
0000
,  // measure 11
1000
1000
1000
0000
1000
0000
0001
0000
,  // measure 12
0010
0100
1100
0010
,  // measure 13
0001
0000
0000
0000
,  // measure 14
0001
0000
0100
0000
0010
1000
0010
0000
,  // measure 15
0100
0000
0100
0000
0001
0001
0001
0000
,  // measure 16
1000
1000
1000
0000
0001
0000
0010
0000
,  // measure 17
0100
0000
0000
0000
,  // measure 18
1000
0000
0100
0000
0010
0001
0010
0000
,  // measure 19
0001
0000
1000
0000
0010
0010
0010
0000
,  // measure 20
0100
0000
0100
0000
0100
0000
0000
0000
0101
0000
0000
0100
0000
0000
0100
0000
,  // measure 21
0000
0100
0000
0000
0000
0000
0000
0000
1001
0000
0000
1000
0000
0000
0001
0000
,  // measure 22
0000
1000
0000
0000
0000
0000
0000
0000
0110
0000
0000
0010
0000
0000
0100
0000
,  // measure 23
0000
0010
0000
0000
0000
0000
0000
0000
1010
0000
0000
0010
0000
0000
0010
0000
,  // measure 24
0000
0010
0000
0000
0000
0000
0000
0000
1000
0000
0000
0000
1000
0000
0000
0000
,  // measure 25
1000
1000
0100
0001
,  // measure 26
0100
1000
0010
0010
,  // measure 27
0010
0010
0001
0010
,  // measure 28
1000
0010
1000
1000
,  // measure 29
1000
1000
0100
0010
,  // measure 30
0001
0100
0001
0001
,  // measure 31
0001
0000
1000
1000
,  // measure 32
1000
0001
1000
0000
0010
0000
0100
0000
,  // measure 33
0001
1000
0001
0001
,  // measure 34
0001
1000
0001
0000
1000
0000
0001
0000
,  // measure 35
0010
0100
1000
1000
,  // measure 36
1000
0100
1000
0000
1000
0000
0010
0000
,  // measure 37
0100
0001
0100
0100
,  // measure 38
0100
0010
0100
0000
0100
0000
0001
0000
,  // measure 39
0010
1000
0100
0100
,  // measure 40
0100
0000
0010
0010
,  // measure 41
0010
0000
0001
0010
,  // measure 42
0100
1000
1000
0100
,  // measure 43
0010
0001
1000
1000
,  // measure 44
1000
0001
1000
0000
0001
0000
0001
0000
,  // measure 45
0001
1000
0001
0000
0100
0000
1000
0000
,  // measure 46
0010
0001
0100
1000
,  // measure 47
0010
0001
0010
0000
;

//---------------dance-single - Chewi----------------
#NOTES:
     dance-single:
     Chewi:
     Easy:
     4:
     0.176,0.187,0.030,0.040,0.000: // measure 1
0000
0000
0000
0000
,  // measure 2
0000
0000
0000
0000
,  // measure 3
0000
0000
0000
0000
,  // measure 4
0000
0000
1000
0000
,  // measure 5
1000
1000
0000
0010
,  // measure 6
0100
0010
0001
0000
,  // measure 7
0001
0001
0000
0100
,  // measure 8
0010
0100
1000
0000
,  // measure 9
0001
1000
0000
1000
,  // measure 10
0001
0010
0100
0000
,  // measure 11
0100
0010
0001
0100
,  // measure 12
1000
0010
0200
0000
,  // measure 13
0300
0000
0100
0010
,  // measure 14
1000
0000
0002
0000
,  // measure 15
0003
0000
0001
1000
,  // measure 16
0010
0000
2000
0000
,  // measure 17
3000
0000
1000
0100
,  // measure 18
0010
0000
0002
0000
,  // measure 19
0003
0000
0010
0100
,  // measure 20
1000
0000
1001
0000
,  // measure 21
0000
0000
0010
0000
,  // measure 22
0000
0000
1001
0000
,  // measure 23
0000
0000
0100
0000
,  // measure 24
0000
0000
1000
0000
,  // measure 25
1000
0000
1000
0001
,  // measure 26
0010
0100
0010
0000
,  // measure 27
0010
0000
0100
0010
,  // measure 28
0001
1000
0010
0000
,  // measure 29
0010
0000
0010
1000
,  // measure 30
0100
0010
1000
0000
,  // measure 31
0000
0000
1000
1000
,  // measure 32
1000
0000
0010
0100
,  // measure 33
0001
0000
0001
0001
,  // measure 34
0001
0000
0010
0100
,  // measure 35
1000
0000
1000
0100
,  // measure 36
1000
0000
1000
0001
,  // measure 37
0100
0000
0010
0010
,  // measure 38
0010
0000
0100
0001
,  // measure 39
0010
0100
0001
0010
,  // measure 40
0001
0000
0001
1000
,  // measure 41
0010
0000
0100
0100
,  // measure 42
0100
0000
0100
0010
,  // measure 43
1000
0000
1000
1000
,  // measure 44
1000
0000
1000
0001
,  // measure 45
0010
0000
0100
0100
,  // measure 46
0100
0100
0010
0010
,  // measure 47
0010
0010
1001
0000
;

//---------------dance-single - Chewi----------------
#NOTES:
     dance-single:
     Chewi:
     Beginner:
     3:
     0.125,0.140,0.030,0.040,0.000: // measure 1
0000
0000
0000
0000
,  // measure 2
0000
0000
0000
0000
,  // measure 3
0000
0000
0000
0000
,  // measure 4
0000
0000
1000
0000
,  // measure 5
0000
1000
0000
0010
,  // measure 6
0010
0010
0001
0000
,  // measure 7
0000
0001
0000
0100
,  // measure 8
0100
0100
1000
0000
,  // measure 9
0000
1000
0000
1000
,  // measure 10
1000
1000
0100
0000
,  // measure 11
0000
0100
0000
0100
,  // measure 12
0100
0100
0200
0000
,  // measure 13
0300
0000
0100
0000
,  // measure 14
1000
0000
0002
0000
,  // measure 15
0003
0000
0001
0000
,  // measure 16
0010
0000
2000
0000
,  // measure 17
3000
0000
1000
0000
,  // measure 18
0010
0000
0002
0000
,  // measure 19
0003
0000
0010
0000
,  // measure 20
1000
0000
1001
0000
,  // measure 21
0000
0000
0010
0000
,  // measure 22
0000
0000
1001
0000
,  // measure 23
0000
0000
0100
0000
,  // measure 24
0000
0000
1000
0000
,  // measure 25
1000
0000
1000
0000
,  // measure 26
0000
0000
0010
0000
,  // measure 27
0010
0000
0010
0000
,  // measure 28
0000
0000
0100
0000
,  // measure 29
0100
0000
0100
0000
,  // measure 30
0000
0000
1000
0000
,  // measure 31
1000
0000
1000
0000
,  // measure 32
1000
0000
0010
0000
,  // measure 33
0001
0000
0001
0000
,  // measure 34
0001
0000
0010
0000
,  // measure 35
1000
0000
1000
0000
,  // measure 36
1000
0000
1000
0000
,  // measure 37
0100
0000
0010
0000
,  // measure 38
0010
0000
0100
0000
,  // measure 39
0010
0000
0001
0000
,  // measure 40
0001
0000
0001
0000
,  // measure 41
0010
0000
0100
0000
,  // measure 42
0100
0000
0100
0000
,  // measure 43
1000
0000
1000
0000
,  // measure 44
1000
0000
1000
0000
,  // measure 45
0010
0000
0100
0000
,  // measure 46
0100
0000
0010
0000
,  // measure 47
0010
0000
1001
0000
;
