#TITLE:Hitch Hiker;
#SUBTITLE:;
#ARTIST:good-cool;
#TITLETRANSLIT:;
#SUBTITLETRANSLIT:;
#ARTISTTRANSLIT:;
#GENRE:;
#CREDIT:Chewphoria~;
#MENUCOLOR:;
#METERTYPE:DDR;
#BANNER:Hitch Hiker.png;
#BACKGROUND:Hitch Hiker-bg.png;
#LYRICSPATH:;
#CDTITLE:;
#MUSIC:Hitch Hiker.mp3;
#OFFSET:-0.438;
#SAMPLESTART:72.230;
#SAMPLELENGTH:12.000;
#SELECTABLE:YES;
#LISTSORT:;
#BPMS:0.000=137.000;
#STOPS:;
#BGCHANGES:;
#ATTACKS:;

//---------------dance-single - Chewphoria~----------------
#NOTES:
     dance-single:
     Chewphoria~:
     Hard:
     12:
     0.549,0.573,0.225,0.010,0.281: // measure 1
1000
0000
0001
0000
0100
0010
0100
0010
0100
0000
0000
0000
0001
0000
0100
0000
,  // measure 2
0010
0000
0000
0010
0000
0000
0010
0000
0000
0000
0010
0000
1000
0000
0100
0000
,  // measure 3
0010
0100
0100
0000
0010
0100
0100
0000
,  // measure 4
1000
0000
0000
0010
0000
0000
1000
0000
0000
0000
0010
0000
0000
0100
0000
0000
,  // measure 5
0001
0100
1001
0000
1000
0100
1100
0000
,  // measure 6
1000
0000
0000
0100
0000
0000
0010
0000
0000
0000
0001
0000
0000
0010
0000
0000
,  // measure 7
0001
0000
0010
0000
0100
0010
0000
0000
0010
0000
0100
0000
0100
1000
0000
0000
,  // measure 8
1000
0000
0000
0010
0000
0000
0100
0000
0000
0001
0000
0000
0100
0000
0000
0000
,  // measure 9
1000
0000
0001
1000
0001
0000
0000
0000
1000
0000
0001
1000
0001
0000
0000
0000
,  // measure 10
1100
0000
0011
0000
0000
0010
0100
0000
,  // measure 11
0011
0000
1100
0000
0000
0100
0010
0000
,  // measure 12
0001
0100
1000
0000
1000
0010
0001
0000
,  // measure 13
0001
0010
1000
0100
0001
0010
0100
0000
,  // measure 14
1100
0000
0010
0000
0100
0010
0100
0010
,  // measure 15
0101
0000
0010
0000
0100
0010
0100
0010
,  // measure 16
1010
0000
1000
0100
0011
0000
0010
0100
,  // measure 17
1000
0001
1000
0001
0100
0010
0100
0010
,  // measure 18
0200
0001
0010
0001
,  // measure 19
0300
0001
0000
0000
0001
0000
0000
0000
0000
1000
0000
0000
1000
0000
0000
0000
,  // measure 20
1000
0100
1000
0000
0001
0010
0001
0000
,  // measure 21
0010
0100
0010
0100
0010
0010
0001
0001
,  // measure 22
1000
0010
1000
0000
0001
0100
0001
0000
,  // measure 23
0000
0000
0100
0000
0000
0100
0000
0000
0000
0010
0000
0000
0010
0000
0000
0000
,  // measure 24
1000
0010
1000
0010
0100
0010
0100
0010
,  // measure 25
0100
0000
0001
0000
0100
0000
0001
0000
0010
0000
0100
0010
0100
0000
0000
0000
,  // measure 26
0010
0000
0000
0001
0000
0000
0100
0000
0000
0010
0000
0000
0010
0000
0000
0000
,  // measure 27
0010
0000
0000
1000
0000
0000
0100
0000
0000
0100
0000
0000
0001
0000
0010
0100
,  // measure 28
0010
0000
0100
0000
1000
0100
0010
0001
,  // measure 29
0100
0001
0100
0000
0010
1000
0010
0000
1000
0001
1000
0000
0001
1000
0001
0000
,  // measure 30
1000
0100
0010
0001
1000
0100
1000
0100
,  // measure 31
0001
0010
0100
1000
0100
1000
0100
1000
,  // measure 32
1000
0010
0100
0001
0100
0001
0100
0001
,  // measure 33
1000
0010
0100
0001
0100
0001
0100
0001
,  // measure 34
0000
0000
1000
0001
1000
0000
0010
1000
0010
0000
1000
0001
1000
0000
0001
0100
,  // measure 35
0001
0110
1010
0110
,  // measure 36
0000
0000
0100
0010
0100
0000
0100
0001
0100
0000
0001
0010
0001
0000
0010
0100
,  // measure 37
0010
0110
1100
0110
,  // measure 38
0010
0001
0000
0010
0001
0000
0010
0001
0000
0010
0001
0000
0100
0000
1000
0000
,  // measure 39
0001
0010
0000
0001
0010
0000
0001
0010
0000
0001
0010
0000
0100
0000
1000
0000
,  // measure 40
1010
0100
0001
0100
0110
0100
0001
0010
,  // measure 41
0110
1000
1001
1000
0110
0100
0010
0100
,  // measure 42
0000
0000
0100
0000
0001
0000
0010
0000
0100
0000
0000
0100
0000
0000
0100
0000
,  // measure 43
0000
0000
0010
0000
0001
0000
0100
0000
1000
0000
0000
1000
0000
0000
1000
0000
,  // measure 44
0000
0000
1000
0000
0010
0000
0100
0000
0001
0000
0000
0001
0000
0000
0001
0000
,  // measure 45
0100
0000
0010
0000
1000
0000
0001
0000
0010
0000
0000
0010
0000
0000
0010
0000
,  // measure 46
0001
0000
0010
0000
0100
0000
1000
0000
0100
0000
0000
0100
0000
0000
0100
0000
,  // measure 47
0000
0000
1000
0000
0100
0000
0010
0000
0001
0000
0000
0001
0000
0000
0001
0000
,  // measure 48
0100
0000
0010
0000
1000
0001
0000
1000
0001
0000
0000
1000
0000
0000
1000
0000
,  // measure 49
0001
0010
0100
1000
0100
0010
0001
0010
,  // measure 50
0000
0000
0100
0000
1000
0000
0010
0000
0100
0000
0001
0100
0001
0000
0000
0000
,  // measure 51
0100
0000
0010
0000
1000
0000
0001
0000
0010
0001
0010
0001
0010
0000
0100
0000
,  // measure 52
1001
0000
0000
0000
;

//---------------dance-single - Chewphoria~----------------
#NOTES:
     dance-single:
     Chewphoria~:
     Medium:
     7:
     0.391,0.391,0.347,0.071,0.000: // measure 1
1000
0000
0001
0100
0001
0000
0110
0000
,  // measure 2
0010
1000
0100
0001
,  // measure 3
0100
1000
0010
0001
,  // measure 4
0100
0010
0100
0000
0010
0100
0010
0000
,  // measure 5
1000
1010
0000
0110
,  // measure 6
0100
0001
0100
0000
0001
0000
0010
0000
,  // measure 7
1000
0010
1000
0000
1000
0100
1000
0000
,  // measure 8
1000
1100
0001
0101
,  // measure 9
0100
0010
1000
0001
0100
0010
1000
0001
,  // measure 10
2000
0000
0000
0000
,  // measure 11
3002
0000
0000
0000
,  // measure 12
0023
0000
0000
0000
,  // measure 13
0230
0000
0000
0000
,  // measure 14
0300
0010
0000
0010
0000
0001
0000
0001
,  // measure 15
0000
0100
0000
0100
0000
1000
0000
1000
,  // measure 16
1000
0010
1000
0000
0001
0010
0001
0000
,  // measure 17
1000
0001
1000
0010
1000
0010
1000
0000
,  // measure 18
1000
0010
1000
0000
0110
0000
0110
0000
,  // measure 19
0100
0001
0100
0000
0001
0000
0001
0000
,  // measure 20
0010
0110
1000
1010
,  // measure 21
1000
0010
0100
0001
0100
0000
0000
0000
,  // measure 22
0010
0110
0100
0110
,  // measure 23
1000
0001
1000
0000
0001
1000
0001
0000
,  // measure 24
1000
1100
0010
0011
,  // measure 25
0001
0010
0100
1000
0200
0000
1300
0000
,  // measure 26
1001
1000
0010
0100
,  // measure 27
0001
0100
0010
1000
,  // measure 28
1002
1000
1000
1003
,  // measure 29
2010
0010
0010
3010
,  // measure 30
1000
0010
0100
0001
0100
0000
0010
0000
,  // measure 31
0001
0100
0010
1000
0010
0000
0010
0000
,  // measure 32
1000
0001
1000
0000
0001
1000
0001
0000
,  // measure 33
0010
1000
0100
0001
,  // measure 34
0000
0010
0001
0000
0010
0000
0100
0000
,  // measure 35
1000
1010
0011
1010
,  // measure 36
0000
1000
0100
0000
0010
0000
0001
0000
,  // measure 37
0100
1010
0101
1010
,  // measure 38
1000
0010
1000
0000
0010
0000
0010
0000
,  // measure 39
0100
0010
0100
0000
0100
0000
0100
0000
,  // measure 40
0101
0000
1010
0000
,  // measure 41
1001
0110
1001
0110
,  // measure 42
1010
0000
0100
0000
0001
0100
0001
0000
,  // measure 43
0010
0000
0100
0000
0010
0001
0010
0000
,  // measure 44
0001
0000
0010
0000
0100
1000
0100
0000
,  // measure 45
1000
0000
0010
0000
1000
0010
1000
0000
,  // measure 46
1010
0100
0001
0100
,  // measure 47
0101
0100
0010
1000
,  // measure 48
1010
0100
0011
0100
,  // measure 49
0001
1000
0001
0000
1000
0001
1000
0000
,  // measure 50
1010
0000
0000
0000
0100
0001
0100
0000
,  // measure 51
0010
0000
0000
0000
0100
0010
1000
0001
,  // measure 52
1000
0000
0000
0000
;

//---------------dance-single - Chewphoria~----------------
#NOTES:
     dance-single:
     Chewphoria~:
     Easy:
     5:
     0.260,0.286,0.143,0.143,0.000: // measure 1
2000
0000
3000
0000
,  // measure 2
1000
0100
0010
0001
,  // measure 3
0001
0000
1001
0000
,  // measure 4
0001
0100
0010
1000
,  // measure 5
1000
1001
0000
1001
,  // measure 6
1000
0100
0001
0010
,  // measure 7
1000
0000
1000
0000
,  // measure 8
1000
0010
0001
0100
,  // measure 9
1000
1001
0000
1001
,  // measure 10
0002
0000
0000
0000
,  // measure 11
0200
0000
0000
0003
,  // measure 12
0020
0000
0000
0300
,  // measure 13
2000
0000
0000
3030
,  // measure 14
1000
0010
1000
0010
,  // measure 15
0001
0010
0001
0010
,  // measure 16
0001
0100
0001
0100
,  // measure 17
1000
0100
1000
0100
,  // measure 18
2000
0000
0000
3000
,  // measure 19
0001
0001
0001
0000
,  // measure 20
0002
0000
0000
0003
,  // measure 21
1000
0001
1000
0001
,  // measure 22
0020
0000
0000
0030
,  // measure 23
0100
0010
0100
0010
,  // measure 24
0200
0000
0000
0300
,  // measure 25
1000
1000
0010
0010
,  // measure 26
0100
0000
0100
0001
,  // measure 27
0100
0000
0100
1000
,  // measure 28
0010
0001
0010
1000
,  // measure 29
0100
0001
0010
0100
,  // measure 30
1000
1100
0001
0101
,  // measure 31
0010
0100
0010
0100
,  // measure 32
0010
1010
0010
0011
,  // measure 33
0100
1000
0010
0001
,  // measure 34
0200
0000
0000
0000
,  // measure 35
1300
0001
1000
0001
,  // measure 36
0020
0000
0000
0000
,  // measure 37
0031
1000
0001
1000
,  // measure 38
0002
0000
0000
0003
,  // measure 39
0002
0000
0000
0003
,  // measure 40
1010
0000
1010
0000
,  // measure 41
1000
0010
0001
0010
,  // measure 42
1000
0100
0010
0001
,  // measure 43
1000
0100
0010
0001
,  // measure 44
1000
0010
0100
0001
,  // measure 45
1000
0010
1000
0010
,  // measure 46
0001
0010
0100
1000
,  // measure 47
0001
0010
0100
1000
,  // measure 48
0100
1000
0100
1000
,  // measure 49
0001
1001
1000
1001
,  // measure 50
0200
0000
0000
0300
,  // measure 51
0010
0000
0010
0000
,  // measure 52
0110
0000
0000
0000
;

//---------------dance-single - Chewphoria~----------------
#NOTES:
     dance-single:
     Chewphoria~:
     Beginner:
     2:
     0.150,0.208,0.071,0.020,0.000: // measure 1
0000
0000
0000
0000
,  // measure 2
1000
0000
0000
0000
,  // measure 3
0001
0000
0001
0000
,  // measure 4
0010
0000
0000
0000
,  // measure 5
0100
0000
0100
0000
,  // measure 6
1000
0000
0000
0000
,  // measure 7
0001
0000
0001
0000
,  // measure 8
0110
0000
0000
0000
,  // measure 9
0100
0000
0010
0000
,  // measure 10
1000
1000
0000
0000
,  // measure 11
1000
1000
0000
0000
,  // measure 12
0100
0100
0000
0000
,  // measure 13
0100
0100
0000
0000
,  // measure 14
0001
0001
0000
0000
,  // measure 15
0001
0001
0000
0000
,  // measure 16
0100
0100
0000
0000
,  // measure 17
0100
0100
0000
0000
,  // measure 18
0010
0000
0010
0000
,  // measure 19
0000
1000
0000
0001
,  // measure 20
0001
0000
0001
0000
,  // measure 21
0010
0010
0010
0000
,  // measure 22
0010
0000
0010
0000
,  // measure 23
0000
0100
0000
0100
,  // measure 24
0000
1000
0000
1000
,  // measure 25
1000
1000
1000
1000
,  // measure 26
1001
0000
0000
0000
,  // measure 27
0110
0000
0000
0000
,  // measure 28
1001
0000
0000
0000
,  // measure 29
0001
0000
0000
0000
,  // measure 30
0001
0000
0010
0000
,  // measure 31
0100
0000
1000
0000
,  // measure 32
1000
0000
0100
0000
,  // measure 33
0001
0000
0100
0000
,  // measure 34
2000
0000
0000
3000
,  // measure 35
1000
1000
1000
1000
,  // measure 36
0020
0000
0000
0030
,  // measure 37
0010
0010
0010
0010
,  // measure 38
0100
0000
0000
0000
,  // measure 39
0110
0000
0000
0000
,  // measure 40
1001
0000
0001
0000
,  // measure 41
0001
0000
1000
0000
,  // measure 42
1000
0000
0010
0000
,  // measure 43
0010
0000
0010
0000
,  // measure 44
0001
0000
0100
0000
,  // measure 45
0100
0000
0100
0000
,  // measure 46
0001
0000
1000
0000
,  // measure 47
1000
0000
0001
0000
,  // measure 48
0010
0000
0010
0000
,  // measure 49
0100
0000
0100
0000
,  // measure 50
0110
0000
0000
0000
,  // measure 51
1000
0000
0000
0000
,  // measure 52
0001
0000
0000
0000
;
