#TITLE:ひぐらしのなく頃に;
#SUBTITLE:;
#ARTIST:島みやえい子;
#TITLETRANSLIT:Higurashi no naku koro ni;
#SUBTITLETRANSLIT:;
#ARTISTTRANSLIT:Eiko Shimamiya;
#GENRE:;
#CREDIT:Chewi☆;
#MENUCOLOR:;
#METERTYPE:DDR X;
#BANNER:Higurashi no naku koro ni.png;
#BACKGROUND:Higurashi no naku koro ni-bg.png;
#LYRICSPATH:;
#CDTITLE:;
#MUSIC:Higurashi no naku koro ni.mp3;
#OFFSET:-0.525;
#SAMPLESTART:55.388;
#SAMPLELENGTH:15.000;
#SELECTABLE:YES;
#LISTSORT:;
#DISPLAYBPM:105.000;
#BPMS:0.000=105.000;
#STOPS:;
#BGCHANGES:;
#ATTACKS:;

//---------------dance-single - Chewi----------------
#NOTES:
     dance-single:
     Chewi:
     Hard:
     11:
     0.402,0.526,0.171,0.000,0.421: // measure 1
0000
0000
0000
0000
,  // measure 2
0000
0000
0000
0000
,  // measure 3
0000
0000
0000
0000
,  // measure 4
0000
0000
0000
0000
,  // measure 5
1000
0000
0100
0000
0010
0000
0000
0001
0000
0000
0010
0000
0100
0000
0000
0000
,  // measure 6
1000
0000
0010
0000
0100
0000
0000
0001
0000
0000
0100
0000
0010
0000
0000
0000
,  // measure 7
1000
0000
0100
0000
0010
0000
0000
0100
0000
0000
1000
0000
0010
0000
0000
0000
,  // measure 8
0100
0001
0100
0001
0010
0001
0010
0000
,  // measure 9
0000
0000
0001
0000
0000
0010
0000
0000
0100
0000
1000
0000
0000
0010
0000
0000
,  // measure 10
0100
0000
0010
0000
0000
1000
0000
0000
0001
0000
0010
0000
0000
0000
0100
1000
,  // measure 11
0010
0000
0000
0000
0000
0000
0000
0000
0000
0000
0000
0000
0000
0000
0100
0100
,  // measure 12
0000
0000
0000
0000
,  // measure 13
0000
0000
0100
0000
0000
0001
0000
0010
0100
0000
1000
0000
0000
0010
0000
1000
,  // measure 14
0100
0000
0010
0001
0000
0010
0000
0100
1000
0000
0010
0000
0000
0001
0100
0001
,  // measure 15
0000
0000
0000
0000
0000
0000
0000
0000
0000
0000
0000
0000
0000
0000
0001
0100
,  // measure 16
1000
0000
0000
0010
0100
1100
0100
0101
,  // measure 17
0110
0000
0000
0000
0000
0000
0010
1000
0000
0000
0000
0000
0000
0000
1000
0010
,  // measure 18
0100
0000
0000
0000
0101
0000
0000
0000
1001
0000
0000
0001
0000
0000
0010
0000
,  // measure 19
0100
0000
1000
0010
0000
0000
0000
0000
0000
0000
1000
0000
0100
0000
0010
0000
,  // measure 20
0001
0000
0010
0100
0000
0000
0000
0000
0000
0000
0000
0000
1010
0000
0000
0000
,  // measure 21
0101
0000
0000
0000
1001
0000
0000
0000
0001
0000
0100
0000
0010
0000
1000
0001
,  // measure 22
0000
0000
0000
0000
0000
0001
0010
0100
,  // measure 23
0000
0000
1000
0100
0010
0001
0000
0010
0100
0000
0000
1000
0000
0000
0100
0000
,  // measure 24
0100
0001
0100
0001
0010
1000
0010
1000
0010
0001
0010
1000
0010
0001
0100
0010
,  // measure 25
1000
0000
0010
0100
0001
0100
0010
1000
0000
0001
1000
0000
0100
0000
0000
0000
,  // measure 26
0000
0000
0100
0010
0100
1000
0010
0100
0000
0010
0100
0000
0101
0000
0000
0000
,  // measure 27
0000
0000
0001
0000
0100
0000
0010
1000
0000
1000
0100
0000
0010
0000
0100
0000
,  // measure 28
0010
0000
0001
0100
0010
0100
0001
0010
0100
1000
0010
1000
0100
0000
1000
0000
,  // measure 29
0010
0000
0100
0010
0100
0000
0001
0100
0000
0100
0001
0000
0010
0000
0100
0000
,  // measure 30
1000
0000
0010
1000
0100
0010
0001
0010
0000
0010
0100
0000
0010
0000
0001
0000
,  // measure 31
0100
0000
0010
0100
0001
0100
0010
1000
0100
0010
0100
0000
1000
0000
0001
0000
,  // measure 32
1000
0000
0010
0100
0001
0000
0100
0000
0110
0000
0000
1001
0000
0000
1100
0000
,  // measure 33
0011
0000
0000
0000
;

//---------------dance-single - Chewi----------------
#NOTES:
     dance-single:
     Chewi:
     Medium:
     6:
     0.226,0.232,0.026,0.053,0.000:
0000
0000
0000
0000
,
0000
0000
0000
0000
,
0000
0000
0000
0000
,
0000
0000
0000
0000
,
1000
1000
0010
0010
,
0100
0100
0001
0001
,
0010
0010
0001
0001
,
0100
0100
1000
1000
,
0010
0000
0100
0000
0100
0100
0100
0000
,
1000
0000
0100
0000
1000
1000
1000
0000
,
0001
0000
0010
0000
0001
0001
0001
0000
,
0001
0010
0100
1000
,
0010
0000
0100
0000
0100
0010
0100
0000
,
0010
0000
1000
0000
0010
1000
0010
0000
,
1000
0000
0100
0000
0010
0001
0010
0000
,
0001
0100
1000
0010
,
0020
0000
0000
0030
,
0010
0100
0001
1000
,
0002
0000
0003
1000
,
0100
0001
0000
0100
,
0010
0110
0010
1000
,
0010
0000
0100
0001
,
0100
1000
0010
0001
,
0002
0000
2000
3003
,
1000
0000
0100
0000
0010
0001
0100
0000
,
0010
0000
0100
0000
0001
0100
0010
0000
,
1000
0001
0100
0010
,
1000
0001
0010
0100
,
0010
0000
0001
0000
0100
0100
1000
0000
,
1000
0010
0100
0001
,
0100
0000
0001
0000
0010
0010
0001
0000
,
0001
0010
0100
1000
,
1001
0000
0000
0000
;

//---------------dance-single - Chewi----------------
#NOTES:
     dance-single:
     Chewi:
     Easy:
     3:
     0.124,0.168,0.026,0.092,0.000:
0000
0000
0000
0000
,
0000
0000
0000
0000
,
0000
0000
0000
0000
,
0000
0000
0000
0000
,
2000
0000
0000
3000
,
0002
0000
0000
0003
,
2000
0000
0000
3000
,
0002
0000
0000
0003
,
0010
0000
0001
0000
,
0100
0000
1000
0000
,
0020
0000
0000
0030
,
0010
0000
0000
0000
,
0010
0000
1000
0000
,
0100
0000
0001
0000
,
0020
0000
0000
0030
,
0010
0000
0000
0000
,
1001
0000
0100
0000
,
0010
0000
0100
0000
,
1000
0000
0001
0000
,
1000
0000
0001
0000
,
0110
0000
0010
0000
,
0100
0000
1000
0000
,
0001
0000
1000
0000
,
0002
0000
0000
0003
,
0001
0001
0001
0000
,
0100
1000
0100
0000
,
1000
1000
1000
0000
,
0100
0001
0100
0000
,
0010
0010
0010
0000
,
0100
0010
0100
0000
,
0100
0100
0100
0000
,
1000
0100
0001
0010
,
0010
0000
0000
0000
;

//---------------dance-single - Chewi----------------
#NOTES:
     dance-single:
     Chewi:
     Beginner:
     1:
     0.068,0.105,0.026,0.053,0.000:
0000
0000
0000
0000
,
0000
0000
0000
0000
,
0000
0000
0000
0000
,
0000
0000
0000
0000
,
1000
0000
0000
0000
,
0001
0000
0000
0000
,
1000
0000
0000
0000
,
0001
0000
0000
0000
,
0010
0000
0000
0000
,
0100
0000
0000
0000
,
0020
0000
0000
0030
,
0010
0000
0000
0000
,
0010
0000
0000
0000
,
0100
0000
0000
0000
,
0020
0000
0000
0030
,
0010
0000
0000
0000
,
1001
0000
0000
0000
,
0010
0000
0000
0000
,
1000
0000
0000
0000
,
1000
0000
0000
0000
,
0110
0000
0000
0000
,
0100
0000
0000
0000
,
0001
0000
0000
0000
,
0002
0000
0000
0003
,
0001
0000
0000
0000
,
2000
0000
0000
3000
,
1000
0000
0000
0000
,
0100
0000
0000
0000
,
0010
0000
0000
0000
,
0100
0000
0000
0000
,
0100
0000
0000
0000
,
1000
0000
0001
0000
,
0010
0000
0000
0000
;
