#TITLE:High School Love;
#SUBTITLE:;
#ARTIST:DJ YOSHITAKA feat.DWP;
#TITLETRANSLIT:;
#SUBTITLETRANSLIT:;
#ARTISTTRANSLIT:;
#GENRE:;
#CREDIT:Chewi☆;
#MENUCOLOR:;
#METERTYPE:DDR X;
#BANNER:High School Love.png;
#BACKGROUND:High School Love-bg.png;
#LYRICSPATH:;
#CDTITLE:;
#MUSIC:High School Love.mp3;
#OFFSET:-0.438;
#SAMPLESTART:44.949;
#SAMPLELENGTH:15.000;
#SELECTABLE:YES;
#LISTSORT:;
#DISPLAYBPM:90.000:180.000;
#BPMS:0.000=180.000,250.000=90.000,266.000=180.000;
#STOPS:133.000=1.013
,164.500=0.333
,249.000=1.013
;
#BGCHANGES:;
#ATTACKS:;

//---------------dance-single - Chewi----------------
#NOTES:
     dance-single:
     Chewi:
     Beginner:
     3:
     0.181,0.235,0.052,0.000,0.000: // measure 1
0000
0000
0000
0000
,  // measure 2
0000
0000
0000
0000
,  // measure 3
0000
0000
0000
0000
,  // measure 4
0000
0000
0000
0000
,  // measure 5
0000
1000
0000
1000
,  // measure 6
0000
0000
0000
0000
,  // measure 7
0001
0000
0001
0000
,  // measure 8
0100
0000
0000
0000
,  // measure 9
1001
0000
1000
0000
,  // measure 10
0000
0000
0000
0000
,  // measure 11
1001
0000
0001
0000
,  // measure 12
0000
0000
0000
0000
,  // measure 13
0110
0000
0010
0000
,  // measure 14
0000
0000
0000
0000
,  // measure 15
0110
0000
0100
0000
,  // measure 16
0000
0000
0000
0000
,  // measure 17
0010
0000
0001
0000
,  // measure 18
0100
0000
0001
0000
,  // measure 19
0010
0000
0010
0000
,  // measure 20
0100
0000
0100
0000
,  // measure 21
0100
0000
1000
0000
,  // measure 22
0010
0000
1000
0000
,  // measure 23
1000
0000
1000
0000
,  // measure 24
0001
0000
0001
0000
,  // measure 25
1000
0000
0010
0000
,  // measure 26
1000
0000
0010
0000
,  // measure 27
1000
0000
0100
0000
,  // measure 28
1000
0000
0100
0000
,  // measure 29
0010
0000
0100
0000
,  // measure 30
0010
0000
0100
0000
,  // measure 31
0010
0000
1000
0000
,  // measure 32
0010
0000
1000
0000
,  // measure 33
1000
0000
0010
0000
,  // measure 34
1000
1000
0001
0001
,  // measure 35
0001
0000
1000
1000
,  // measure 36
1000
0000
1000
0000
,  // measure 37
1000
0000
0001
0000
,  // measure 38
0001
0000
0000
0000
,  // measure 39
1000
1000
1000
0000
,  // measure 40
0001
0001
0001
0000
,  // measure 41
0100
0000
0000
0100
,  // measure 42
0100
0001
0000
0010
,  // measure 43
0000
0001
0000
0001
,  // measure 44
0000
0100
0000
0000
,  // measure 45
0110
0000
0010
0000
,  // measure 46
1000
0000
1000
0000
,  // measure 47
1000
0000
0100
0000
,  // measure 48
0010
0000
0010
0000
,  // measure 49
0010
0000
0010
0000
,  // measure 50
0001
0000
0001
0000
,  // measure 51
0001
0000
1000
0000
,  // measure 52
0010
0000
0001
0000
,  // measure 53
0100
0000
0001
0000
,  // measure 54
0100
0000
0100
0000
,  // measure 55
0010
0000
0010
0000
,  // measure 56
0010
0000
0010
0000
,  // measure 57
0001
0000
0001
0000
,  // measure 58
0001
0000
0100
0000
,  // measure 59
0001
0000
0100
0000
,  // measure 60
0001
0000
0001
0000
,  // measure 61
0010
0000
0010
0000
,  // measure 62
0001
0000
0010
0000
,  // measure 63
0001
0001
1000
0000
,  // measure 64
0000
0000
0001
0000
,  // measure 65
0000
0000
0000
0010
0000
0000
0000
0010
,  // measure 66
0000
0000
0000
1000
0000
0000
0000
0001
,  // measure 67
0000
0000
0001
0000
,  // measure 68
0010
0000
0001
0000
,  // measure 69
0001
0000
0100
0000
,  // measure 70
0000
0110
0000
0010
,  // measure 71
0000
1000
0000
1000
,  // measure 72
0000
1000
0000
0100
,  // measure 73
0000
0010
0000
0010
,  // measure 74
0000
0010
0000
0010
,  // measure 75
0000
0001
0000
0001
,  // measure 76
0000
0001
0000
1000
,  // measure 77
0000
0010
0000
0001
,  // measure 78
0000
0100
0000
0001
,  // measure 79
0001
0000
0000
0000
;

//---------------dance-single - Chewi----------------
#NOTES:
     dance-single:
     Chewi:
     Easy:
     6:
     0.330,0.403,0.086,0.000,0.000: // measure 1
0000
0000
0000
0000
,  // measure 2
0000
0000
0000
0000
,  // measure 3
0000
0000
0000
0000
,  // measure 4
0000
0000
0000
0000
,  // measure 5
0000
1000
0100
1000
,  // measure 6
0100
0000
0000
0001
,  // measure 7
0100
0001
0100
0100
,  // measure 8
0100
0000
0110
0100
,  // measure 9
1001
0000
1000
1000
,  // measure 10
1000
0000
0000
0000
,  // measure 11
1001
0000
0001
0001
,  // measure 12
0001
0000
0000
0000
,  // measure 13
0110
0000
0010
0010
,  // measure 14
0010
0000
0000
0000
,  // measure 15
0110
0000
0100
0100
,  // measure 16
0100
0000
0000
0000
,  // measure 17
0010
0100
0001
1000
,  // measure 18
0100
0010
0001
1000
,  // measure 19
0010
0010
0010
0000
,  // measure 20
0100
0100
0100
0000
,  // measure 21
0100
0010
1000
0001
,  // measure 22
0010
0100
1000
0001
,  // measure 23
1000
1000
1000
0000
,  // measure 24
0001
0001
0001
0000
,  // measure 25
1000
0100
0010
0100
,  // measure 26
1000
0100
0010
0100
,  // measure 27
1000
0001
0100
0001
,  // measure 28
1000
0001
0100
0001
,  // measure 29
0010
0001
0100
0001
,  // measure 30
0010
0001
0100
0001
,  // measure 31
0010
0100
1000
0010
,  // measure 32
0010
0100
1000
0010
,  // measure 33
1000
0100
0010
0001
,  // measure 34
1000
1001
0001
0001
,  // measure 35
0001
0001
1000
1000
,  // measure 36
1000
1000
0010
0100
,  // measure 37
0010
0100
0000
0000
,  // measure 38
0000
1000
1000
1000
,  // measure 39
1000
0001
0001
0001
,  // measure 40
0001
0010
0100
0010
,  // measure 41
0100
0010
0000
0001
,  // measure 42
1001
0001
1000
0010
,  // measure 43
0100
0001
1000
0001
,  // measure 44
1000
0100
0010
0000
,  // measure 45
0110
0000
0010
0001
,  // measure 46
1000
0001
1000
0001
,  // measure 47
1000
0000
0100
0100
,  // measure 48
0010
0100
0010
0100
,  // measure 49
0010
0010
0010
0010
,  // measure 50
0001
0010
0001
0010
,  // measure 51
0001
0000
1000
1000
,  // measure 52
0010
0100
0001
1000
,  // measure 53
0100
0010
0001
1000
,  // measure 54
0100
1000
0100
1000
,  // measure 55
0010
1000
0010
1000
,  // measure 56
0010
0100
0010
0100
,  // measure 57
0001
0100
0001
0100
,  // measure 58
0001
0010
0100
1000
,  // measure 59
0001
0010
0100
1000
,  // measure 60
0001
1000
0001
1000
,  // measure 61
0010
0100
0010
0100
,  // measure 62
0001
0100
0010
1000
,  // measure 63
0001
1001
1000
0001
,  // measure 64
1000
0001
1000
0000
0100
0000
0010
0001
,  // measure 65
0010
0000
0000
0010
0000
0000
0000
0100
,  // measure 66
0000
0000
0000
1000
0000
0000
0000
0001
,  // measure 67
0000
0000
0001
1000
,  // measure 68
0010
0100
0001
1000
,  // measure 69
0001
1000
0100
0010
,  // measure 70
0000
0110
0000
0010
,  // measure 71
0001
1000
0001
1000
,  // measure 72
0001
1000
0000
0100
,  // measure 73
0100
0010
0100
0010
,  // measure 74
0100
0010
0010
0010
,  // measure 75
0010
0001
0010
0001
,  // measure 76
0010
0001
0000
1000
,  // measure 77
1000
0010
0100
0001
,  // measure 78
1000
0100
0010
0001
,  // measure 79
1000
0000
0000
0000
;

//---------------dance-single - Chewi----------------
#NOTES:
     dance-single:
     Chewi:
     Medium:
     8:
     0.443,0.438,0.121,0.276,0.000: // measure 1
0000
0000
0000
0000
,  // measure 2
0000
0000
0000
0000
,  // measure 3
0000
0000
0000
0000
,  // measure 4
0000
0000
0000
0000
,  // measure 5
0000
0000
1000
0000
0001
1000
0000
0001
,  // measure 6
0000
1000
0001
0000
0010
0000
0100
0000
,  // measure 7
1000
0000
0010
1000
0000
0100
0000
1000
,  // measure 8
0000
0010
0000
0100
0001
0100
0001
0000
,  // measure 9
0101
0000
0000
0100
0000
0100
0000
0100
,  // measure 10
0000
0010
1000
0001
,  // measure 11
1001
0000
0000
1000
0000
1000
0000
1000
,  // measure 12
0000
0000
0001
1000
0001
0000
1000
0001
,  // measure 13
1000
0000
0000
0010
0000
0010
0000
0010
,  // measure 14
0000
0100
0010
1000
,  // measure 15
1010
0000
0101
0000
,  // measure 16
1000
0100
1000
0000
0100
1000
0100
0000
,  // measure 17
2000
3001
0002
1003
,  // measure 18
1000
0010
0100
0001
,  // measure 19
0020
0031
0002
0013
,  // measure 20
0010
0100
1000
0010
,  // measure 21
2000
3100
0200
1300
,  // measure 22
1000
0001
0100
0010
,  // measure 23
0200
0310
0020
0130
,  // measure 24
0100
0000
0010
0000
1000
0000
0001
1000
,  // measure 25
0000
0001
1000
0000
0001
0000
0010
0001
,  // measure 26
0000
0010
0001
0000
0010
0000
0100
1000
,  // measure 27
0000
0100
1000
0000
0100
0000
1000
0001
,  // measure 28
0000
1000
0001
0000
1000
0000
0010
1000
,  // measure 29
0000
0010
1000
0000
0010
0000
0010
0000
,  // measure 30
0100
0001
0001
0001
,  // measure 31
1000
0001
1000
0000
0001
1000
0001
0000
,  // measure 32
1000
0100
1000
0000
0001
0010
0001
0000
,  // measure 33
0010
0100
0010
0000
0100
0010
0100
0000
,  // measure 34
0110
0110
0001
1000
,  // measure 35
0001
0000
0000
1100
0000
0000
0101
0000
,  // measure 36
1100
0000
0010
0100
0000
0010
0000
0000
,  // measure 37
0000
0100
0100
0000
0000
0000
0010
0000
,  // measure 38
1000
0000
1001
0000
0000
2000
0000
3200
,  // measure 39
0000
0320
0000
0030
0001
0000
0010
0000
,  // measure 40
0100
0000
1000
0000
0001
2000
0000
3020
,  // measure 41
0000
0230
0000
0300
0000
0000
0001
0100
,  // measure 42
0001
0100
0010
0000
1000
0000
0001
1000
,  // measure 43
0000
0001
0000
0010
0100
0000
1000
0000
,  // measure 44
0001
1000
0000
0001
0000
0000
0000
0100
,  // measure 45
0100
0000
0010
1000
,  // measure 46
0001
0000
0000
2000
0000
3002
0000
0023
,  // measure 47
0000
0030
0100
0000
1000
0000
0010
0000
,  // measure 48
0100
0000
0000
0002
0000
2003
0000
3002
,  // measure 49
0000
0003
1000
0000
0001
0000
0010
0000
,  // measure 50
0100
0000
0000
2000
0000
3020
0000
0230
,  // measure 51
0000
0300
0001
0000
0001
0000
1000
0000
,  // measure 52
0010
0000
0000
0100
0100
0000
0000
0000
,  // measure 53
0001
1000
0001
0000
1000
0001
1000
0000
,  // measure 54
1000
0100
0010
1000
,  // measure 55
0100
0001
0010
0100
,  // measure 56
0001
0010
0001
0000
1000
0100
1000
0000
,  // measure 57
0001
0100
0001
0000
1000
0010
1000
0000
,  // measure 58
0010
0100
0001
1000
,  // measure 59
0100
0010
0001
1000
,  // measure 60
1100
0001
1100
0001
,  // measure 61
0101
1000
0101
1000
,  // measure 62
0010
0100
0001
1000
,  // measure 63
0001
1000
0001
0000
1000
0000
0001
0000
,  // measure 64
1000
0001
1000
0000
0100
0000
0010
0001
,  // measure 65
0010
0000
0000
0010
0010
0010
0000
0100
,  // measure 66
0100
0100
0000
1000
1000
1000
0000
0001
,  // measure 67
0001
0001
0000
0000
0100
0000
0001
0000
,  // measure 68
1000
0001
0000
1000
0000
0100
0010
0000
,  // measure 69
0001
0000
1000
0001
0000
1000
0000
0000
,  // measure 70
0000
0010
0010
0000
0000
0000
0100
0000
,  // measure 71
0001
0000
1000
0000
0000
0002
0000
2003
,  // measure 72
0000
3200
0000
0300
0010
0000
0001
0000
,  // measure 73
0100
0000
0010
0000
0000
2000
0000
3002
,  // measure 74
0000
2003
0000
3000
0001
0000
1000
0000
,  // measure 75
0100
0000
0010
0000
0000
0002
0000
0203
,  // measure 76
0000
0320
0000
0030
1000
0000
1000
0000
,  // measure 77
0001
0000
0100
0000
0000
0010
0010
0000
,  // measure 78
0000
0000
1000
0001
1000
0000
0001
1000
,  // measure 79
0001
1000
0000
0000
0000
0000
0000
0000
;

//---------------dance-single - Chewi----------------
#NOTES:
     dance-single:
     Chewi:
     Hard:
     12:
     0.571,0.740,0.302,0.327,0.099: // measure 1
0000
0000
0000
0000
,  // measure 2
0000
0000
0000
0000
,  // measure 3
0000
0000
0000
0000
,  // measure 4
0000
0000
0000
0000
,  // measure 5
0000
0000
1000
0000
0001
0100
0000
0010
,  // measure 6
0000
1000
0001
0000
1100
0000
1100
0000
,  // measure 7
1000
0000
0001
0010
0000
0100
0000
1000
,  // measure 8
0000
0000
0000
0001
1000
0001
1000
0000
,  // measure 9
0002
0000
0000
1000
0000
1000
0000
2003
,  // measure 10
0000
0010
0001
3010
,  // measure 11
0002
0000
0000
0010
0000
0010
0000
0023
,  // measure 12
0000
0001
0100
0031
,  // measure 13
0002
0000
0000
0100
0000
0100
0000
0203
,  // measure 14
0000
0010
0010
0310
,  // measure 15
1001
0000
1001
0000
,  // measure 16
1100
1100
0101
0101
,  // measure 17
1000
0001
1000
0000
0001
1000
0001
0000
,  // measure 18
1000
0100
0010
0100
1000
0010
0100
0000
,  // measure 19
0001
1000
0001
0000
1000
0001
1000
0000
,  // measure 20
0001
0010
0100
0010
0001
0000
0101
0000
,  // measure 21
1100
0000
1000
0000
1000
0010
0100
0000
,  // measure 22
0101
0000
1001
0000
0001
1000
0001
0000
,  // measure 23
1001
0000
0010
0100
1000
0000
1010
0000
,  // measure 24
0100
0001
1000
0000
1000
0001
1000
0001
,  // measure 25
0000
1000
0001
0000
0010
0100
1000
0100
,  // measure 26
0000
1000
0001
0000
1000
0001
1000
0001
,  // measure 27
0000
1000
0010
0000
0100
0001
1000
0001
,  // measure 28
0000
1000
0100
0010
0001
1000
0100
0010
,  // measure 29
0000
0001
0000
1001
0000
1000
0000
1001
,  // measure 30
0000
0001
0000
0101
0000
1000
0000
1010
,  // measure 31
0001
1000
0001
0000
1000
0001
1000
0000
,  // measure 32
0001
0010
0100
0000
0010
0100
1000
0000
,  // measure 33
1000
1000
0010
0010
0100
0100
0001
0001
,  // measure 34
1000
0001
1001
0000
0001
0000
0010
0100
,  // measure 35
1000
0020
0000
1030
0000
0001
0100
0000
,  // measure 36
0010
0000
1000
0002
0000
2000
0000
0000
,  // measure 37
3003
0000
0001
1000
0001
0000
0000
0000
0000
0000
0001
0000
0010
0000
0100
0000
,  // measure 38
1000
0010
0100
0000
0001
0100
0000
0020
,  // measure 39
0000
2030
0000
3001
0010
0000
0011
0000
,  // measure 40
0011
0000
0001
0010
0100
1000
0000
0002
,  // measure 41
0000
2003
0000
3000
0000
0001
1000
0100
,  // measure 42
0010
0001
1000
0000
0100
0010
0001
0200
,  // measure 43
0000
0301
0000
1000
0010
0000
0100
0000
,  // measure 44
0001
0000
2000
0000
0000
0000
0002
0000
0000
0000
0000
0000
3003
0000
1000
0001
,  // measure 45
1000
0000
0000
0001
0010
0100
1000
0010
,  // measure 46
2000
0000
0000
0001
0000
0001
0000
3002
,  // measure 47
0000
0100
1000
0103
,  // measure 48
2000
0000
0000
0100
0000
0100
0000
3200
,  // measure 49
0000
1000
0010
1300
,  // measure 50
2000
0000
0000
0010
0000
0010
0000
3020
,  // measure 51
0000
0100
0100
0130
,  // measure 52
1001
0000
1001
0000
,  // measure 53
1000
1000
1000
0000
0001
0001
0001
1000
,  // measure 54
0010
1000
0100
0010
0001
0010
0100
1100
,  // measure 55
0000
0010
1000
0100
0010
0001
0100
0101
,  // measure 56
0000
1000
0001
1000
0010
0100
0001
1001
,  // measure 57
0000
1000
0100
0010
0001
1000
0100
1100
,  // measure 58
0000
1000
0001
0010
0100
1000
0001
0010
,  // measure 59
0100
1000
0010
0100
0001
0100
0010
1000
,  // measure 60
0001
0000
1000
0001
0000
1100
0000
0101
,  // measure 61
0000
1000
0001
0010
0100
1000
0001
1000
,  // measure 62
0010
0010
0100
0100
0001
0001
1000
1000
,  // measure 63
0001
0000
1000
0000
1001
0000
0000
0000
1000
0000
0001
1000
0001
2000
0000
3001
,  // measure 64
0000
0000
0010
0000
0100
0000
0000
0000
1000
0000
0000
0000
0001
0000
2000
0000
0000
0000
0020
0000
0000
0000
0000
0000
3030
0000
1000
0010
1000
0000
0000
0000
,  // measure 65
0000
1000
0100
1000
0010
1000
0100
0000
0010
0001
0000
2000
0000
3002
0000
0003
,  // measure 66
1000
0000
0010
0000
0100
0000
0001
0000
0010
0100
0000
2000
0000
3002
0000
0003
,  // measure 67
0000
1000
0001
1000
0010
0100
0000
0000
0001
0000
0000
0000
0010
0000
0100
0000
,  // measure 68
1000
0020
0000
1030
0000
0001
0100
0000
,  // measure 69
0010
0000
1000
0002
0000
2000
0000
0000
,  // measure 70
3003
0000
0001
1000
0001
0000
0000
0000
0000
0000
1000
0000
0100
0000
0010
0000
,  // measure 71
0001
0100
0002
0000
0000
1000
0000
1000
,  // measure 72
0000
2003
0000
0000
0010
0000
0001
0000
,  // measure 73
3010
0000
0002
0000
0000
0010
0000
0010
,  // measure 74
0000
0023
0000
0000
0001
0000
0100
0000
,  // measure 75
0031
0000
0002
0000
0000
0100
0000
0100
,  // measure 76
0000
0203
0000
0000
0010
0000
0010
0000
,  // measure 77
0310
1001
0000
1001
,  // measure 78
0000
0000
0101
0000
1010
0000
1001
0001
,  // measure 79
1000
0100
0000
0000
0000
0000
0000
0000
;
