#VERSION:0.82;
#TITLE:Hideaway;
#SUBTITLE:;
#ARTIST:Kiesza;
#TITLETRANSLIT:;
#SUBTITLETRANSLIT:;
#ARTISTTRANSLIT:;
#GENRE:House;
#ORIGIN:;
#CREDIT:chewi;
#BANNER:Hideaway.png;
#BACKGROUND:Hideaway-bg.png;
#PREVIEWVID:;
#JACKET:Hideaway-jacket.png;
#CDIMAGE:;
#DISCIMAGE:;
#LYRICSPATH:;
#CDTITLE:cdtitle.png;
#MUSIC:Hideaway.ogg;
#OFFSET:-0.052000;
#SAMPLESTART:62.488998;
#SAMPLELENGTH:15.000000;
#SELECTABLE:YES;
#BPMS:0.000=123.000;
#STOPS:;
#DELAYS:;
#WARPS:;
#TIMESIGNATURES:0.000=4=4;
#TICKCOUNTS:0.000=4;
#COMBOS:0.000=1;
#SPEEDS:0.000=1.000=0.000=0;
#SCROLLS:0.000=1.000;
#FAKES:;
#LABELS:0.000=Song Start;
#BGCHANGES:-0.104=Hideaway.avi=1.000=1=0=0=StretchNoLoop==CrossFade==,
99999=-nosongbg-=1.000=0=0=0 // don't automatically add -songbackground-
;
#KEYSOUNDS:;
#ATTACKS:
;

//---------------dance-single - ----------------
#NOTEDATA:;
#CHARTNAME:;
#STEPSTYPE:dance-single;
#DESCRIPTION:;
#CHARTSTYLE:;
#DIFFICULTY:Beginner;
#METER:1;
#RADARVALUES:0.078203,0.123944,0.030986,0.061972,0.000000,44.000000,3.000000,6.000000,0.000000,0.000000,0.000000,0.000000,0.000000,0.078203,0.123944,0.030986,0.061972,0.000000,44.000000,3.000000,6.000000,0.000000,0.000000,0.000000,0.000000,0.000000;
#CREDIT:;
#NOTES:
// measure 0
0000
0000
0000
0000
,  // measure 1
0000
0000
0000
0000
,  // measure 2
0000
0000
0000
0000
,  // measure 3
0000
0000
0000
0000
,  // measure 4
1000
0000
0000
0000
,  // measure 5
1000
0000
0000
0000
,  // measure 6
0001
0000
0000
0000
,  // measure 7
0001
0000
0000
0000
,  // measure 8
0100
0000
0000
0000
,  // measure 9
0100
0000
0000
0000
,  // measure 10
0010
0000
0000
0000
,  // measure 11
0010
0000
0000
0000
,  // measure 12
1000
0000
0000
0000
,  // measure 13
1000
0000
0000
0000
,  // measure 14
0001
0000
0000
0000
,  // measure 15
0001
0000
0000
0000
,  // measure 16
0200
0000
0000
0300
,  // measure 17
0100
0000
0000
0000
,  // measure 18
0200
0000
0000
0300
,  // measure 19
0100
0000
0000
0000
,  // measure 20
0020
0000
0000
0030
,  // measure 21
0010
0000
0000
0000
,  // measure 22
0020
0000
0000
0030
,  // measure 23
0010
0000
0000
0000
,  // measure 24
1001
0000
0000
0000
,  // measure 25
0000
0000
0000
0000
,  // measure 26
0000
0000
0000
0000
,  // measure 27
0000
0000
0000
0000
,  // measure 28
0010
0000
0010
0000
,  // measure 29
0010
0000
0000
0000
,  // measure 30
0100
0000
0100
0000
,  // measure 31
0100
0000
0000
0000
,  // measure 32
2000
0000
0000
3000
,  // measure 33
1000
0000
0000
0000
,  // measure 34
1000
0000
0000
0000
,  // measure 35
1000
0000
0000
0000
,  // measure 36
0002
0000
0000
0003
,  // measure 37
0001
0000
0000
0000
,  // measure 38
0001
0000
0000
0000
,  // measure 39
0001
0000
0000
0000
,  // measure 40
1001
0000
0000
0000
,  // measure 41
0100
0000
0000
0000
,  // measure 42
0100
0000
0000
0000
,  // measure 43
0100
0000
0000
0000
,  // measure 44
1001
0000
0000
0000
,  // measure 45
0010
0000
0000
0000
,  // measure 46
0010
0000
0000
0000
,  // measure 47
0010
0000
0000
0000
,  // measure 48
0010
0000
0000
0000
;

//---------------dance-single - ----------------
#NOTEDATA:;
#CHARTNAME:;
#STEPSTYPE:dance-single;
#DESCRIPTION:;
#CHARTSTYLE:;
#DIFFICULTY:Easy;
#METER:3;
#RADARVALUES:0.104762,0.198310,0.072301,0.000000,0.000000,64.000000,7.000000,0.000000,0.000000,0.000000,0.000000,0.000000,0.000000,0.104762,0.198310,0.072301,0.000000,0.000000,64.000000,7.000000,0.000000,0.000000,0.000000,0.000000,0.000000,0.000000;
#CREDIT:;
#NOTES:
0000
0000
0000
0000
,
0000
0000
0000
0000
,
0000
0000
0000
0000
,
0000
0000
0000
0000
,
1000
0000
0000
0000
,
0100
0000
0000
0000
,
0010
0000
0000
0000
,
0001
0000
0000
0000
,
0001
0000
0000
0000
,
0100
0000
0000
0000
,
0010
0000
0000
0000
,
1000
0000
0000
0000
,
1001
0000
0000
0000
,
0100
0000
0000
0000
,
0010
0000
0000
0000
,
0100
0000
0000
0000
,
0110
0000
0000
0000
,
1000
0000
0000
0000
,
0001
0000
0000
0000
,
1000
0000
0000
0000
,
0001
0000
0001
0000
,
1000
0000
1000
0000
,
0010
0000
0010
0000
,
0100
0000
0100
0000
,
0110
0000
0000
0000
,
0000
0000
0000
0000
,
1000
0000
0000
0000
,
0000
0000
0000
0000
,
0001
0000
0001
0000
,
1000
0000
1000
0000
,
0001
0000
1000
0000
,
0001
1000
0001
0000
,
1001
0000
0000
0000
,
0100
0000
0000
0000
,
0100
0000
0000
0000
,
1001
0000
0000
0000
,
1001
0000
0000
0000
,
0010
0000
0000
0000
,
0010
0000
0000
0000
,
1001
0000
0000
0000
,
1000
0000
0001
0000
,
1000
1000
1000
0000
,
0001
0000
1000
0000
,
0001
0001
0001
0000
,
0100
0100
0100
0100
,
0100
0000
0000
0000
,
0010
0010
0010
0010
,
0010
0000
0000
0000
,
0010
0000
0000
0000
;

//---------------dance-single - ----------------
#NOTEDATA:;
#CHARTNAME:;
#STEPSTYPE:dance-single;
#DESCRIPTION:;
#CHARTSTYLE:;
#DIFFICULTY:Medium;
#METER:6;
#RADARVALUES:0.199196,0.297465,0.030986,0.134273,0.020657,119.000000,3.000000,13.000000,0.000000,0.000000,0.000000,0.000000,0.000000,0.199196,0.297465,0.030986,0.134273,0.020657,119.000000,3.000000,13.000000,0.000000,0.000000,0.000000,0.000000,0.000000;
#CREDIT:;
#NOTES:
0000
0000
0000
0000
,
0000
0000
0000
0000
,
0000
0000
0000
0000
,
0000
0000
0000
0000
,
2000
0000
0000
0000
0000
0000
0000
3100
,
0000
0000
0000
0000
,
0002
0000
0000
0000
0000
0000
0000
0103
,
0000
0000
0000
0000
,
2000
0000
0000
0000
0000
0000
0000
3010
,
0000
0000
0000
0000
,
0002
0000
0000
0000
,
0013
0000
0000
0000
,
0020
0000
0000
0000
0000
0000
0000
0130
,
0000
0000
0000
0000
,
0200
0000
0000
0000
0000
0000
0000
0310
,
0000
0000
0000
0000
,
0010
1000
0100
0001
,
0010
0010
0010
0000
,
0010
0001
0100
1000
,
0010
0010
0010
0000
,
0100
0000
0100
0000
,
0100
0001
1000
0010
,
0010
0000
0010
0000
,
1000
0100
0010
0001
,
2002
0000
0000
0000
,
0000
0000
0000
0003
,
0020
0000
0000
0000
,
0000
0000
0000
3030
,
1000
0000
0000
0000
0000
1000
0000
0000
0001
0000
0000
0000
0000
0001
0000
0000
,
0010
0000
0000
0000
0000
0010
0000
0000
0100
0000
0000
0000
0000
0100
0000
0000
,
1000
0100
0010
0001
,
1000
0100
0001
1001
,
2000
0001
0100
3001
,
0002
1000
0100
1003
,
2000
0010
0001
3010
,
0002
0010
1000
0013
,
0010
0000
0100
0000
1000
1000
1000
0000
,
0001
1000
0001
0100
,
0010
0000
0100
0000
0001
0001
0001
0000
,
0100
0010
1000
0001
,
1001
0000
0000
1000
0000
1000
0000
0100
,
0000
0010
0000
0100
0000
1000
0100
0000
,
1000
0000
0000
0001
0000
0000
0000
0100
,
0000
0010
0000
0100
0000
0001
0100
0000
,
0001
0010
1000
0100
,
0001
0000
0000
0000
,
1000
0100
0001
0010
,
1000
0100
0001
0100
,
0100
0000
0000
0000
;

//---------------dance-single - ----------------
#NOTEDATA:;
#CHARTNAME:;
#STEPSTYPE:dance-single;
#DESCRIPTION:;
#CHARTSTYLE:;
#DIFFICULTY:Hard;
#METER:9;
#RADARVALUES:0.289202,0.421409,0.247888,0.103287,0.020657,162.000000,24.000000,10.000000,0.000000,0.000000,0.000000,0.000000,0.000000,0.289202,0.421409,0.247888,0.103287,0.020657,162.000000,24.000000,10.000000,0.000000,0.000000,0.000000,0.000000,0.000000;
#CREDIT:;
#NOTES:
0000
0000
0000
0000
,
0000
0000
0000
0000
,
0000
0000
0000
0000
,
0000
0000
0000
0000
,
2000
0000
0000
0000
0000
0000
0000
3010
,
0000
0000
0000
0000
,
0002
0000
0000
0000
0000
0000
0000
0103
,
0000
0000
0000
0000
,
2000
0000
0000
0000
0000
0000
0000
3100
,
0000
0000
0000
0000
,
0002
0000
0000
0000
,
0013
0000
0000
0000
,
2000
0000
0000
0000
0000
0000
0000
3010
,
0000
0000
0000
0000
,
0002
0000
0000
0000
0000
0000
0000
0013
,
0000
0000
0000
0000
,
1000
1100
0000
1100
,
0001
0101
0000
0101
,
1000
1010
0000
1010
,
0001
0011
0000
0011
,
0010
0100
0000
1000
0001
1000
0000
0001
,
0000
1000
0000
0001
0100
0010
1000
0000
,
0010
0010
0000
0100
0100
0100
0000
0110
,
0000
0100
0010
1000
0001
0010
0100
0000
,
0200
0000
0000
0000
,
0320
0000
0000
0000
,
0032
0000
0000
0000
,
2003
0000
0000
0000
,
3001
0000
1000
0000
0000
0100
0000
0000
1000
0000
0001
0000
0000
0100
0000
0000
,
0010
0000
1000
0000
0000
0001
0000
0000
1000
0000
0100
0000
0000
1000
0000
0000
,
0001
0010
0001
0010
0100
1000
0100
1000
,
0001
0010
0100
1000
0001
1000
0001
0000
,
1001
0000
0100
0010
0100
0001
1000
0000
,
1001
0000
0100
0010
0100
1000
0001
0000
,
0101
0000
1000
0100
0001
0100
1000
0000
,
1100
0000
0001
0010
1000
0010
0001
0000
,
1001
0000
1000
0001
0010
0100
0010
0000
,
1001
0000
0001
0100
0010
1000
0100
0000
,
0101
0000
0100
0010
1000
0100
0010
0000
,
0110
0000
0010
0100
1000
0001
0010
0000
,
0001
0010
0000
0001
0010
0100
0000
1000
,
0000
0010
0000
0100
0010
1000
0001
0000
,
0100
0100
0000
0010
0010
0010
0000
1010
,
0000
0001
0100
0010
1000
0001
1000
0000
,
0000
1001
0011
1100
,
0000
0000
0000
0000
,
0000
0000
1100
0000
0101
0000
0000
0100
,
0000
0010
1000
0001
0010
0100
0100
0000
,
0110
0000
0000
0000
;
