#VERSION:0.83;
#TITLE:Hey QT;
#SUBTITLE:;
#ARTIST:QT;
#TITLETRANSLIT:;
#SUBTITLETRANSLIT:;
#ARTISTTRANSLIT:;
#GENRE:Pop;
#ORIGIN:;
#CREDIT:chewi;
#BANNER:Hey QT.png;
#BACKGROUND:Hey QT-bg.png;
#PREVIEWVID:;
#JACKET:Hey QT-jacket.png;
#CDIMAGE:;
#DISCIMAGE:;
#LYRICSPATH:Hey QT.lrc;
#CDTITLE:;
#MUSIC:Hey QT.ogg;
#OFFSET:-0.257000;
#SAMPLESTART:48.389000;
#SAMPLELENGTH:15.000000;
#SELECTABLE:YES;
#DISPLAYBPM:129.000000;
#BPMS:0.000=129.000;
#STOPS:;
#DELAYS:;
#WARPS:;
#TIMESIGNATURES:0.000=4=4;
#TICKCOUNTS:0.000=4;
#COMBOS:0.000=1;
#SPEEDS:0.000=1.000=0.000=0;
#SCROLLS:0.000=1.000;
#FAKES:;
#LABELS:0.000=Song Start;
#BGCHANGES:-0.514=Hey QT.avi=1.000=1=0=1===CrossFade==,
216.000=Hey QT-bg.png=1.000=1=0=1===CrossFade==,
99999=-nosongbg-=1.000=0=0=0 // don't automatically add -songbackground-
;
#KEYSOUNDS:;
#ATTACKS:
;

//---------------dance-single - ----------------
#NOTEDATA:;
#CHARTNAME:;
#STEPSTYPE:dance-single;
#DESCRIPTION:;
#CHARTSTYLE:;
#DIFFICULTY:Beginner;
#METER:1;
#RADARVALUES:0.072315,0.121684,0.029204,0.000000,0.000000,52.000000,49.000000,3.000000,0.000000,0.000000,0.000000,0.000000,0.000000,0.000000,0.072315,0.121684,0.029204,0.000000,0.000000,52.000000,49.000000,3.000000,0.000000,0.000000,0.000000,0.000000,0.000000,0.000000;
#CREDIT:;
#DISPLAYBPM:130.000000;
#NOTES:
0000
0000
0000
0000
,
0000
0000
0000
0000
,
0000
0000
0000
0000
,
0000
0000
0000
0000
,
1000
0000
0000
0000
,
0001
0000
0000
0000
,
1000
0000
0000
0000
,
0001
0000
0000
0000
,
0100
0000
0000
0000
,
0100
0000
0000
0000
,
0010
0000
0000
0000
,
0010
0000
0000
0000
,
1000
0000
1000
0000
,
1000
0000
0000
0000
,
0001
0000
0001
0000
,
0001
0000
0000
0000
,
0010
0000
0010
0000
,
0010
0000
0000
0000
,
0100
0000
0100
0000
,
0100
0000
0000
0000
,
1000
0000
1000
0000
,
1000
0000
0000
0000
,
0001
0000
0001
0000
,
0001
0000
0000
0000
,
1001
0000
0000
0000
,
0110
0000
0000
0000
,
1000
0000
0000
0000
,
0100
0000
0000
0000
,
0001
0000
0000
0000
,
0010
0000
0000
0000
,
1000
0000
0000
0000
,
0010
0000
0000
0000
,
0001
0000
0000
0000
,
0100
0000
0000
0000
,
1000
0000
0000
0000
,
1000
0000
0000
0000
,
0001
0000
0000
0000
,
0001
0000
0000
0000
,
0100
0000
0000
0000
,
0100
0000
0000
0000
,
0010
0000
0000
0000
,
0010
0000
0000
0000
,
0010
0000
0000
0000
,
0000
0000
0000
0000
,
0100
0000
0000
0000
,
0000
0000
0000
0000
,
0001
0000
0000
0000
,
0000
0000
0000
0000
,
1000
0000
0000
0000
,
0000
0000
0000
0000
,
1001
0000
0000
0000
;

//---------------dance-single - ----------------
#NOTEDATA:;
#CHARTNAME:;
#STEPSTYPE:dance-single;
#DESCRIPTION:;
#CHARTSTYLE:;
#DIFFICULTY:Easy;
#METER:4;
#RADARVALUES:0.129333,0.210270,0.058408,0.126551,0.000000,93.000000,87.000000,6.000000,13.000000,0.000000,0.000000,0.000000,0.000000,0.000000,0.129333,0.210270,0.058408,0.126551,0.000000,93.000000,87.000000,6.000000,13.000000,0.000000,0.000000,0.000000,0.000000,0.000000;
#CREDIT:;
#DISPLAYBPM:130.000000;
#NOTES:
0000
0000
0000
0000
,
0000
0000
0000
0000
,
0000
0000
0000
0000
,
0000
0000
0000
0000
,
1000
0000
0000
0000
,
0100
0000
0000
0000
,
0010
0000
0000
0000
,
0001
0000
0000
0000
,
2000
0000
0000
3000
,
0002
0000
0000
0003
,
0200
0000
0000
0300
,
0020
0000
0000
0030
,
0010
0000
0010
0000
,
1000
0000
1000
0000
,
0010
0000
0010
0000
,
0100
0000
0100
0000
,
0001
0000
0001
0000
,
1000
0001
1000
0000
,
1000
0000
1000
0000
,
0001
1000
0001
0000
,
0010
0000
0010
0000
,
0010
0100
0010
0000
,
0100
0000
0100
0000
,
0100
1000
0100
0000
,
1001
0000
0000
0000
,
0110
0000
0000
0000
,
0010
0010
0100
0000
,
0010
0100
0010
0000
,
0100
0100
0010
0000
,
0100
0010
0100
0000
,
0001
0001
1000
0000
,
0001
1000
0001
0000
,
1000
1000
0001
0000
,
0001
1000
0001
0000
,
1000
0000
0100
0000
,
0010
0000
0100
0000
,
1000
1000
1000
0000
,
0001
0001
0001
0000
,
0001
0000
0100
0000
,
0010
0000
0100
0000
,
0001
0001
0001
0000
,
1000
1000
1000
0000
,
2002
0000
0000
0000
,
0000
0000
0000
3003
,
0220
0000
0000
0000
,
0000
0000
0000
0330
,
2002
0000
0000
0000
,
0000
0000
0000
3003
,
0220
0000
0000
0000
,
0000
0000
0000
0330
,
0020
0000
0000
0000
,
0000
0000
0000
0000
,
0000
0000
0000
0000
,
0000
0000
0000
0000
,
0030
0000
0000
0000
;

//---------------dance-single - ----------------
#NOTEDATA:;
#CHARTNAME:;
#STEPSTYPE:dance-single;
#DESCRIPTION:;
#CHARTSTYLE:;
#DIFFICULTY:Medium;
#METER:8;
#RADARVALUES:0.289261,0.341689,0.000000,0.321246,0.175225,208.000000,208.000000,0.000000,33.000000,0.000000,0.000000,0.000000,0.000000,0.000000,0.289261,0.341689,0.000000,0.321246,0.175225,208.000000,208.000000,0.000000,33.000000,0.000000,0.000000,0.000000,0.000000,0.000000;
#CREDIT:;
#DISPLAYBPM:130.000000;
#NOTES:
// measure 0
0000
0000
0000
0000
,  // measure 1
0000
0000
0000
0000
,  // measure 2
0000
0000
0000
0000
,  // measure 3
0000
0000
0000
0000
,  // measure 4
1000
0000
0000
0100
0000
0000
1000
0000
0000
0100
0000
0000
1000
0000
0000
0000
,  // measure 5
0001
0000
0000
0100
0000
0000
0001
0000
0000
0000
0100
0000
0000
0001
0000
0000
,  // measure 6
0010
0000
0000
0010
0000
0000
0010
0000
0000
0000
0010
0000
0000
0000
0000
0000
,  // measure 7
0100
0000
0000
0100
0000
0000
0000
0000
0100
0000
0000
0100
0000
0000
0000
0000
,  // measure 8
1000
0000
0000
1000
0000
0000
0000
0000
0001
0000
0000
0001
0000
0000
0000
0000
,  // measure 9
0100
0000
0000
0100
0000
0000
0000
0000
0010
0000
0000
0010
0000
0000
0000
0000
,  // measure 10
1000
0000
0000
1000
0000
0000
0000
0000
0001
0000
0000
0001
0000
0000
0000
0000
,  // measure 11
0010
0000
0000
0010
0000
0000
0000
0000
0100
0000
0000
0100
0000
0000
0000
0000
,  // measure 12
0100
0010
0100
0010
,  // measure 13
0001
1000
0001
1000
,  // measure 14
0001
0100
0001
0100
,  // measure 15
0010
1000
0010
1000
,  // measure 16
1000
0000
0000
1000
0000
0000
1000
0000
0000
0000
0010
0000
0000
0000
0000
0000
,  // measure 17
0100
0000
0000
0100
0100
0000
0000
0000
,  // measure 18
0001
0000
0000
0001
0000
0000
0000
0000
1000
0000
0000
1000
0000
0000
0000
0000
,  // measure 19
0100
0000
0000
0100
0000
0000
0000
0000
0010
0000
0000
0010
0000
0000
0000
0000
,  // measure 20
0010
0000
0000
0010
0000
0000
0010
0000
0000
0000
0010
0000
0000
0000
0000
0000
,  // measure 21
0010
0000
0000
0100
0000
0000
0100
0000
0010
0000
0000
0000
0000
0000
0000
0000
,  // measure 22
0001
0000
0000
0001
0000
0000
0000
0000
1000
0000
0000
1000
0000
0000
0000
0000
,  // measure 23
0100
0000
0000
0100
0000
0000
0000
0000
0010
0000
0000
0010
0000
0000
0000
0000
,  // measure 24
0010
0000
0000
0001
0000
0000
0010
0000
0001
0000
0000
0010
0000
0000
0001
0000
,  // measure 25
0100
0000
0000
0001
0000
0000
0100
0000
0001
0000
0000
0100
0000
0000
0001
0000
,  // measure 26
2000
3001
0002
1003
,  // measure 27
1000
0100
1000
0000
0001
0100
0001
0000
,  // measure 28
0200
0310
0020
0130
,  // measure 29
0010
0100
0010
0000
0100
0010
0100
0000
,  // measure 30
0020
1030
2000
3010
,  // measure 31
1000
0010
1000
0000
0010
1000
0010
0000
,  // measure 32
2000
3001
0002
1003
,  // measure 33
0001
1000
0001
0000
1000
0001
1000
0000
,  // measure 34
0002
1003
2000
3001
,  // measure 35
0001
0010
0001
0000
1000
0010
1000
0000
,  // measure 36
0020
0130
0200
0310
,  // measure 37
0100
0010
0100
0000
0010
0100
0010
0000
,  // measure 38
0200
0301
0002
0103
,  // measure 39
0001
0100
0001
0000
0100
0001
0100
0000
,  // measure 40
0002
1003
2000
3001
,  // measure 41
1000
0001
1000
0000
0001
1000
0001
0000
,  // measure 42
0010
0000
0000
0010
0000
0000
0010
0000
0000
0010
0000
0000
0010
0000
0000
0000
,  // measure 43
0020
0230
2300
3002
,  // measure 44
1003
0000
0000
1000
0000
0000
1000
0000
0000
0000
1000
0000
0000
0000
0000
0000
,  // measure 45
2000
3020
0230
0302
,  // measure 46
0013
0000
0000
0010
0000
0000
0010
0000
0000
0010
0000
0000
0010
0000
0000
0000
,  // measure 47
0200
0320
0032
2003
,  // measure 48
3001
0000
0000
0001
0000
0000
0001
0000
0000
0000
0001
0000
0000
0000
0000
0000
,  // measure 49
0002
0203
2300
3020
,  // measure 50
0032
0000
0000
0000
,  // measure 51
0000
0000
0000
0000
,  // measure 52
0000
0000
0000
0000
,  // measure 53
0000
0000
0000
0000
,  // measure 54
0003
0000
0000
0000
;

//---------------dance-single - ----------------
#NOTEDATA:;
#CHARTNAME:;
#STEPSTYPE:dance-single;
#DESCRIPTION:;
#CHARTSTYLE:;
#DIFFICULTY:Hard;
#METER:11;
#RADARVALUES:0.406077,0.657094,0.564614,0.019469,0.374787,292.000000,234.000000,58.000000,2.000000,0.000000,0.000000,0.000000,0.000000,0.000000,0.406077,0.657094,0.564614,0.019469,0.374787,292.000000,234.000000,58.000000,2.000000,0.000000,0.000000,0.000000,0.000000,0.000000;
#CREDIT:;
#DISPLAYBPM:130.000000;
#NOTES:
// measure 0
0000
0000
0000
0000
,  // measure 1
0000
0000
0000
0000
,  // measure 2
0000
0000
0000
0000
,  // measure 3
0000
0000
0000
0000
,  // measure 4
1010
0000
0000
1010
0000
0000
1010
0000
0000
1010
0000
0000
1010
0000
0000
1000
,  // measure 5
0001
0000
0000
0001
0000
0000
0001
0000
0000
0000
1000
0000
0000
1000
0000
0000
,  // measure 6
1000
0000
0000
0100
0000
0000
0010
0000
0000
0000
0001
0000
0000
0000
0000
0000
,  // measure 7
0100
0000
0000
0100
0000
0000
0000
0000
0100
0000
0000
0100
0000
0000
0000
0000
,  // measure 8
0000
0100
0000
0000
,  // measure 9
0000
0000
0000
0100
0010
1000
0001
1000
,  // measure 10
1000
0000
0000
0000
,  // measure 11
0000
0000
0000
0000
0000
0001
1000
0001
,  // measure 12
1000
0100
1000
0000
0001
0100
0001
0000
,  // measure 13
0100
0010
1000
0100
0010
0001
0010
0000
,  // measure 14
0001
0010
0001
0000
1000
0100
1000
0000
,  // measure 15
1000
0000
0001
0000
0000
1000
0000
0000
0001
1000
0001
0000
1000
0001
1000
0000
,  // measure 16
0001
0000
0000
0100
0000
0000
0010
0000
0000
0000
0100
0000
0000
0001
1000
0000
,  // measure 17
0100
0000
0000
0010
0000
0000
0100
0000
1100
0000
0000
0000
0000
0000
0000
0000
,  // measure 18
0010
0000
0000
0001
0000
0000
0100
0000
0010
0000
0000
0100
0000
0000
0001
0000
,  // measure 19
0010
0000
0000
0100
0000
0000
1000
0000
1001
0000
0000
0000
0101
0000
0000
0000
,  // measure 20
0100
0000
0000
0010
0000
0000
0100
0000
0000
0000
0001
0000
0000
1000
0100
0000
,  // measure 21
0010
0000
0000
0100
0000
0000
1000
0000
1001
0000
0000
0000
0000
0000
1000
0000
,  // measure 22
0001
0000
0000
0100
0000
0000
0001
0000
1000
0000
0000
0100
0000
0000
1000
0000
,  // measure 23
0001
0000
0000
1000
0000
0000
0001
0000
1000
0000
0001
1000
0000
0001
1000
0000
,  // measure 24
1010
0000
0000
0101
0000
0000
0011
0000
1100
0000
0000
0011
0000
0000
1100
0000
,  // measure 25
1001
0000
0000
1001
0000
0000
1001
0000
0110
0000
0000
0110
0000
0000
0110
0000
,  // measure 26
0010
0000
0000
0010
0100
0000
0001
0000
0000
1000
0000
0000
0100
0000
0000
0010
,  // measure 27
0100
0000
0000
1000
0000
0000
0001
0000
0000
0000
1000
0000
0000
0100
0000
0000
,  // measure 28
0101
0000
0000
1100
0000
0000
0101
0000
0000
0000
1001
0000
0000
0000
0000
0000
,  // measure 29
0110
0000
0000
0110
0000
0000
0000
0000
1001
0000
0000
1001
0000
0000
0000
0000
,  // measure 30
1000
0000
0000
1000
0001
0000
0010
0000
0000
0100
0000
0000
0010
0000
0000
0001
,  // measure 31
0100
0000
0000
0010
0000
0000
1000
0000
0000
0000
0001
0000
0000
0100
0000
0000
,  // measure 32
0110
0000
0000
1010
0000
0000
1001
0000
0000
0000
1100
0000
0000
0000
0000
0000
,  // measure 33
0110
0000
0000
0110
0000
0000
0000
0000
1001
0000
0000
1001
0000
0000
0000
0000
,  // measure 34
0100
0000
0000
0100
0010
0000
1000
0000
0000
0001
0000
0000
0010
0000
0000
0100
,  // measure 35
0010
0000
0000
0001
0000
0000
1000
0000
0000
0000
0001
0000
0000
0010
0000
0000
,  // measure 36
1010
0000
0000
0011
0000
0000
1010
0000
0000
0000
1001
0000
0000
0000
0000
0000
,  // measure 37
0110
0000
0000
0110
0000
0000
0000
0000
1001
0000
0000
1001
0000
0000
0000
0000
,  // measure 38
0001
0000
0000
0001
1000
0000
0100
0000
0000
0010
0000
0000
0100
0000
0000
1000
,  // measure 39
0010
0000
0000
0100
0000
0000
0001
0000
0000
0000
1000
0000
0000
0010
0000
0000
,  // measure 40
0110
0000
0000
0101
0000
0000
1001
0000
0000
0000
0011
0000
0000
0000
0000
0000
,  // measure 41
0110
0000
0000
0110
0000
0000
0000
0000
1001
0000
0000
1001
0000
0000
0000
0000
,  // measure 42
0010
0000
0000
0001
0000
0000
1000
0000
0000
0100
0000
0000
1000
0000
0000
1000
,  // measure 43
0001
0000
0000
0001
0000
0000
0001
0000
0000
0000
1000
0000
0000
1000
0000
0000
,  // measure 44
0010
0000
0000
1000
0000
0000
0001
0000
0000
0000
0100
0000
0000
0000
0000
0000
,  // measure 45
0001
0000
0000
1001
0000
0000
0000
0000
1000
0000
0000
1001
0000
0000
0000
0000
,  // measure 46
0100
0000
0000
1000
0000
0000
0001
0000
0000
0010
0000
0000
0001
0000
0000
0001
,  // measure 47
1000
0000
0000
1000
0000
0000
1000
0000
0000
0000
0001
0000
0000
0001
0000
0000
,  // measure 48
0100
0000
0000
0001
0000
0000
1000
0000
0000
0000
0010
0000
0000
0000
0000
0000
,  // measure 49
1000
0000
0000
1001
0000
0000
0000
0000
0001
0000
0000
1001
0000
0000
0000
0000
,  // measure 50
0220
0000
0000
0000
,  // measure 51
0000
0000
0000
0000
,  // measure 52
0000
0000
0000
0000
,  // measure 53
0000
0000
0000
0000
,  // measure 54
0330
0000
0000
0000
;
