#VERSION:0.82;
#TITLE:Hey Boy;
#SUBTITLE:;
#ARTIST:王詩安;
#TITLETRANSLIT:;
#SUBTITLETRANSLIT:;
#ARTISTTRANSLIT:Diana Wang;
#GENRE:C-Pop;
#ORIGIN:;
#CREDIT:chewi;
#BANNER:Hey Boy.png;
#BACKGROUND:Hey Boy-bg.png;
#PREVIEWVID:;
#JACKET:Hey Boy-jacket.png;
#CDIMAGE:;
#DISCIMAGE:;
#LYRICSPATH:;
#CDTITLE:cdtitle.png;
#MUSIC:Hey Boy.ogg;
#OFFSET:-0.521913;
#SAMPLESTART:41.132999;
#SAMPLELENGTH:15.000000;
#SELECTABLE:YES;
#BPMS:0.000=106.000;
#STOPS:;
#DELAYS:;
#WARPS:;
#TIMESIGNATURES:0.000=4=4;
#TICKCOUNTS:0.000=4;
#COMBOS:0.000=1;
#SPEEDS:0.000=1.000=0.000=0;
#SCROLLS:0.000=1.000;
#FAKES:;
#LABELS:0.000=Song Start;
#BGCHANGES:-0.522=Hey Boy.avi=1.000=1=0=0=StretchNoLoop==CrossFade==,
99999=-nosongbg-=1.000=0=0=0 // don't automatically add -songbackground-
;
#KEYSOUNDS:;
#ATTACKS:
;

//---------------dance-single - ----------------
#NOTEDATA:;
#CHARTNAME:;
#STEPSTYPE:dance-single;
#DESCRIPTION:;
#CHARTSTYLE:;
#DIFFICULTY:Beginner;
#METER:1;
#RADARVALUES:0.084438,0.126388,0.000000,0.100607,0.000000,39.000000,0.000000,8.000000,0.000000,0.000000,0.000000,0.000000,0.000000,0.084438,0.126388,0.000000,0.100607,0.000000,39.000000,0.000000,8.000000,0.000000,0.000000,0.000000,0.000000,0.000000;
#CREDIT:;
#NOTES:
// measure 0
0000
0000
0000
0000
,  // measure 1
0000
0000
0000
0000
,  // measure 2
0000
0000
0000
0000
,  // measure 3
0000
0000
0000
0000
,  // measure 4
1000
0000
0000
0000
,  // measure 5
1000
0000
0000
0000
,  // measure 6
0000
0100
0000
0100
,  // measure 7
0000
0100
0000
0100
,  // measure 8
0000
0010
0000
0010
,  // measure 9
0000
0010
0000
0010
,  // measure 10
0000
1000
0000
1000
,  // measure 11
0000
1000
0000
1000
,  // measure 12
0000
0001
0000
0001
,  // measure 13
0000
0001
0000
0001
,  // measure 14
0002
0000
0000
0003
,  // measure 15
0002
0000
0000
0003
,  // measure 16
2000
0000
0000
3000
,  // measure 17
2000
0000
0000
3000
,  // measure 18
1000
0000
0000
0000
,  // measure 19
0010
0000
0000
0000
,  // measure 20
0100
0000
0000
0000
,  // measure 21
0001
0000
0000
0000
,  // measure 22
0001
0000
0000
0000
,  // measure 23
0010
0000
0000
0000
,  // measure 24
0100
0000
0000
0000
,  // measure 25
1000
0000
0000
0000
,  // measure 26
2000
0000
0000
3000
,  // measure 27
1000
0000
0000
0000
,  // measure 28
0002
0000
0000
0003
,  // measure 29
0001
0000
0000
0000
,  // measure 30
0200
0000
0000
0300
,  // measure 31
0100
0000
0000
0000
,  // measure 32
0020
0000
0000
0030
,  // measure 33
0010
0000
0010
0000
;

//---------------dance-single - ----------------
#NOTEDATA:;
#CHARTNAME:;
#STEPSTYPE:dance-single;
#DESCRIPTION:;
#CHARTSTYLE:;
#DIFFICULTY:Easy;
#METER:3;
#RADARVALUES:0.165284,0.212219,0.062880,0.150911,0.000000,75.000000,5.000000,12.000000,0.000000,0.000000,0.000000,0.000000,0.000000,0.165284,0.212219,0.062880,0.150911,0.000000,75.000000,5.000000,12.000000,0.000000,0.000000,0.000000,0.000000,0.000000;
#CREDIT:;
#NOTES:
0000
0000
0000
0000
,
0000
0000
0000
0000
,
0000
0000
0000
0000
,
0000
0000
0000
0000
,
1000
0000
0001
0000
,
1000
0000
0001
0000
,
0100
0100
0000
0000
,
0010
0010
0010
0010
,
0100
0100
0000
0000
,
0100
0100
0100
0100
,
0001
1000
0000
0000
,
1000
0001
1000
0001
,
2000
0000
3002
0000
,
0203
0000
0302
0000
,
0103
0100
0100
0000
,
0010
0010
0010
0000
,
1000
1000
1000
0000
,
0001
0001
0001
0000
,
2000
0000
0100
3000
,
0002
0000
0100
0003
,
0100
0100
0100
0000
,
0220
0000
0000
0330
,
0020
0000
1000
0030
,
0020
0000
0001
0030
,
0010
0010
0010
0000
,
0220
0000
0000
0330
,
0010
0010
0010
0010
,
0010
0000
0000
0000
,
1000
0001
1000
0001
,
1000
0000
0000
0000
,
1001
1000
0001
1000
,
1001
0000
0000
0000
,
0110
0100
0010
0100
,
0010
0000
0000
0100
;

//---------------dance-single - ----------------
#NOTEDATA:;
#CHARTNAME:;
#STEPSTYPE:dance-single;
#DESCRIPTION:;
#CHARTSTYLE:;
#DIFFICULTY:Medium;
#METER:5;
#RADARVALUES:0.213791,0.297106,0.062880,0.100607,0.000000,106.000000,5.000000,8.000000,0.000000,0.000000,0.000000,0.000000,0.000000,0.213791,0.297106,0.062880,0.100607,0.000000,106.000000,5.000000,8.000000,0.000000,0.000000,0.000000,0.000000,0.000000;
#CREDIT:;
#NOTES:
0000
0000
0000
0000
,
0000
0000
0000
0000
,
0000
0000
0000
0000
,
0000
0000
0000
0000
,
1000
0100
0010
0001
,
2000
3200
0320
0032
,
1003
1100
0000
0001
,
0100
0010
1000
0001
,
1000
1001
0000
0001
,
0010
0100
1000
0100
,
1000
1100
0000
1000
,
0001
0010
1000
0100
,
0001
0010
0100
0001
,
0010
1000
0100
0010
,
0002
0000
0000
0000
1000
1000
1003
0000
,
2000
0000
0000
0000
0001
0001
3001
0000
,
0100
0010
1000
0001
,
1001
0000
0000
0000
,
1000
0100
0010
0001
,
1000
0000
0100
0000
1000
0100
1000
0000
,
0002
1003
1000
0000
,
2000
3001
0001
0000
,
0100
0010
1000
0001
,
0010
0100
1000
0001
,
0010
0000
0001
0000
0010
0001
0010
0000
,
0100
0000
1000
0000
0100
0000
0000
1000
,
0000
1000
0000
0001
0000
0001
0000
1000
,
0000
0001
0000
0000
0000
0000
0000
0001
,
0000
0001
0000
1000
0000
1000
0000
0001
,
0000
1000
0000
0000
0000
0000
0000
0010
,
0000
0010
0000
0100
0000
0100
0000
0010
,
0000
0100
0000
0000
0000
0000
0000
0100
,
0000
0100
0000
0010
0000
0010
0000
0100
,
0000
0010
0000
0000
0000
0000
0110
0000
;

//---------------dance-single - ----------------
#NOTEDATA:;
#CHARTNAME:;
#STEPSTYPE:dance-single;
#DESCRIPTION:;
#CHARTSTYLE:;
#DIFFICULTY:Hard;
#METER:9;
#RADARVALUES:0.359312,0.384823,0.238943,0.113183,0.000000,172.000000,19.000000,9.000000,0.000000,0.000000,0.000000,0.000000,0.000000,0.359312,0.384823,0.238943,0.113183,0.000000,172.000000,19.000000,9.000000,0.000000,0.000000,0.000000,0.000000,0.000000;
#CREDIT:;
#NOTES:
0000
0000
0000
0000
,
0000
0000
0000
0000
,
0000
0000
0000
0000
,
0000
0000
0000
0000
,
1000
0100
0010
0001
,
1000
1000
0100
0100
0010
0010
0001
0001
,
1000
0000
1100
0000
1000
0000
1000
0010
,
0100
0001
1000
0010
0100
0001
1000
0100
,
0010
0000
0110
0000
0010
0000
0100
0010
,
0001
1000
0100
0010
0001
1000
0100
1000
,
0001
0000
1001
0000
1000
0000
0001
0100
,
0010
1000
0001
0010
0100
1000
0010
1000
,
0000
0010
0000
0000
1000
0001
0010
0100
,
0000
1000
0000
1100
0000
0101
0000
0000
,
0100
0100
0010
0010
2000
0001
3001
0000
,
1000
1000
0100
0100
0020
0001
0031
0000
,
0010
0010
0100
0100
1000
0001
0100
0010
,
0100
0000
0110
1001
,
1000
0100
0010
0001
0020
0000
0032
0000
,
0013
0100
1000
0001
2000
0000
3001
0000
,
1000
0010
0001
0010
1000
0000
0001
1000
,
0001
0001
0100
0100
0010
0010
1000
1000
,
0010
0100
0001
0100
0002
0100
0103
0000
,
0010
1000
0001
1000
0100
0010
0001
0020
,
0000
0000
0031
0000
0010
0100
1000
0002
,
0000
0000
1003
0000
0001
1000
0010
0100
,
0000
0110
0000
1000
0000
1001
0000
0010
,
0000
0110
0000
0000
1000
0001
0010
0001
,
0000
0011
0000
1000
0000
1100
0000
0001
,
0000
0101
0000
0000
0100
0010
1000
0001
,
0000
1001
0000
1000
0000
1100
0000
0100
,
0000
0110
0000
0000
0010
0001
1000
0100
,
0000
0110
0000
0010
0000
0011
0000
0001
,
0000
0101
0000
1000
0001
0010
0200
0000
,
0300
0000
0000
0000
;
