#TITLE:Hey Baby (Drop It to the Floor);
#SUBTITLE:;
#ARTIST:Pitbull feat. T-Pain;
#TITLETRANSLIT:;
#SUBTITLETRANSLIT:;
#ARTISTTRANSLIT:;
#CREDIT:Chewi☆;
#BANNER:Hey Baby (Drop It to the Floor).png;
#BACKGROUND:Hey Baby (Drop It to the Floor)-bg.png;
#LYRICSPATH:;
#CDTITLE:cdtitle.png;
#MUSIC:Hey Baby (Drop It to the Floor).mp3;
#OFFSET:-0.247;
#SAMPLESTART:52.247;
#SAMPLELENGTH:15.000;
#SELECTABLE:YES;
#DISPLAYBPM:128.000;
#BPMS:0.000=128.000;
#STOPS:;
#BGCHANGES:;

//---------------dance-single - Chewi----------------
#NOTES:
     dance-single:
     Chewi:
     Beginner:
     1:
     0.070,0.102,0.012,0.000,0.000: // measure 1
0000
0000
0000
0000
,  // measure 2
0000
0000
0000
0000
,  // measure 3
0000
0000
0000
0000
,  // measure 4
0000
0000
0000
0000
,  // measure 5
1000
0000
0000
0000
,  // measure 6
0001
0000
0000
0000
,  // measure 7
0100
0000
0000
0000
,  // measure 8
0010
0000
0000
0000
,  // measure 9
1000
0000
0000
0000
,  // measure 10
0001
0000
0000
0000
,  // measure 11
0010
0000
0000
0000
,  // measure 12
0100
0000
0000
0000
,  // measure 13
0010
0000
0000
0000
,  // measure 14
0100
0000
0000
0000
,  // measure 15
1000
0000
0000
0000
,  // measure 16
0010
0000
0000
0000
,  // measure 17
0010
0000
0000
0000
,  // measure 18
0001
0000
0000
0000
,  // measure 19
0100
0000
0000
0000
,  // measure 20
0100
0000
0000
0000
,  // measure 21
0001
0000
0000
0000
,  // measure 22
0001
0000
0000
0000
,  // measure 23
0001
0000
0000
0000
,  // measure 24
1000
0000
0000
0000
,  // measure 25
0001
0000
0000
0000
,  // measure 26
0100
0000
0000
0000
,  // measure 27
0001
0000
0000
0000
,  // measure 28
1001
0000
0000
0000
,  // measure 29
1000
0000
0000
0000
,  // measure 30
0001
0000
0000
0000
,  // measure 31
0001
0000
0000
0000
,  // measure 32
0100
0000
0000
0000
,  // measure 33
0001
0000
0000
0000
,  // measure 34
0100
0000
0000
0000
,  // measure 35
0100
0000
0000
0000
,  // measure 36
0001
0000
0000
0000
,  // measure 37
1000
0000
0000
0000
,  // measure 38
0001
0000
0000
0000
,  // measure 39
0001
0000
0000
0000
,  // measure 40
0001
0000
0000
0000
,  // measure 41
0001
0000
0000
0000
,  // measure 42
1000
0000
0000
0000
,  // measure 43
0100
0000
0000
0000
,  // measure 44
0100
0000
0000
0000
,  // measure 45
0001
0000
0000
0000
;

//---------------dance-single - Chewi----------------
#NOTES:
     dance-single:
     Chewi:
     Easy:
     3:
     0.186,0.203,0.012,0.046,0.000: // measure 1
0000
0000
0000
0000
,  // measure 2
0000
0000
0000
0000
,  // measure 3
0000
0000
0000
0000
,  // measure 4
0000
0000
0000
0000
,  // measure 5
1000
0000
1000
0000
,  // measure 6
0001
0000
0001
0000
,  // measure 7
0100
0000
0100
0000
,  // measure 8
0010
0000
0010
0000
,  // measure 9
1000
0000
1000
0000
,  // measure 10
0001
0000
0001
0000
,  // measure 11
0010
0000
0010
0000
,  // measure 12
0100
0000
0100
0000
,  // measure 13
0010
0001
0010
0000
,  // measure 14
0100
0010
0100
0000
,  // measure 15
1000
0100
1000
0000
,  // measure 16
0010
0100
0010
0000
,  // measure 17
0010
0001
0100
0000
,  // measure 18
0001
0100
1000
0000
,  // measure 19
0100
1000
0010
0000
,  // measure 20
0100
0010
0001
0000
,  // measure 21
0001
0100
1000
0000
,  // measure 22
0001
1000
0010
0000
,  // measure 23
0001
0010
1000
0000
,  // measure 24
1000
0100
0010
0000
,  // measure 25
0001
0100
0010
0000
,  // measure 26
0100
1000
0010
0000
,  // measure 27
0001
0100
0010
0000
,  // measure 28
1001
0000
0000
0000
,  // measure 29
1000
1000
0001
0001
,  // measure 30
0002
0000
0000
0003
,  // measure 31
0001
0100
1000
1000
,  // measure 32
0200
0000
0000
0300
,  // measure 33
0001
1000
0010
0010
,  // measure 34
0200
0000
0000
0300
,  // measure 35
0100
0010
1000
1000
,  // measure 36
0002
0000
0000
0003
,  // measure 37
1000
0100
0010
0010
,  // measure 38
0001
0001
1000
0000
,  // measure 39
0001
0100
1000
0000
,  // measure 40
0001
0001
1000
0000
,  // measure 41
0001
0010
0100
0000
,  // measure 42
1000
0010
0001
0000
,  // measure 43
0100
0001
0010
0000
,  // measure 44
0100
0000
0010
0001
;

//---------------dance-single - Chewi----------------
#NOTES:
     dance-single:
     Chewi:
     Medium:
     6:
     0.272,0.280,0.058,0.046,0.000: // measure 1
0000
0000
0000
0000
,  // measure 2
0000
0000
0000
0000
,  // measure 3
0000
0000
0000
0000
,  // measure 4
0000
0000
0000
0000
,  // measure 5
1000
0000
0000
0001
1000
0000
0000
0000
,  // measure 6
0001
0000
0000
1000
0001
0000
0000
0000
,  // measure 7
0100
0000
0000
0010
0100
0000
0000
0000
,  // measure 8
0010
0000
0000
0100
0010
0000
0000
0000
,  // measure 9
1000
0000
0000
1000
1000
0000
0000
0000
,  // measure 10
0001
0000
0000
0001
0001
0000
0000
0000
,  // measure 11
0010
0000
0000
0100
0010
0000
0000
0000
,  // measure 12
0100
0000
0000
0010
0100
0000
0000
0000
,  // measure 13
0010
0001
0010
0001
,  // measure 14
0100
0010
0100
0010
,  // measure 15
1000
0100
1000
0100
,  // measure 16
0010
0100
0010
0100
,  // measure 17
0010
0001
0100
0010
,  // measure 18
0001
0100
1000
0010
,  // measure 19
0100
1000
0010
0001
,  // measure 20
0100
0010
0001
1000
,  // measure 21
0001
0100
1000
1100
,  // measure 22
0001
1000
0010
0100
,  // measure 23
0001
0010
1000
1010
,  // measure 24
1000
0100
0010
0001
,  // measure 25
0001
0100
0010
0110
,  // measure 26
0100
1000
0010
0100
,  // measure 27
0001
0100
0010
0110
,  // measure 28
1001
0000
0000
0000
,  // measure 29
1000
0000
1000
0000
0001
1000
0001
0000
,  // measure 30
0002
1000
1000
1003
,  // measure 31
0001
0000
0100
0000
1000
0100
1000
0000
,  // measure 32
0200
1000
1000
1300
,  // measure 33
0001
0000
1000
0000
0010
0100
0010
0000
,  // measure 34
0200
0010
0010
0310
,  // measure 35
0100
0000
0010
0000
1000
0001
1000
0000
,  // measure 36
0002
1000
0010
1003
,  // measure 37
1000
0000
0100
0000
0010
0001
0010
0000
,  // measure 38
0001
0001
1000
1000
,  // measure 39
0001
0100
1000
0010
,  // measure 40
0001
0001
1000
1000
,  // measure 41
0001
0000
0010
0000
0100
1000
0100
0000
,  // measure 42
1000
0010
0001
0010
,  // measure 43
0100
0001
0010
1000
,  // measure 44
0100
0000
0000
0000
0010
0000
0001
1000
;

//---------------dance-single - Chewi----------------
#NOTES:
     dance-single:
     Chewi:
     Hard:
     11:
     0.554,0.535,0.244,0.000,0.105: // measure 1
0000
0000
0000
0000
,  // measure 2
0000
0000
0000
0000
,  // measure 3
0000
0000
0000
0000
,  // measure 4
0000
0000
0000
0000
,  // measure 5
0010
0000
0000
0010
0100
0000
0001
0000
0100
0000
0010
0000
1000
0000
0000
0000
,  // measure 6
0001
1000
0001
1000
0010
0100
0010
0100
,  // measure 7
0010
0000
0000
0010
1000
0000
1000
0000
0100
0000
0010
0000
0001
0000
0000
0000
,  // measure 8
0001
0100
1000
0100
0001
0010
1000
0010
,  // measure 9
0100
0000
0000
0100
0010
0000
1000
0000
0010
0000
0100
0000
0001
0000
0000
0000
,  // measure 10
0001
0010
0100
1000
0001
0010
0100
1000
,  // measure 11
0001
0000
0000
0001
1000
0000
0001
0000
1000
0000
0010
0000
0100
0000
0000
0000
,  // measure 12
0001
0001
0100
0100
0010
0010
1000
1000
,  // measure 13
1001
0000
1000
0100
0010
0000
0010
0100
,  // measure 14
1000
0010
0001
0100
0000
0010
0001
0100
,  // measure 15
0010
1000
0001
1000
0010
0000
0010
0100
,  // measure 16
0001
0000
0100
0010
0000
1010
1000
0010
,  // measure 17
1000
0100
0010
0001
0010
0000
0001
0010
,  // measure 18
0100
1000
0010
1000
0000
1000
0100
0001
,  // measure 19
0010
0001
0100
1000
0010
0100
0001
0100
,  // measure 20
0010
0000
0100
0010
0000
0010
0100
0001
,  // measure 21
1000
0100
1000
0000
0001
0000
1000
0000
0010
0000
0100
0000
0001
0000
0100
0000
,  // measure 22
0010
0100
0010
0000
0100
0000
0001
0000
0010
0000
0100
0000
1000
0000
0010
0000
,  // measure 23
1000
0010
1000
0000
0010
0000
0100
0000
0001
0000
0100
0000
0010
0000
0100
0000
,  // measure 24
0001
0100
0010
0000
1000
0000
0010
0000
1000
0000
0001
0000
1000
0000
0010
0000
,  // measure 25
1000
0100
0010
0000
1000
0000
0001
0000
1000
0000
0001
0000
1000
0000
0001
0000
,  // measure 26
0001
0010
0100
0000
0001
0000
1000
0000
0001
0000
1000
0000
0001
0000
1000
0000
,  // measure 27
0010
0100
0001
0000
1000
0000
0010
0000
0100
0000
0010
0000
1000
0000
0010
0000
,  // measure 28
1000
0010
0100
0000
0001
0000
1000
0000
0000
0000
0010
0000
0010
0000
0010
0000
,  // measure 29
0110
0000
0100
0001
0010
0100
1000
0000
,  // measure 30
0001
0101
1000
1100
0001
1001
1000
1010
,  // measure 31
1000
0000
0010
0100
0001
0000
0100
0000
,  // measure 32
0001
0101
1000
1100
0001
1001
1000
1001
,  // measure 33
1000
0000
0010
0100
0001
0000
0100
0000
0010
0000
1000
0000
0001
0000
1000
0000
,  // measure 34
0010
0000
0100
0001
0010
0000
0100
0000
1000
0000
0100
0000
0010
0000
0001
0000
,  // measure 35
0100
0000
0010
0100
0001
0000
0100
0000
0010
0000
1000
0000
0001
0000
1000
0000
,  // measure 36
0010
0000
1000
0010
0100
0000
0001
0000
0100
0000
0010
0000
1000
0000
0001
0000
,  // measure 37
1000
1000
0100
0010
0001
0001
0010
0100
,  // measure 38
0001
0101
1000
1100
0001
1001
1000
1010
,  // measure 39
1000
1000
0010
0100
0001
0001
0100
0100
,  // measure 40
0010
0000
1000
0001
1000
0000
0100
0000
0010
0000
0100
0000
0101
0000
0100
0000
,  // measure 41
0010
1000
0001
0010
0100
1000
0001
1000
,  // measure 42
0010
0101
0100
0110
0010
1001
0001
1100
,  // measure 43
0100
0000
0010
0000
0001
0000
0010
0000
0100
0000
1000
0010
0100
0000
0100
0000
,  // measure 44
0100
0000
0001
0010
0100
1000
0010
0110
;
