#VERSION:0.83;
#TITLE:Help me!!;
#SUBTITLE:;
#ARTIST:モーニング娘。;
#TITLETRANSLIT:;
#SUBTITLETRANSLIT:;
#ARTISTTRANSLIT:Morning Musume.;
#GENRE:Pop;
#ORIGIN:;
#CREDIT:chewi;
#BANNER:Help me!!.png;
#BACKGROUND:Help me!!-bg.png;
#PREVIEWVID:;
#JACKET:Help me!!-jacket.png;
#CDIMAGE:;
#DISCIMAGE:;
#LYRICSPATH:;
#CDTITLE:cdtitle.png;
#MUSIC:Help me!!.ogg;
#OFFSET:-0.104000;
#SAMPLESTART:63.842999;
#SAMPLELENGTH:15.000000;
#SELECTABLE:YES;
#DISPLAYBPM:128.000000;
#BPMS:0.000=128.000;
#STOPS:;
#DELAYS:;
#WARPS:;
#TIMESIGNATURES:0.000=4=4;
#TICKCOUNTS:0.000=4;
#COMBOS:0.000=1;
#SPEEDS:0.000=1.000=0.000=0;
#SCROLLS:0.000=1.000;
#FAKES:;
#LABELS:0.000=Song Start;
#BGCHANGES:-0.208=Help me!!.avi=1.000=1=0=0=StretchNoLoop==CrossFade==,
99999=-nosongbg-=1.000=0=0=0 // don't automatically add -songbackground-
;
#KEYSOUNDS:;
#ATTACKS:
;

//---------------dance-single - ----------------
#NOTEDATA:;
#CHARTNAME:;
#STEPSTYPE:dance-single;
#DESCRIPTION:;
#CHARTSTYLE:;
#DIFFICULTY:Beginner;
#METER:2;
#RADARVALUES:0.074314,0.104040,0.027868,0.055736,0.000000,56.000000,53.000000,3.000000,6.000000,0.000000,0.000000,0.000000,0.000000,0.000000,0.074314,0.104040,0.027868,0.055736,0.000000,56.000000,53.000000,3.000000,6.000000,0.000000,0.000000,0.000000,0.000000,0.000000;
#CREDIT:;
#DISPLAYBPM:128.000000;
#NOTES:
// measure 0
0000
0000
0000
0000
,  // measure 1
0000
0000
0000
0000
,  // measure 2
0000
0000
0000
0000
,  // measure 3
0000
0000
0000
0000
,  // measure 4
1000
0000
0000
0000
,  // measure 5
0001
0000
0000
0000
,  // measure 6
1000
0000
0000
0000
,  // measure 7
0001
0000
0000
0000
,  // measure 8
0100
0000
0000
0000
,  // measure 9
0010
0000
0000
0000
,  // measure 10
0100
0000
0000
0000
,  // measure 11
0010
0000
0000
0000
,  // measure 12
1000
0000
0000
0000
,  // measure 13
0100
0000
0000
0000
,  // measure 14
0001
0000
0000
0000
,  // measure 15
0010
0000
0000
0000
,  // measure 16
1000
0000
0000
0000
,  // measure 17
0100
0000
0000
0000
,  // measure 18
0001
0000
0000
0000
,  // measure 19
0010
0000
0000
0000
,  // measure 20
0020
0000
0000
0030
,  // measure 21
0010
0000
0000
0000
,  // measure 22
0200
0000
0000
0300
,  // measure 23
0100
0000
0000
0000
,  // measure 24
0002
0000
0000
0003
,  // measure 25
0001
0000
0000
0000
,  // measure 26
2000
0000
0000
3000
,  // measure 27
1000
0000
0000
0000
,  // measure 28
0001
0000
0000
0000
,  // measure 29
1001
0000
0000
0000
,  // measure 30
0200
0000
0000
0300
,  // measure 31
0100
0000
0000
0000
,  // measure 32
0200
0000
0000
0300
,  // measure 33
0100
0000
0000
0000
,  // measure 34
0010
0000
0000
0000
,  // measure 35
1000
0000
0000
0000
,  // measure 36
0001
0000
0000
0000
,  // measure 37
0100
0000
0000
0000
,  // measure 38
0100
0000
0000
0000
,  // measure 39
0100
0000
0000
0000
,  // measure 40
0010
0000
0000
0000
,  // measure 41
0010
0000
0000
0000
,  // measure 42
1000
0000
0000
0000
,  // measure 43
1000
0000
0000
0000
,  // measure 44
0001
0000
0000
0000
,  // measure 45
0001
0000
0000
0000
,  // measure 46
1000
0000
0000
0000
,  // measure 47
1001
0000
0000
0000
,  // measure 48
1000
0000
0000
0000
,  // measure 49
0001
0000
0000
0000
,  // measure 50
0100
0000
0000
0000
,  // measure 51
0100
0000
0000
0000
,  // measure 52
0001
0000
0000
0000
,  // measure 53
1000
0000
0000
0000
,  // measure 54
0010
0000
0000
0000
,  // measure 55
0010
0000
0000
0000
,  // measure 56
0110
0000
0000
0000
;

//---------------dance-single - ----------------
#NOTEDATA:;
#CHARTNAME:;
#STEPSTYPE:dance-single;
#DESCRIPTION:;
#CHARTSTYLE:;
#DIFFICULTY:Hard;
#METER:11;
#RADARVALUES:0.493659,0.582438,0.213653,0.092893,0.274034,372.000000,349.000000,23.000000,10.000000,6.000000,0.000000,0.000000,0.000000,0.000000,0.493659,0.582438,0.213653,0.092893,0.274034,372.000000,349.000000,23.000000,10.000000,6.000000,0.000000,0.000000,0.000000,0.000000;
#CREDIT:;
#DISPLAYBPM:128.000000;
#NOTES:
// measure 0
0000
0000
0000
0000
,  // measure 1
0000
0000
0000
0000
,  // measure 2
0000
0000
0000
0000
,  // measure 3
0000
0000
0000
0000
,  // measure 4
1000
1000
0100
0000
0010
0001
1000
0001
,  // measure 5
0010
0010
0100
0000
1000
0001
1000
0100
,  // measure 6
1000
1000
0000
0001
0000
0100
0010
0100
,  // measure 7
0010
0000
0000
M000
0000
000M
0000
0M00
,  // measure 8
0100
0100
0010
0000
1000
0001
0010
0100
,  // measure 9
1000
1000
0001
0000
1000
0100
1000
0100
,  // measure 10
1000
0001
0001
1000
0100
0100
0010
0001
,  // measure 11
1000
0000
0000
0000
,  // measure 12
0001
0000
0000
1000
0000
0000
0010
0000
1000
0000
0100
0000
0010
0000
0001
0000
,  // measure 13
1000
0010
1010
1000
0001
1000
1001
0000
,  // measure 14
1000
0000
0000
0001
0000
0000
0100
0000
0001
0000
0010
0000
0100
0000
1000
0000
,  // measure 15
0001
0000
0100
0000
0101
0000
0001
0000
1000
0001
1000
0000
0001
1000
0001
1000
,  // measure 16
0100
0000
0000
0010
0000
0000
0001
0000
0010
0000
1000
0000
0001
0000
0100
0000
,  // measure 17
1000
0100
1100
1000
0010
0100
0101
0000
,  // measure 18
0001
0000
0000
1000
0000
0000
0010
0000
1000
0000
0100
0000
0010
0000
0001
0000
,  // measure 19
1000
0000
0010
0000
1010
0000
1000
0000
0001
1000
0001
0000
1000
0001
1000
0001
,  // measure 20
0100
0001
0100
0000
0010
1000
1100
0000
,  // measure 21
0010
0001
0010
0000
0100
1000
1001
0000
,  // measure 22
1000
0000
0001
1000
0001
0000
0100
0010
,  // measure 23
0200
0010
0020
0330
,  // measure 24
0100
0010
1000
0001
,  // measure 25
0010
0100
1000
0001
,  // measure 26
1000
0001
1000
0001
0100
0010
0100
0010
,  // measure 27
1000
0100
0010
0001
1000
0100
0010
0001
,  // measure 28
1000
0000
0010
0000
0100
0000
0001
0000
1000
0000
0100
0000
0010
0001
0010
0001
,  // measure 29
0010
0000
0000
0000
,  // measure 30
0010
0001
0000
0010
0001
0000
0010
0001
0000
0010
0001
0000
1000
0000
0100
0000
,  // measure 31
1000
0001
0000
1000
0001
0000
1000
0001
0000
1000
0001
0000
1001
0000
0000
0000
,  // measure 32
0100
0010
0000
0100
0010
0000
0100
0010
0000
0100
0010
0000
0100
0000
0001
0000
,  // measure 33
2002
0000
0000
3003
,  // measure 34
1000
0000
0000
1000
0000
0000
0100
0000
0010
0000
0100
0000
1000
0001
0010
0000
,  // measure 35
0001
1000
0000
0001
1000
0000
0001
1000
0000
0001
1000
0000
1001
0000
0000
0000
,  // measure 36
0001
0000
0000
0001
0000
0000
0010
0000
0100
0000
0010
0000
0001
1000
0100
0000
,  // measure 37
1001
0000
0000
1001
0000
0000
1001
0000
0000
1001
0000
0000
1001
0000
0000
0000
,  // measure 38
1000
0010
0001
0010
1000
0010
0001
0010
,  // measure 39
1000
0100
0001
0100
1000
0100
0001
0100
,  // measure 40
2000
0000
0001
0000
0010
0001
3010
0000
,  // measure 41
0002
0000
1000
0000
0010
1000
0013
0000
,  // measure 42
0001
0100
1000
0100
0001
0100
1000
0100
,  // measure 43
0001
0010
1000
0010
0001
0010
1000
0010
,  // measure 44
0002
0000
1000
0000
0100
1000
0103
0000
,  // measure 45
2000
0000
0001
0000
0100
0001
3100
0000
,  // measure 46
0100
0010
0100
0010
0001
0010
0001
0010
,  // measure 47
0100
0000
1000
0000
0001
0000
0010
0000
0100
0000
1000
0000
0100
1000
0100
1000
,  // measure 48
0100
0000
0000
0010
0000
0001
0000
1000
0100
0000
1000
0000
1001
0000
0000
0000
,  // measure 49
0100
0000
0000
0010
0000
1000
0000
0001
0010
0000
0100
0000
1100
0000
0000
0000
,  // measure 50
1000
0000
0000
0100
0000
0010
0000
0100
1000
0000
0001
0000
0101
0000
0000
0000
,  // measure 51
0100
0001
0000
0001
0100
0000
0010
0000
1000
0100
1000
0100
1000
0001
1000
0000
,  // measure 52
1000
0000
0000
0001
0000
0100
0000
0010
1000
0000
0010
0000
0110
0000
0000
0000
,  // measure 53
1000
0000
0000
0001
0000
0010
0000
0100
1000
0000
0001
0000
1001
0000
0000
0000
,  // measure 54
0010
0000
0000
1000
0000
0001
0000
1000
0010
0000
0100
0000
0101
0000
0000
0000
,  // measure 55
0000
M000
0000
000M
0000
00M0
0000
0000
,  // measure 56
0220
0000
0000
0000
,  // measure 57
0330
0000
0000
0000
;

//---------------dance-single - ----------------
#NOTEDATA:;
#CHARTNAME:;
#STEPSTYPE:dance-single;
#DESCRIPTION:;
#CHARTSTYLE:;
#DIFFICULTY:Easy;
#METER:4;
#RADARVALUES:0.156591,0.264744,0.074314,0.139339,0.000000,118.000000,110.000000,8.000000,15.000000,0.000000,0.000000,0.000000,0.000000,0.000000,0.156591,0.264744,0.074314,0.139339,0.000000,118.000000,110.000000,8.000000,15.000000,0.000000,0.000000,0.000000,0.000000,0.000000;
#CREDIT:;
#DISPLAYBPM:128.000000;
#NOTES:
// measure 0
0000
0000
0000
0000
,  // measure 1
0000
0000
0000
0000
,  // measure 2
0000
0000
0000
0000
,  // measure 3
0000
0000
0000
0000
,  // measure 4
1000
0000
1000
0000
,  // measure 5
0001
0000
0001
0000
,  // measure 6
0100
0000
0100
0100
,  // measure 7
0100
0000
0000
0000
,  // measure 8
0010
0000
0010
0000
,  // measure 9
1000
0000
1000
0000
,  // measure 10
0001
0000
0001
0000
,  // measure 11
1000
1000
1000
0000
,  // measure 12
1001
0000
0000
0000
,  // measure 13
0100
0010
0100
0000
,  // measure 14
0110
0000
0000
0000
,  // measure 15
0010
0100
0010
0000
,  // measure 16
1001
0000
0000
0000
,  // measure 17
0001
1000
0001
0000
,  // measure 18
1001
0000
0000
0000
,  // measure 19
1000
0001
1000
0000
,  // measure 20
0002
0000
0000
0003
,  // measure 21
0200
0000
0000
0300
,  // measure 22
0001
0100
0001
0000
,  // measure 23
0100
0001
0100
0000
,  // measure 24
0020
0000
0000
0030
,  // measure 25
2000
0000
0000
3000
,  // measure 26
0010
1000
0010
0000
,  // measure 27
1000
0010
1000
0000
,  // measure 28
2000
0000
0000
0000
,  // measure 29
0002
0000
0000
3003
,  // measure 30
1000
1000
0001
0001
,  // measure 31
1000
0001
1000
0001
,  // measure 32
0100
0100
0010
0010
,  // measure 33
0220
0000
0000
0330
,  // measure 34
0010
0000
0100
0000
,  // measure 35
0010
0100
0010
0100
,  // measure 36
0001
0000
1000
0000
,  // measure 37
0001
1000
0001
1000
,  // measure 38
0100
0000
0001
0000
,  // measure 39
0010
0000
1000
0000
,  // measure 40
0200
0000
0000
0000
,  // measure 41
0000
0000
0000
0300
,  // measure 42
1000
0000
0010
0000
,  // measure 43
0001
0000
0100
0000
,  // measure 44
2000
0000
0000
0000
,  // measure 45
0002
0000
0000
3003
,  // measure 46
2002
0000
0000
3003
,  // measure 47
1001
0000
0000
0000
,  // measure 48
0001
0000
0100
0000
,  // measure 49
0001
1000
0001
0000
,  // measure 50
1000
0000
0100
0000
,  // measure 51
1000
0001
1000
0000
,  // measure 52
0100
0000
0010
0000
,  // measure 53
0001
1000
0001
0000
,  // measure 54
0100
0000
0010
0000
,  // measure 55
0100
0001
0100
0000
,  // measure 56
2002
0000
0000
0000
,  // measure 57
3003
0000
0000
0000
;

//---------------dance-single - ----------------
#NOTEDATA:;
#CHARTNAME:;
#STEPSTYPE:dance-single;
#DESCRIPTION:;
#CHARTSTYLE:;
#DIFFICULTY:Medium;
#METER:7;
#RADARVALUES:0.254792,0.291219,0.213653,0.232232,0.000000,192.000000,169.000000,23.000000,25.000000,0.000000,0.000000,0.000000,0.000000,0.000000,0.254792,0.291219,0.213653,0.232232,0.000000,192.000000,169.000000,23.000000,25.000000,0.000000,0.000000,0.000000,0.000000,0.000000;
#CREDIT:;
#DISPLAYBPM:128.000000;
#NOTES:
// measure 0
0000
0000
0000
0000
,  // measure 1
0000
0000
0000
0000
,  // measure 2
0000
0000
0000
0000
,  // measure 3
0000
0000
0000
0000
,  // measure 4
1000
0100
2000
3100
,  // measure 5
0001
0100
0002
0103
,  // measure 6
0100
0010
0200
0310
,  // measure 7
1001
0000
0000
0000
,  // measure 8
1000
0100
2000
3001
,  // measure 9
0010
0100
0020
0031
,  // measure 10
0100
0010
2000
3001
,  // measure 11
1001
0000
0000
0000
,  // measure 12
1000
0000
1000
0000
1000
0100
1000
0000
,  // measure 13
0100
0000
0010
0000
,  // measure 14
0001
0000
0001
0000
0001
0100
0001
0000
,  // measure 15
0100
0000
0010
0000
,  // measure 16
0100
0000
0100
0000
0100
0010
0100
0000
,  // measure 17
0001
0000
1000
0000
,  // measure 18
0100
0000
0100
0000
0100
0010
0100
0000
,  // measure 19
0100
1000
0001
0100
,  // measure 20
0101
0000
1100
0000
,  // measure 21
1000
0100
1000
0000
,  // measure 22
1100
0000
0101
0000
,  // measure 23
0001
0100
0001
0000
,  // measure 24
0001
0010
0100
1000
,  // measure 25
0001
0010
0100
1000
,  // measure 26
0002
0203
0320
2030
,  // measure 27
3002
0203
0320
2030
,  // measure 28
3002
0000
0000
0000
,  // measure 29
2000
0000
0000
3003
,  // measure 30
1001
0000
0000
1000
0000
0000
1000
0000
,  // measure 31
1001
0000
0000
0001
0000
0000
0001
0000
,  // measure 32
0100
0000
0000
0100
0000
0000
0100
0100
,  // measure 33
0100
0000
0000
0000
,  // measure 34
0100
0010
0100
0010
,  // measure 35
1000
0010
0100
0001
,  // measure 36
1000
0001
1000
0001
,  // measure 37
1000
0100
0010
0001
,  // measure 38
0011
0000
1010
0000
,  // measure 39
1100
0000
0101
0000
,  // measure 40
0011
0000
0010
0010
,  // measure 41
0100
0100
1000
1000
,  // measure 42
1100
0000
0101
0000
,  // measure 43
0011
0000
1010
0000
,  // measure 44
1100
0000
1000
1000
,  // measure 45
0100
0100
1000
1000
,  // measure 46
0002
2003
3002
2003
,  // measure 47
0002
0000
0000
3003
,  // measure 48
1001
1000
0001
1000
,  // measure 49
0001
0100
0010
1000
,  // measure 50
1010
1000
0010
1000
,  // measure 51
0010
0100
0001
1000
,  // measure 52
1001
1000
0001
1000
,  // measure 53
0100
0010
0100
1000
,  // measure 54
1100
1000
0100
1000
,  // measure 55
0002
0000
2000
3003
,  // measure 56
2002
0000
0000
0000
,  // measure 57
3003
0000
0000
0000
;
