#VERSION:0.82;
#TITLE:Hello Kitty;
#SUBTITLE:;
#ARTIST:Avril Lavigne;
#TITLETRANSLIT:;
#SUBTITLETRANSLIT:;
#ARTISTTRANSLIT:;
#GENRE:Electro Kitty Pop;
#ORIGIN:;
#CREDIT:chewi;
#BANNER:Hello Kitty.png;
#BACKGROUND:Hello Kitty-bg.png;
#PREVIEWVID:;
#JACKET:Hello Kitty-jacket.png;
#CDIMAGE:;
#DISCIMAGE:;
#LYRICSPATH:;
#CDTITLE:cdtitle.png;
#MUSIC:Hello Kitty.ogg;
#OFFSET:-0.724686;
#SAMPLESTART:55.102001;
#SAMPLELENGTH:15.000000;
#SELECTABLE:YES;
#BPMS:0.000=128.000;
#STOPS:;
#DELAYS:;
#WARPS:;
#TIMESIGNATURES:0.000=4=4;
#TICKCOUNTS:0.000=4;
#COMBOS:0.000=1;
#SPEEDS:0.000=1.000=0.000=0;
#SCROLLS:0.000=1.000;
#FAKES:;
#LABELS:0.000=Song Start;
#BGCHANGES:-0.724=Hello Kitty.avi=1.000=1=0=0=StretchNoLoop==CrossFade==,
99999=-nosongbg-=1.000=0=0=0 // don't automatically add -songbackground-
;
#KEYSOUNDS:;
#ATTACKS:
;

//---------------dance-single - ----------------
#NOTEDATA:;
#CHARTNAME:;
#STEPSTYPE:dance-single;
#DESCRIPTION:;
#CHARTSTYLE:Pad;
#DIFFICULTY:Beginner;
#METER:2;
#RADARVALUES:0.100335,0.097248,0.021611,0.086443,0.000000,55.000000,2.000000,8.000000,0.000000,0.000000,0.000000,0.000000,0.000000,0.100335,0.097248,0.021611,0.086443,0.000000,55.000000,2.000000,8.000000,0.000000,0.000000,0.000000,0.000000,0.000000;
#CREDIT:chewi;
#NOTES:
0000
0000
0000
0000
,
0000
0000
0000
0000
,
0000
0000
0000
0000
,
0000
0000
0000
0000
,
1000
0000
1000
0000
,
1000
0000
0000
0000
,
0001
0000
0001
0000
,
0001
0000
0000
0000
,
0100
0000
0100
0000
,
0100
0000
0000
0000
,
0010
0000
0010
0000
,
0010
0000
0000
0000
,
1000
0000
1000
0000
,
0001
0000
0001
0000
,
1000
0000
1000
0000
,
1001
0000
0000
0000
,
0010
0000
0010
0000
,
0100
0000
0100
0000
,
0010
0000
0010
0000
,
0110
0000
0000
0000
,
0020
0000
0000
0000
,
0000
0000
0000
0030
,
0200
0000
0000
0000
,
0000
0000
0000
0300
,
0002
0000
0000
0000
,
0000
0000
0000
0003
,
2000
0000
0000
0000
,
0000
0000
0000
3000
,
0000
0000
0000
0000
,
0010
0000
0000
0000
,
0010
0000
0010
0000
,
0100
0000
0000
0000
,
0100
0000
0100
0000
,
1000
0000
0000
0000
,
1000
0000
1000
0000
,
0001
0000
0000
0000
,
0001
0000
0001
0000
,
0002
0000
0000
0003
,
0001
0000
0001
0000
,
2000
0000
0000
3000
,
1000
0000
1000
0000
,
0020
0000
0000
0030
,
0010
0000
0010
0000
,
0200
0000
0000
0300
,
0100
0000
0100
0000
,
0100
0000
0000
0000
;

//---------------dance-single - ----------------
#NOTEDATA:;
#CHARTNAME:;
#STEPSTYPE:dance-single;
#DESCRIPTION:;
#CHARTSTYLE:Pad;
#DIFFICULTY:Easy;
#METER:4;
#RADARVALUES:0.205301,0.194496,0.043221,0.172885,0.000000,113.000000,4.000000,16.000000,0.000000,0.000000,0.000000,0.000000,0.000000,0.205301,0.194496,0.043221,0.172885,0.000000,113.000000,4.000000,16.000000,0.000000,0.000000,0.000000,0.000000,0.000000;
#CREDIT:chewi;
#NOTES:
0000
0000
0000
0000
,
0000
0000
0000
0000
,
0000
0000
0000
0000
,
0000
0000
0000
0000
,
2000
0000
0000
3000
,
1000
1000
1000
0000
,
0002
0000
0000
0003
,
0001
0001
0001
0000
,
0200
0000
0000
0300
,
0100
0010
0100
0000
,
0020
0000
0000
0030
,
0100
0010
0100
0000
,
0020
0000
2030
0000
,
3010
0010
1000
0000
,
0002
0000
0203
0000
,
0301
0001
1000
0000
,
0200
0000
0320
0000
,
0130
0010
0100
0000
,
0020
0000
0032
0000
,
0013
0001
0010
0000
,
0001
0001
0001
0001
,
0100
0100
0100
0100
,
1000
1000
1000
1000
,
0010
0010
0010
0000
,
1000
1000
1000
1000
,
0100
0100
0100
0100
,
0001
0001
0001
0001
,
0010
0010
0010
0000
,
0000
0000
0000
0000
,
0020
0000
0130
0000
,
0100
0010
0001
0000
,
0002
0000
1003
0000
,
0001
0001
1000
1000
,
2000
0000
3010
0000
,
0010
0100
0010
0000
,
0200
0000
0310
0000
,
0010
1000
0010
1000
,
1000
0000
1001
0000
,
1000
1000
0001
0001
,
0010
0000
0110
0000
,
0100
0100
0100
0100
,
0010
0000
0110
0000
,
0001
0010
0100
1000
,
0010
0000
1001
0000
,
1000
0001
0010
0100
,
0010
0000
0000
0000
;

//---------------dance-single - ----------------
#NOTEDATA:;
#CHARTNAME:;
#STEPSTYPE:dance-single;
#DESCRIPTION:;
#CHARTSTYLE:Pad;
#DIFFICULTY:Medium;
#METER:7;
#RADARVALUES:0.253153,0.243120,0.086443,0.043221,0.000000,152.000000,8.000000,4.000000,0.000000,0.000000,0.000000,0.000000,0.000000,0.253153,0.243120,0.086443,0.043221,0.000000,152.000000,8.000000,4.000000,0.000000,0.000000,0.000000,0.000000,0.000000;
#CREDIT:chewi;
#NOTES:
0000
0000
0000
0000
,
0000
0000
0000
0000
,
0000
0000
0000
0000
,
0000
0000
0000
0000
,
1000
0000
0000
0100
0000
0000
0010
0000
,
0001
0010
0100
1000
,
0001
0000
0000
0100
0000
0000
0010
0000
,
1000
0010
0100
0001
,
0100
0000
0000
0010
0000
0000
1000
0000
,
0001
0010
0100
1000
,
0100
0000
0000
0010
0000
0000
0100
0000
,
1000
0001
0010
0100
,
1100
0000
0000
1000
0000
0000
0100
0000
,
1000
0001
0100
0010
,
0110
0000
0000
0100
0000
0000
0010
0000
,
1000
0010
0001
0010
,
0011
0000
0000
0010
0000
0000
0001
0000
,
0010
0100
1000
0100
,
1100
0000
0000
1000
0000
0000
0100
0000
,
1000
0001
1000
0001
,
1000
0000
0100
0000
0010
0001
1000
0000
,
0001
0000
1000
0000
0001
0100
0010
0000
,
1000
0000
0010
0000
0100
0001
1000
0000
,
1001
0000
1000
0000
,
0010
0100
0001
0000
0100
0000
0100
0000
,
0010
1000
0100
0000
1000
0000
1000
0000
,
0001
1000
0001
0000
1000
0001
1000
0000
,
0010
0100
0001
1000
,
0000
0000
0000
0000
,
2000
0000
3100
0000
,
0010
0100
1000
0001
,
0020
0000
0031
0000
,
0010
0001
1000
0100
,
2000
0001
0010
3100
,
1000
0010
1000
0000
0001
0000
0000
0000
,
0002
0010
0100
1003
,
0001
0100
0001
0000
1000
0000
0010
0000
,
0100
0000
0000
0100
0100
0000
0000
0000
,
0010
1000
0001
1000
,
0001
0000
0000
1000
1000
0000
0000
0000
,
0001
0010
0100
1100
,
0100
0000
0000
0100
0100
0000
0010
0000
,
0100
0010
0001
1001
,
1000
0000
0000
1000
1000
0000
0000
0000
,
0010
0100
0010
1000
,
1001
0000
0000
0000
;

//---------------dance-single - ----------------
#NOTEDATA:;
#CHARTNAME:;
#STEPSTYPE:dance-single;
#DESCRIPTION:;
#CHARTSTYLE:Pad;
#DIFFICULTY:Hard;
#METER:13;
#RADARVALUES:0.547984,0.534863,0.680735,0.280938,0.043221,266.000000,63.000000,26.000000,0.000000,0.000000,0.000000,0.000000,0.000000,0.547984,0.534863,0.680735,0.280938,0.043221,266.000000,63.000000,26.000000,0.000000,0.000000,0.000000,0.000000,0.000000;
#CREDIT:chewi;
#NOTES:
// measure 0
0000
0000
0000
0000
,  // measure 1
0000
0000
0000
0000
,  // measure 2
0000
0000
0000
0000
,  // measure 3
0000
0000
0000
0000
,  // measure 4
2000
0000
3100
2000
0000
3001
0020
0000
,  // measure 5
0031
0010
0100
1000
0001
0010
0100
1000
,  // measure 6
0002
0000
1003
0002
0000
0103
0020
0000
,  // measure 7
1030
0010
0100
0001
1000
0010
0100
0001
,  // measure 8
2000
0000
3001
2000
0000
3001
0020
0000
,  // measure 9
0031
0010
0100
0010
0001
0010
0100
1000
,  // measure 10
0200
0000
1300
0002
0000
1003
0020
0000
,  // measure 11
0130
0010
1000
0010
0100
0001
0010
0100
,  // measure 12
1002
0000
0013
2100
0000
3010
0102
0000
,  // measure 13
0103
0010
1000
0001
1000
0010
0100
0001
,  // measure 14
0012
0000
1003
2100
0000
3001
0012
0000
,  // measure 15
1003
0010
1000
0001
0100
0001
0100
0010
,  // measure 16
0120
0000
1030
0210
0000
0301
0102
0000
,  // measure 17
0103
0010
1000
0001
0010
0100
1000
0001
,  // measure 18
2001
0000
3100
1200
0000
1300
1020
0000
,  // measure 19
1030
0010
0100
0001
1000
0001
1000
0001
,  // measure 20
1001
0000
1001
0000
1000
0100
0010
0001
,  // measure 21
1001
0000
1001
0000
0001
0100
0010
1000
,  // measure 22
1010
0011
1100
0101
,  // measure 23
1001
0110
1001
0110
,  // measure 24
0101
0000
1100
0000
0001
0010
0100
1000
,  // measure 25
1100
0000
0011
0000
1000
0010
0100
0001
,  // measure 26
0101
0000
0110
0000
0100
0001
0010
0100
,  // measure 27
1000
0100
0001
0100
1000
0010
0001
0010
,  // measure 28
1000
0000
0000
0000
,  // measure 29
1000
0000
0010
1000
0000
0001
0010
0100
1000
0000
0001
0000
1001
0000
0000
0000
,  // measure 30
0001
0011
0010
0110
0100
1100
1000
1001
,  // measure 31
0002
0000
0000
0000
0003
0000
1000
0100
0010
0000
0001
0000
1000
0000
0100
0000
,  // measure 32
0100
0110
0010
0011
0001
1001
1000
1001
,  // measure 33
0010
0000
0001
0010
0000
0100
1000
0001
0010
0000
0100
0000
0110
0000
0000
0000
,  // measure 34
0100
0110
0010
0011
1000
1010
0010
0110
,  // measure 35
0200
0000
0000
0000
0300
0000
0010
1000
0001
0000
0100
0000
0010
0000
1010
0000
,  // measure 36
1000
1001
0001
0101
0100
0110
0010
0110
,  // measure 37
1010
0000
1010
0000
1000
0100
0010
0001
,  // measure 38
0101
0000
0101
0000
0001
0010
0100
1000
,  // measure 39
1001
0110
1001
0110
,  // measure 40
0100
0010
1000
0100
0010
0100
1000
0010
,  // measure 41
0101
0000
0101
0000
0010
0100
1000
0001
,  // measure 42
1001
0000
1001
0000
1000
0010
0001
0010
,  // measure 43
1100
0000
0101
0000
0100
0010
0100
0001
,  // measure 44
0010
1000
0100
0001
0010
1000
0100
0100
,  // measure 45
0100
0000
0000
0000
;
