#VERSION:0.83;
#TITLE:Hello Bitches;
#SUBTITLE:;
#ARTIST:CL;
#TITLETRANSLIT:;
#SUBTITLETRANSLIT:;
#ARTISTTRANSLIT:;
#GENRE:Hype Rap;
#ORIGIN:;
#CREDIT:chewi;
#BANNER:Hello Bitches.png;
#BACKGROUND:Hello Bitches-bg.png;
#PREVIEWVID:;
#JACKET:Hello Bitches-jacket.png;
#CDIMAGE:;
#DISCIMAGE:;
#LYRICSPATH:;
#CDTITLE:cdtitle.png;
#MUSIC:Hello Bitches.ogg;
#OFFSET:-0.298000;
#SAMPLESTART:13.450593;
#SAMPLELENGTH:15.000000;
#SELECTABLE:YES;
#BPMS:0.000=145.000;
#STOPS:;
#DELAYS:;
#WARPS:;
#TIMESIGNATURES:0.000=4=4;
#TICKCOUNTS:0.000=4;
#COMBOS:0.000=1;
#SPEEDS:0.000=1.000=0.000=0;
#SCROLLS:0.000=1.000;
#FAKES:;
#LABELS:0.000=Song Start;
#BGCHANGES:-0.596=Hello Bitches.avi=1.000=1=0=0=StretchNoLoop==CrossFade==,
99999=-nosongbg-=1.000=0=0=0 // don't automatically add -songbackground-
;
#KEYSOUNDS:;
#ATTACKS:
;

//---------------dance-single - ----------------
#NOTEDATA:;
#CHARTNAME:;
#STEPSTYPE:dance-single;
#DESCRIPTION:;
#CHARTSTYLE:;
#DIFFICULTY:Beginner;
#METER:3;
#RADARVALUES:0.118889,0.177935,0.049685,0.198740,0.000000,67.000000,63.000000,4.000000,16.000000,0.000000,0.000000,0.000000,0.000000,0.000000,0.118889,0.177935,0.049685,0.198740,0.000000,67.000000,63.000000,4.000000,16.000000,0.000000,0.000000,0.000000,0.000000,0.000000;
#CREDIT:;
#NOTES:
0000
0000
0000
0000
,
0000
0000
0000
0000
,
0000
0000
0000
0000
,
0000
0000
0000
0000
,
1000
0000
1000
0000
,
0001
0000
0001
0000
,
0100
0000
0100
0000
,
0010
0000
0000
0000
,
0020
0000
0000
0030
,
0020
0000
0000
0030
,
0200
0000
0000
0300
,
0200
0000
0000
0300
,
2000
0000
0000
3000
,
2000
0000
0000
3000
,
0002
0000
0000
0003
,
0002
0000
0000
0003
,
0001
0000
0001
0000
,
0010
0000
0010
0000
,
0100
0000
0100
0000
,
1000
0000
1000
0000
,
1000
0000
1000
0000
,
0100
0000
0100
0000
,
0010
0000
0010
0000
,
0001
0000
0001
0000
,
0001
0000
0001
0000
,
1000
0000
1000
0000
,
0001
0000
0001
0000
,
1000
0000
1000
0000
,
0010
0000
0010
0000
,
0100
0000
0100
0000
,
0010
0000
0010
0000
,
0100
0000
0100
0000
,
0110
0000
0000
0000
,
1000
0000
0000
0000
,
1001
0000
0000
0000
,
0001
0000
0000
0000
,
0110
0000
0000
0000
,
0010
0000
0000
0000
,
1001
0000
0000
0000
,
1000
0000
0000
0000
,
2000
0000
0000
3000
,
2000
0000
0000
3000
,
0200
0000
0000
0300
,
0200
0000
0000
0300
,
0002
0000
0000
0003
,
0002
0000
0000
0003
,
0020
0000
0000
0030
,
0020
0000
0000
0030
;

//---------------dance-single - ----------------
#NOTEDATA:;
#CHARTNAME:;
#STEPSTYPE:dance-single;
#DESCRIPTION:;
#CHARTSTYLE:;
#DIFFICULTY:Easy;
#METER:4;
#RADARVALUES:0.236004,0.266902,0.024843,0.124213,0.000000,133.000000,131.000000,2.000000,10.000000,0.000000,0.000000,0.000000,0.000000,0.000000,0.236004,0.266902,0.024843,0.124213,0.000000,133.000000,131.000000,2.000000,10.000000,0.000000,0.000000,0.000000,0.000000,0.000000;
#CREDIT:;
#NOTES:
0000
0000
0000
0000
,
0000
0000
0000
0000
,
0000
0000
0000
0000
,
0000
0000
0000
0000
,
1000
1000
1000
0000
,
0001
0100
0001
0000
,
0001
0001
0001
0000
,
2002
0000
0000
3003
,
1000
0100
0001
0100
,
1000
0100
0001
0100
,
1000
0100
0001
0100
,
1000
0100
0001
0100
,
1000
0010
0001
0010
,
1000
0010
0001
0010
,
1000
0010
0001
0010
,
1000
0010
0002
0003
,
0010
0010
0010
0000
,
0010
0100
0010
0000
,
0100
0100
0100
0000
,
0010
0100
0010
0000
,
1000
1000
1000
0000
,
1000
0001
1000
0000
,
0001
0001
0001
0000
,
0001
1000
0001
0000
,
1000
0000
0100
0000
,
0010
0010
0001
0000
,
0001
0000
0010
0000
,
0100
0100
1000
0000
,
0001
0000
1000
0000
,
0010
0010
0100
0000
,
1000
0000
0001
0000
,
0010
0010
0100
0000
,
0020
0030
0100
0000
,
0100
0000
0100
0000
,
0200
0300
0010
0000
,
0010
0000
0010
0000
,
0002
0003
1000
0000
,
1000
0000
1000
0000
,
2000
3000
0001
0000
,
2002
0000
0000
3003
,
0001
0010
1000
0010
,
0001
0010
1000
0010
,
0001
0010
1000
0010
,
0001
0010
1000
0010
,
0001
0100
1000
0100
,
0001
0100
1000
0100
,
0001
0100
1000
0100
,
0001
0100
2000
3000
;

//---------------dance-single - ----------------
#NOTEDATA:;
#CHARTNAME:;
#STEPSTYPE:dance-single;
#DESCRIPTION:;
#CHARTSTYLE:;
#DIFFICULTY:Medium;
#METER:7;
#RADARVALUES:0.354894,0.385525,0.074528,0.124213,0.000000,200.000000,194.000000,6.000000,10.000000,0.000000,0.000000,0.000000,0.000000,0.000000,0.354894,0.385525,0.074528,0.124213,0.000000,200.000000,194.000000,6.000000,10.000000,0.000000,0.000000,0.000000,0.000000,0.000000;
#CREDIT:;
#NOTES:
0000
0000
0000
0000
,
0000
0000
0000
0000
,
0000
0000
0000
0000
,
0000
0000
0000
0000
,
1000
0000
0100
0000
1000
0001
1000
0000
,
0001
0000
0100
0000
0001
1000
0001
0000
,
1000
0100
0010
0001
,
2002
0000
3003
0000
,
2000
0000
3001
1000
0001
0000
1000
0000
,
0001
0000
1000
0000
0001
1000
0001
0000
,
0002
0000
1003
0001
1000
0000
0001
0000
,
1000
0000
0001
0000
1000
0001
1000
0000
,
0200
0000
0310
0000
0100
0010
0100
0000
,
0010
0000
0100
0000
0010
0100
0010
0000
,
0100
0010
0001
1000
,
0010
0100
0001
0000
,
1000
0100
0010
0100
,
1000
0000
0001
0000
0010
0100
1000
0000
,
0001
0100
0010
0100
,
0001
0000
0010
0000
0100
1000
0001
0000
,
1000
0100
0010
0100
,
1000
0000
0001
0000
1000
0100
1000
0000
,
0001
0010
0100
0010
,
0001
0000
0100
0000
0010
0100
0010
0000
,
0100
0010
1000
0001
,
1000
0000
0100
0000
0010
0100
1000
0000
,
0001
0010
0100
0010
,
0001
0000
0100
0000
0010
1000
0001
0000
,
0100
0010
0100
0001
,
0100
0010
0110
0000
,
0010
0100
0010
1000
,
0010
0100
0010
0110
,
1001
0000
1000
0000
0001
1000
0100
0000
,
1000
0000
0001
0000
1000
0001
0100
0000
,
0010
0000
0100
0000
0010
0100
0001
0000
,
0010
0000
0100
0000
0010
0100
1000
0000
,
1001
0000
1000
0000
0001
1000
0100
0000
,
1000
0000
0001
0000
1000
0001
0100
0000
,
0010
0100
0001
1000
,
2002
0000
3003
0000
,
0002
0000
1003
0001
1000
0000
0001
0000
,
1000
0000
0001
0000
1000
0001
1000
0000
,
2000
0000
3001
1000
0001
0000
1000
0000
,
0001
0000
1000
0000
0001
1000
0001
0000
,
0020
0000
0130
0000
0010
0100
0010
0000
,
0100
0000
0010
0000
0100
0010
0100
0000
,
0010
0100
1000
0001
,
0100
0010
1000
0001
;

//---------------dance-single - ----------------
#NOTEDATA:;
#CHARTNAME:;
#STEPSTYPE:dance-single;
#DESCRIPTION:;
#CHARTSTYLE:;
#DIFFICULTY:Hard;
#METER:10;
#RADARVALUES:0.500400,0.533805,0.211162,0.211162,0.062106,282.000000,265.000000,17.000000,17.000000,0.000000,0.000000,0.000000,0.000000,0.000000,0.500400,0.533805,0.211162,0.211162,0.062106,282.000000,265.000000,17.000000,17.000000,0.000000,0.000000,0.000000,0.000000,0.000000;
#CREDIT:;
#NOTES:
// measure 0
0000
0000
0000
0000
,  // measure 1
0000
0000
0000
0000
,  // measure 2
0000
0000
0000
0000
,  // measure 3
0000
0000
0000
0000
,  // measure 4
1001
0000
0010
0000
0001
0010
0100
0000
,  // measure 5
1001
0000
0100
0000
0010
0100
0001
0000
,  // measure 6
0001
0100
0001
0100
0010
1000
0010
1000
,  // measure 7
0001
1000
0000
0000
1001
0000
0000
0000
,  // measure 8
0110
0000
0100
0001
0100
1000
0100
0001
,  // measure 9
0100
0000
1000
0000
0010
0001
0010
0000
,  // measure 10
0110
0000
0010
0001
0010
1000
0010
0001
,  // measure 11
0010
0000
1000
0000
0100
0001
0100
0000
,  // measure 12
0110
0000
0100
1000
0100
0001
0100
1000
,  // measure 13
0100
0000
0001
0000
0010
1000
0100
0000
,  // measure 14
0010
0010
0001
0001
0100
0100
0010
0010
,  // measure 15
2000
0000
0000
3002
0000
0000
1003
0001
1000
0001
0000
0000
,  // measure 16
2000
0000
3100
0010
0100
1000
0010
0000
,  // measure 17
0100
0001
0010
0001
0100
0001
0010
0000
,  // measure 18
0001
0100
0010
1000
0100
0010
0100
0000
,  // measure 19
1000
0100
0010
0001
0100
0010
0100
0000
,  // measure 20
0010
0010
1000
1000
0200
0020
0330
0000
,  // measure 21
0001
0001
1000
1000
0020
0200
0330
0100
,  // measure 22
0001
1000
0010
1000
0100
0100
0100
0010
,  // measure 23
0001
1000
0001
0001
0002
2000
3003
0000
,  // measure 24
1000
0001
0100
1000
0100
0000
0001
0000
,  // measure 25
0010
0000
1000
0100
2000
0020
3030
0000
,  // measure 26
0100
0000
0001
0000
0100
0001
1000
0010
,  // measure 27
1000
1000
0010
0010
0200
0002
0303
0000
,  // measure 28
1000
0000
0000
0001
0000
0000
1000
0000
0100
0000
0000
0010
0000
0000
0001
0000
,  // measure 29
0001
0000
0000
1000
0000
0000
0001
0000
0100
0000
0000
0010
0000
0000
0000
0000
,  // measure 30
0220
0000
0000
0330
,  // measure 31
1000
0001
1000
0000
0001
0000
1000
0000
0001
1000
0001
0000
1000
0000
0001
0000
,  // measure 32
0100
0100
0100
0000
0010
1000
1001
0000
,  // measure 33
0010
0010
0010
0000
0100
1000
1001
0000
,  // measure 34
1000
1000
1000
0000
0001
0100
0110
0000
,  // measure 35
0001
0001
0001
0000
1000
0100
0110
0000
,  // measure 36
0010
0100
1000
0000
1000
0100
1100
0000
,  // measure 37
0001
0100
0010
0000
0100
0001
0101
0000
,  // measure 38
0001
1000
0100
0000
1000
0001
0100
0000
,  // measure 39
0100
0010
0000
0000
0110
0000
0000
0000
,  // measure 40
1001
0000
0001
0010
0001
0100
0001
0010
,  // measure 41
0001
0000
0100
0000
1000
0010
1000
0000
,  // measure 42
1001
0000
1000
0010
1000
0100
1000
0010
,  // measure 43
1000
0000
0100
0000
0001
0010
0001
0000
,  // measure 44
1001
0000
0001
0100
0001
0010
0001
0100
,  // measure 45
0001
0000
0010
0000
1000
0100
0001
0000
,  // measure 46
0010
0010
0001
0001
1000
1000
0100
0100
,  // measure 47
0200
0000
0000
0320
0000
0000
0130
0010
0100
0010
0000
0000
;
