#TITLE:Hella Good;
#SUBTITLE:;
#ARTIST:No Doubt;
#TITLETRANSLIT:;
#SUBTITLETRANSLIT:;
#ARTISTTRANSLIT:;
#CREDIT:Chewi☆;
#BANNER:Hella Good.png;
#BACKGROUND:Hella Good-bg.png;
#LYRICSPATH:;
#CDTITLE:;
#MUSIC:Hella Good.mp3;
#OFFSET:-0.097;
#SAMPLESTART:49.796;
#SAMPLELENGTH:15.000;
#SELECTABLE:YES;
#DISPLAYBPM:115.000;
#BPMS:0.000=115.000,96.000=115.200;
#STOPS:;
#BGCHANGES:;

//---------------dance-single - Chewi----------------
#NOTES:
     dance-single:
     Chewi:
     Hard:
     10:
     0.360,0.399,0.147,0.328,0.068: // measure 1
0000
0000
0000
0000
,  // measure 2
0000
0000
0000
0000
,  // measure 3
0000
0000
0000
0000
,  // measure 4
0000
0000
0000
0000
,  // measure 5
1000
0000
0000
0100
0000
0000
0010
0000
0100
0000
0000
0000
0000
0000
0000
0000
,  // measure 6
1000
0000
0000
0010
0000
0000
0100
0000
0001
0000
0000
0000
0000
0000
0000
0000
,  // measure 7
0001
0000
0000
0010
0000
0000
0100
0000
0010
0000
0000
0000
0000
0000
0000
0000
,  // measure 8
0001
0000
0000
0100
0000
0000
0010
0000
1000
0000
0000
0000
0000
0000
0010
0000
,  // measure 9
1000
0000
0001
1000
0100
0010
0001
0100
,  // measure 10
0010
0200
0000
0302
0000
2003
0000
3000
,  // measure 11
0001
0000
0000
0001
0000
0000
0001
0000
1001
0000
0000
0000
0000
0000
0000
0000
,  // measure 12
1000
0000
0000
1000
0000
0000
1000
0000
1001
0000
0000
0000
1000
0000
0010
0000
,  // measure 13
0100
0000
0001
0100
0010
1000
0001
0010
,  // measure 14
0100
2000
0000
3020
0000
0000
0000
0030
,  // measure 15
1000
0000
0000
1000
0000
0000
1000
0000
1100
0000
0000
0000
0000
0000
0000
0000
,  // measure 16
0010
0000
0000
0010
0000
0000
0010
0000
0011
0000
0000
0000
0000
0000
0000
0000
,  // measure 17
0002
0000
0103
0010
2000
0000
3000
0000
,  // measure 18
1000
1000
0001
0002
0000
0003
0000
0000
,  // measure 19
0010
0000
0000
0010
0000
0000
0010
0000
0110
0000
0000
0000
0000
0000
0000
0000
,  // measure 20
0100
0000
0000
0100
0000
0000
0100
0000
0110
0000
0000
0000
0000
0000
0000
0000
,  // measure 21
0200
0000
0310
0001
0200
0000
0300
0000
,  // measure 22
0100
1000
0010
0002
0000
0003
0000
0000
,  // measure 23
0100
0000
0000
0100
0000
0000
0100
0000
0110
0000
0000
0000
0000
0000
0000
0000
,  // measure 24
0010
0000
0000
0010
0000
0000
0010
0000
0110
0000
0000
0000
0000
0000
0000
0000
,  // measure 25
0001
0100
0001
0010
0001
0100
0001
0100
,  // measure 26
0002
0203
0320
2030
,  // measure 27
3001
1000
0000
0001
1000
0000
0000
1000
,  // measure 28
0100
0010
0001
0010
0100
0000
1100
0000
,  // measure 29
1000
0010
1000
0100
1000
0010
1000
0100
,  // measure 30
0020
0032
0203
0320
,  // measure 31
1030
0010
0000
0100
0001
0000
0000
0100
,  // measure 32
0100
0010
0010
1000
1000
0000
1001
0000
,  // measure 33
0001
0010
0100
1000
0001
0010
0100
1000
,  // measure 34
0002
2003
3020
0230
,  // measure 35
0301
0100
0000
0010
1000
0000
0000
0001
,  // measure 36
0001
1000
1000
0100
0100
0000
1100
0000
,  // measure 37
1000
0100
1000
0100
1000
0010
1000
0010
,  // measure 38
0200
0302
0023
0230
,  // measure 39
1300
0010
0000
1000
0100
0000
0000
0010
,  // measure 40
0010
0100
0100
1000
0001
0000
1001
0000
,  // measure 41
0220
0000
0000
0000
,  // measure 42
0000
0000
0330
0000
;

//---------------dance-single - Chewi----------------
#NOTES:
     dance-single:
     Chewi:
     Medium:
     7:
     0.257,0.329,0.192,0.113,0.000: // measure 1
0000
0000
0000
0000
,  // measure 2
0000
0000
0000
0000
,  // measure 3
0000
0000
0000
0000
,  // measure 4
0000
0000
0000
0000
,  // measure 5
1000
0000
0000
1000
1000
0000
0000
0000
,  // measure 6
0001
0000
0000
0001
0001
0000
0000
0000
,  // measure 7
0100
0000
0000
0100
0100
0000
0000
0000
,  // measure 8
0010
0000
0000
0010
0010
0000
0000
0000
,  // measure 9
1000
0100
0010
0001
,  // measure 10
1000
0000
0000
1000
0000
1000
0000
0000
,  // measure 11
0001
1000
1001
0000
,  // measure 12
1000
0001
1001
0000
,  // measure 13
0001
0100
0010
1000
,  // measure 14
0001
0100
1000
0100
,  // measure 15
1000
0001
1001
0000
,  // measure 16
0001
1000
1001
0000
,  // measure 17
1000
0000
0010
0100
0001
0000
0000
0000
,  // measure 18
0001
1000
0001
1000
0000
0000
0000
0000
,  // measure 19
0001
0000
0000
0001
0001
0000
0000
0000
,  // measure 20
1000
0000
0000
1000
1000
0000
0000
0000
,  // measure 21
1000
0000
0100
0010
0001
0000
0000
0000
,  // measure 22
0001
0100
0001
0100
0000
0000
0000
0000
,  // measure 23
0010
0000
0000
0010
0010
0000
0000
0000
,  // measure 24
0100
0000
0000
0100
0100
0000
0000
0000
,  // measure 25
2010
3100
0012
0103
,  // measure 26
1000
0100
0010
0001
,  // measure 27
1000
1000
0000
1000
1000
0000
0000
0000
,  // measure 28
0001
1000
0010
0110
,  // measure 29
0102
0013
2100
3010
,  // measure 30
0001
1000
0100
0010
,  // measure 31
0010
0010
0000
0010
0010
0000
0000
0000
,  // measure 32
0100
1000
0010
0001
,  // measure 33
2100
3010
0102
0013
,  // measure 34
1000
0100
0001
0101
,  // measure 35
0100
0100
0000
0010
0010
0000
0000
0000
,  // measure 36
0001
0100
1000
0010
,  // measure 37
0012
1003
2010
3001
,  // measure 38
0001
1000
0100
1001
,  // measure 39
1000
1000
0000
0001
0001
0000
0000
0000
,  // measure 40
0100
0010
1000
1001
,  // measure 41
0220
0000
0000
0000
,  // measure 42
0000
0000
0330
0000
;

//---------------dance-single - Chewi----------------
#NOTES:
     dance-single:
     Chewi:
     Easy:
     4:
     0.171,0.235,0.057,0.181,0.000: // measure 1
0000
0000
0000
0000
,  // measure 2
0000
0000
0000
0000
,  // measure 3
0000
0000
0000
0000
,  // measure 4
0000
0000
0000
0000
,  // measure 5
2000
0000
3000
0000
,  // measure 6
0002
0000
0003
0000
,  // measure 7
0200
0000
0300
0000
,  // measure 8
0020
0000
0030
0000
,  // measure 9
0010
0010
0010
0010
,  // measure 10
0100
0100
0100
0100
,  // measure 11
1001
0000
0000
0000
,  // measure 12
1001
0000
0000
0000
,  // measure 13
1000
1000
1000
1000
,  // measure 14
0001
0001
0001
0001
,  // measure 15
1001
0000
0000
0000
,  // measure 16
1001
0000
0000
0000
,  // measure 17
1000
0100
1000
0000
,  // measure 18
0200
0000
0300
0000
,  // measure 19
0010
0100
0010
0000
,  // measure 20
0100
0010
0100
0000
,  // measure 21
0010
0001
0010
0000
,  // measure 22
0002
0000
0003
0000
,  // measure 23
0001
1000
0001
0000
,  // measure 24
1000
0001
1000
0000
,  // measure 25
1000
1000
1000
1000
,  // measure 26
0001
0001
0001
0001
,  // measure 27
0002
0000
0003
0000
,  // measure 28
2000
0000
3000
0000
,  // measure 29
0010
0010
0010
0010
,  // measure 30
0100
0100
0100
0100
,  // measure 31
0200
0000
0300
0000
,  // measure 32
0020
0000
0030
0000
,  // measure 33
1000
0100
0010
1000
,  // measure 34
0100
0100
0100
0100
,  // measure 35
0200
0000
0300
0000
,  // measure 36
0020
0000
0030
0000
,  // measure 37
0001
0010
0100
0001
,  // measure 38
0010
0010
0010
0010
,  // measure 39
0200
0000
0300
0000
,  // measure 40
0020
0000
0030
0000
,  // measure 41
2002
0000
0000
0000
,  // measure 42
0000
0000
3003
0000
;

//---------------dance-single - Chewi----------------
#NOTES:
     dance-single:
     Chewi:
     Beginner:
     2:
     0.097,0.141,0.057,0.113,0.000: // measure 1
0000
0000
0000
0000
,  // measure 2
0000
0000
0000
0000
,  // measure 3
0000
0000
0000
0000
,  // measure 4
0000
0000
0000
0000
,  // measure 5
1000
0000
0000
0000
,  // measure 6
0001
0000
0000
0000
,  // measure 7
0100
0000
0000
0000
,  // measure 8
0010
0000
0000
0000
,  // measure 9
0010
0000
0000
0000
,  // measure 10
0100
0000
0000
0000
,  // measure 11
1001
0000
0000
0000
,  // measure 12
1001
0000
0000
0000
,  // measure 13
1000
0000
0000
0000
,  // measure 14
0001
0000
0000
0000
,  // measure 15
1001
0000
0000
0000
,  // measure 16
1001
0000
0000
0000
,  // measure 17
1000
0000
0000
0000
,  // measure 18
0100
0000
0000
0000
,  // measure 19
0010
0000
0000
0000
,  // measure 20
0100
0000
0000
0000
,  // measure 21
0010
0000
0000
0000
,  // measure 22
0001
0000
0000
0000
,  // measure 23
0001
0000
0000
0000
,  // measure 24
1000
0000
0000
0000
,  // measure 25
1000
0000
1000
0000
,  // measure 26
0001
0000
0001
0000
,  // measure 27
0002
0000
0003
0000
,  // measure 28
2000
0000
3000
0000
,  // measure 29
0010
0000
0010
0000
,  // measure 30
0100
0000
0100
0000
,  // measure 31
0200
0000
0300
0000
,  // measure 32
0020
0000
0030
0000
,  // measure 33
1000
0000
0010
0000
,  // measure 34
0100
0000
0100
0000
,  // measure 35
0200
0000
0300
0000
,  // measure 36
0020
0000
0030
0000
,  // measure 37
0001
0000
0100
0000
,  // measure 38
0010
0000
0010
0000
,  // measure 39
0200
0000
0300
0000
,  // measure 40
0020
0000
0030
0000
,  // measure 41
2002
0000
0000
0000
,  // measure 42
0000
0000
3003
0000
;

//---------------dance-single - Chewi----------------
#NOTES:
     dance-single:
     Chewi:
     Challenge:
     13:
     0.520,0.704,0.419,0.588,0.300: // measure 1
0000
0000
0000
0000
,  // measure 2
0000
0000
0000
0000
,  // measure 3
0000
0000
0000
0000
,  // measure 4
0000
0000
0000
0000
,  // measure 5
1000
0000
0000
0100
0000
0000
0010
0000
0200
0000
0000
0000
0300
0000
0000
0000
,  // measure 6
1000
0000
0000
0010
0000
0000
0001
0000
0020
0000
0000
0000
0030
0000
0000
0000
,  // measure 7
1000
0000
0000
0001
0000
0000
0010
0000
0200
0000
0000
0000
0300
0000
0000
0000
,  // measure 8
0100
0000
0000
0010
0000
0000
0001
0000
2000
0000
0000
0000
3000
0000
0001
0000
,  // measure 9
0200
0000
0310
1000
0001
0010
0100
1000
,  // measure 10
0010
1100
0000
0011
0000
0202
0000
0303
,  // measure 11
0100
0000
0001
0100
0000
0001
0100
0000
1010
0000
0000
0000
0000
0000
0000
0000
,  // measure 12
1000
0000
0100
1000
0000
0100
1000
0000
1100
0000
0000
0000
1000
0000
0010
0000
,  // measure 13
0200
0000
0301
0010
0100
1000
0010
0100
,  // measure 14
0001
0100
0010
2000
0000
3001
0002
0000
,  // measure 15
1003
0000
0100
1000
0000
0010
1000
0000
1100
0000
0000
0000
0000
0000
0000
0000
,  // measure 16
0010
0000
0001
0100
0000
0001
0010
0000
0011
0000
0000
0000
0000
0000
0000
0000
,  // measure 17
1002
0000
0103
0010
2020
0000
3030
0000
,  // measure 18
1000
0010
0001
0200
0000
0300
0000
0000
,  // measure 19
0100
0000
1000
0010
0000
0010
1000
0000
1001
0000
0000
0000
0000
0000
0000
0000
,  // measure 20
1000
0000
0100
1000
0000
1000
0100
0000
1001
0000
0000
0000
0000
0000
0000
0000
,  // measure 21
2010
0000
3100
0001
0022
0000
0033
0000
,  // measure 22
0001
0010
0100
2000
0000
3000
0000
0000
,  // measure 23
0010
0000
1000
0100
0000
0100
0010
0000
0011
0000
0000
0000
0000
0000
0000
0000
,  // measure 24
0001
0000
0100
0010
0000
0010
0100
0000
0101
0000
0000
0000
0000
0000
0000
0000
,  // measure 25
1000
0100
1000
0000
0001
0010
0001
0000
1000
0010
1000
0000
0001
0100
0001
0000
,  // measure 26
2200
0000
3300
0000
2020
0000
3030
0000
2002
0000
3003
0000
0202
0000
0303
1000
,  // measure 27
0100
0010
0001
0000
0000
0000
0001
1000
0001
0000
0000
0000
0000
0000
0001
1000
,  // measure 28
0010
0100
0001
0100
0010
0000
0101
0000
,  // measure 29
0100
0001
0100
0000
0010
0001
0010
0000
0100
1000
0100
0000
1000
0010
1000
0000
,  // measure 30
2200
0000
3300
0000
0022
0000
0033
0000
0202
0000
0303
0000
2020
0000
3030
0001
,  // measure 31
1000
0010
0100
0000
0000
0000
0001
0100
0001
0000
0000
0000
0000
0000
0001
0100
,  // measure 32
0010
0001
0010
0100
1000
0000
1100
0000
,  // measure 33
1000
0100
1000
0000
0010
0001
0010
0000
0001
0100
0001
0000
1000
0010
1000
0000
,  // measure 34
2002
0000
3003
0000
0202
0000
0303
0000
2002
0000
3003
0000
2200
0000
3300
0010
,  // measure 35
0001
0100
0010
0000
0000
0000
0100
0010
0100
0000
0000
0000
0000
0000
0100
0010
,  // measure 36
1000
0001
0010
0100
1000
0000
1010
0000
,  // measure 37
1000
0100
1000
0000
0010
0001
0010
0000
0001
0100
0001
0000
1000
0010
1000
0000
,  // measure 38
2020
0000
3030
0000
0202
0000
0303
0000
2002
0000
3003
0000
2200
0000
3300
1000
,  // measure 39
0100
0010
0001
0000
0000
0000
0010
0001
0010
0000
0000
0000
0000
0000
0001
0010
,  // measure 40
0001
0000
1000
0100
1000
0000
0001
0000
1001
0000
0000
0000
1100
0000
0000
0000
,  // measure 41
2002
0000
0000
0000
,  // measure 42
0000
0000
0000
0000
0000
0000
0000
0000
0000
0000
0000
0000
0000
0000
0000
0000
0000
0000
0000
0000
0000
0000
0000
0000
0000
0000
0000
0000
0000
0000
0000
0000
0000
0000
0000
0000
0000
0000
0000
0000
0000
0000
0000
0000
0000
0000
0000
0000
0000
0000
0000
0000
0000
0000
0000
0000
0000
0000
0000
0000
0000
0000
0000
0000
0000
0000
0000
0000
0000
0000
0000
0000
0000
0000
0000
0000
0000
0000
0000
0000
0000
0000
0000
0000
0000
0000
0000
0000
0000
0000
0000
0000
0000
0000
0000
0000
0000
3003
0000
0000
0000
0000
0000
0000
0000
0000
0000
0000
0000
0000
0000
0000
0000
0000
0000
0000
0000
0000
0000
0000
0000
0000
0000
0000
0000
0000
0000
0000
0000
0000
0000
0000
0000
0000
0000
0000
0000
0000
0000
0000
0000
0000
0000
0000
0000
0000
0000
0000
0000
0000
0000
0000
0000
0000
0000
0000
0000
0000
0000
0000
0000
0000
0000
0000
0000
0000
0000
0000
0000
0000
0000
0000
0000
0000
0000
0000
0000
0000
0000
0000
0000
0000
0000
0000
0000
0000
0000
0000
0000
0000
0000
0000
;
