#VERSION:0.82;
#TITLE:Heart Surgery (UvEV Remix);
#SUBTITLE:;
#ARTIST:Jeffree Star;
#TITLETRANSLIT:;
#SUBTITLETRANSLIT:;
#ARTISTTRANSLIT:;
#GENRE:Electro;
#ORIGIN:;
#CREDIT:chewi;
#BANNER:Heart Surgery (UvEV Remix).png;
#BACKGROUND:Heart Surgery (UvEV Remix)-bg.png;
#PREVIEWVID:;
#JACKET:Heart Surgery (UvEV Remix)-jacket.png;
#CDIMAGE:;
#DISCIMAGE:;
#LYRICSPATH:;
#CDTITLE:cdtitle.png;
#MUSIC:Heart Surgery (UvEV Remix).ogg;
#OFFSET:-0.661000;
#SAMPLESTART:54.909000;
#SAMPLELENGTH:15.000000;
#SELECTABLE:YES;
#BPMS:0.000=146.000,
32.000=73.000,
39.000=36.500,
40.000=146.000,
120.000=73.000,
157.000=146.000;
#STOPS:38.000=0.822,
152.000=2.466,
153.000=2.466,
154.000=4.110;
#DELAYS:;
#WARPS:;
#TIMESIGNATURES:0.000=4=4;
#TICKCOUNTS:0.000=4;
#COMBOS:0.000=1;
#SPEEDS:0.000=1.000=0.000=0;
#SCROLLS:0.000=1.000;
#FAKES:;
#LABELS:0.000=Song Start;
#BGCHANGES:;
#KEYSOUNDS:;
#ATTACKS:
;

//---------------dance-single - ----------------
#NOTEDATA:;
#CHARTNAME:;
#STEPSTYPE:dance-single;
#DESCRIPTION:;
#CHARTSTYLE:;
#DIFFICULTY:Beginner;
#METER:1;
#RADARVALUES:0.073397,0.104507,0.009341,0.084073,0.000000,45.000000,1.000000,9.000000,0.000000,0.000000,0.000000,0.000000,0.000000,0.073397,0.104507,0.009341,0.084073,0.000000,45.000000,1.000000,9.000000,0.000000,0.000000,0.000000,0.000000,0.000000;
#CREDIT:;
#NOTES:
0000
0000
0000
0000
,
0000
0000
0000
0000
,
0000
0000
0000
0000
,
0000
0000
0000
0000
,
2000
0000
0000
3000
,
1000
0000
0000
0000
,
0002
0000
0000
0003
,
0001
0000
0000
0000
,
0001
0000
0000
0000
,
1000
0000
0000
0010
,
0020
0000
0000
0000
,
0000
0000
0000
0030
,
0200
0000
0000
0000
,
0000
0000
0000
0300
,
0002
0000
0000
0000
,
0000
0000
0000
0003
,
2000
0000
0000
0000
,
0000
0000
0000
3000
,
1000
0000
1000
0000
,
1000
0000
0000
0000
,
0001
0000
0001
0000
,
0001
0000
0000
0000
,
0100
0000
0100
0000
,
0100
0000
0000
0000
,
0010
0000
0010
0000
,
0010
0000
0000
0000
,
0010
0000
0010
0000
,
0010
0000
0010
0000
,
0100
0000
0100
0000
,
0100
0000
0100
0000
,
0100
0000
0000
0000
,
0010
0000
0000
0000
,
1000
0000
0000
0000
,
0001
0000
0000
0000
,
1001
0000
0000
0000
,
0100
0000
0000
0000
,
0010
0000
0000
0000
,
0100
0000
0000
0000
,
0010
0010
0010
0000
,
0000
0020
0000
0000
,
0000
0000
0000
0030
,
0000
0200
0000
0000
,
0000
0000
0000
0300
,
0000
2000
0000
0000
,
0000
0000
0000
3000
;

//---------------dance-single - ----------------
#NOTEDATA:;
#CHARTNAME:;
#STEPSTYPE:dance-single;
#DESCRIPTION:;
#CHARTSTYLE:;
#DIFFICULTY:Easy;
#METER:4;
#RADARVALUES:0.133449,0.209014,0.037366,0.065390,0.000000,89.000000,4.000000,7.000000,0.000000,0.000000,0.000000,0.000000,0.000000,0.133449,0.209014,0.037366,0.065390,0.000000,89.000000,4.000000,7.000000,0.000000,0.000000,0.000000,0.000000,0.000000;
#CREDIT:;
#NOTES:
0000
0000
0000
0000
,
0000
0000
0000
0000
,
0000
0000
0000
0000
,
0000
0000
0000
0000
,
2000
0000
0000
3000
,
1000
0000
0000
0000
,
0002
0000
0000
0003
,
0001
0000
0000
0000
,
1000
0000
0010
0000
,
0001
0000
0100
0100
,
0100
0100
0100
0000
,
0010
0010
0010
0000
,
0001
0001
0001
0000
,
1000
1000
1000
0000
,
0001
1000
0001
0000
,
1000
0001
1000
0000
,
0001
1000
0001
0000
,
1000
0001
1000
0000
,
0010
0010
0010
0000
,
0100
0100
0100
0000
,
0001
0001
0001
0000
,
0100
0100
0100
0000
,
0001
0100
0001
0000
,
0100
0001
0100
0000
,
0001
0100
0001
0000
,
0100
0001
0100
0000
,
0001
0001
0001
0001
,
1000
1000
1000
1000
,
0002
0000
0000
0000
,
2000
0000
0000
3003
,
1001
0000
0000
0000
,
1001
0000
0000
0000
,
0110
0000
0000
0000
,
0110
0000
0000
0000
,
1000
0100
0001
0000
,
0001
0100
1000
0000
,
1000
0010
0001
0000
,
0001
0010
1000
0000
,
1000
1000
1000
0000
,
0000
2000
0000
0000
,
0000
0000
0000
3000
,
0000
0002
0000
0000
,
0000
0000
0000
0003
,
0000
0200
0000
0000
,
0000
0000
0000
0300
;

//---------------dance-single - ----------------
#NOTEDATA:;
#CHARTNAME:;
#STEPSTYPE:dance-single;
#DESCRIPTION:;
#CHARTSTYLE:;
#DIFFICULTY:Medium;
#METER:6;
#RADARVALUES:0.204177,0.271719,0.084073,0.102756,0.000000,133.000000,9.000000,11.000000,0.000000,0.000000,0.000000,0.000000,0.000000,0.204177,0.271719,0.084073,0.102756,0.000000,133.000000,9.000000,11.000000,0.000000,0.000000,0.000000,0.000000,0.000000;
#CREDIT:;
#NOTES:
0000
0000
0000
0000
,
0000
0000
0000
0000
,
0000
0000
0000
0000
,
0000
0000
0000
0000
,
0001
0100
0010
0001
,
0100
1000
0010
0000
,
0110
0000
0000
0000
,
1001
1000
0001
1000
,
0001
1000
0200
0310
,
0001
1000
1001
0100
,
0010
0010
1000
1000
,
0100
0100
0001
0010
,
1000
1000
0100
0100
,
0001
0001
0100
0100
,
1000
1000
0010
0010
,
0001
0001
0100
1000
,
0010
0010
0100
0100
,
0001
1000
0001
1000
,
0001
0010
1000
0010
,
0001
0010
1000
0100
,
0001
0100
1000
0100
,
0001
0100
0101
0000
,
0001
1000
0100
0010
,
0100
1000
0001
1000
,
1000
0001
0100
0010
,
0100
0001
0100
0101
,
0002
1000
0010
1003
,
2000
0001
0010
3001
,
2000
0000
0000
0000
,
0002
0000
0000
3003
,
1000
0000
0100
0000
0010
0010
0000
0000
,
0001
0000
0100
0000
0010
0010
0000
0000
,
0100
0000
0010
0000
0100
0100
0000
0000
,
0010
0000
0100
0000
0010
0010
0000
0000
,
1000
0100
0001
0100
,
1000
0100
0001
0100
,
1000
0010
0001
0010
,
1000
0010
0001
0010
,
0110
1001
1100
0000
,
0000
2002
0000
0000
,
0000
0000
3000
0200
,
0003
0020
0000
0000
,
0000
0000
0000
0300
0000
2000
0000
0000
,
0030
0002
0000
0000
,
0000
0000
0000
3003
;

//---------------dance-single - ----------------
#NOTEDATA:;
#CHARTNAME:;
#STEPSTYPE:dance-single;
#DESCRIPTION:;
#CHARTSTYLE:;
#DIFFICULTY:Hard;
#METER:11;
#RADARVALUES:0.395009,0.543438,0.485754,0.093414,0.200841,234.000000,52.000000,10.000000,0.000000,0.000000,0.000000,0.000000,0.000000,0.395009,0.543438,0.485754,0.093414,0.200841,234.000000,52.000000,10.000000,0.000000,0.000000,0.000000,0.000000,0.000000;
#CREDIT:;
#NOTES:
// measure 0
0000
0000
0000
0000
,  // measure 1
0000
0000
0000
0000
0000
1000
0000
0000
,  // measure 2
0000
0001
0010
0100
1000
0000
0000
0000
,  // measure 3
0000
0000
0000
0000
0000
0001
0000
0000
,  // measure 4
0000
1000
0010
0100
0001
0000
0000
0000
,  // measure 5
0000
0000
0000
0000
0000
0100
0000
0000
,  // measure 6
0000
0010
0100
0001
1000
0000
0000
0001
,  // measure 7
0001
0000
1000
0100
0010
0100
1000
0001
,  // measure 8
1000
0001
1000
0001
1000
0000
0000
1000
0001
1000
0001
0000
0000
0000
0000
0000
,  // measure 9
0000
0010
0100
0010
0100
0000
0000
0000
0110
0000
0000
0000
1001
0000
0000
0000
,  // measure 10
1100
1100
1010
1010
,  // measure 11
1001
0000
0000
0000
1001
0000
0000
0000
1000
0001
1000
0001
1000
0000
0000
0000
,  // measure 12
0101
0101
0011
0011
,  // measure 13
0010
0010
0100
0100
1000
1000
0001
0001
,  // measure 14
1001
1001
1010
1010
,  // measure 15
0110
0000
0000
0000
0110
0000
0000
0000
0010
0100
0010
0100
0010
0000
0000
0000
,  // measure 16
0110
0110
0101
0101
,  // measure 17
0001
0010
1000
0001
0100
1000
0001
1000
,  // measure 18
1001
1001
1100
1100
,  // measure 19
1001
0000
0000
0000
1001
0000
0000
0000
1000
0001
1000
0001
1000
0000
0000
0000
,  // measure 20
1001
1001
0011
0011
,  // measure 21
0010
0010
0100
0100
1000
0001
0100
0010
,  // measure 22
0110
0110
1010
1010
,  // measure 23
0101
0000
0000
0000
0101
0000
0000
0000
0001
0100
0001
0100
0001
0000
0000
0000
,  // measure 24
1001
1001
1100
1100
,  // measure 25
0110
0000
0110
0000
0010
0001
1000
0000
,  // measure 26
1000
0010
0001
0010
,  // measure 27
1000
0100
0001
0100
,  // measure 28
0010
0100
0010
0100
0010
0100
0010
0100
,  // measure 29
0001
1000
0001
1000
0001
1000
0001
1000
,  // measure 30
0001
1000
0001
1000
0001
0000
0000
0001
1000
0001
1000
0000
0000
0000
0000
0000
,  // measure 31
0000
0100
0010
0100
0010
0000
0000
0010
0100
0010
0100
0000
0000
0000
0000
0000
,  // measure 32
0000
0010
0001
0010
0001
0000
0000
0001
0010
0001
0010
0000
0000
0000
0000
0000
,  // measure 33
0000
0100
1000
0100
1000
0000
0000
1000
0100
1000
0100
0000
0000
0000
0000
0000
,  // measure 34
2001
0000
0010
0000
3100
0000
0000
0000
1000
0100
0010
0100
1000
0000
0000
0000
,  // measure 35
1002
0000
0100
0000
0013
0000
0000
0000
0001
0010
0100
0010
0001
0000
0000
0000
,  // measure 36
0210
0000
1000
0000
0310
0000
0000
0000
0001
0100
1000
0100
0001
0000
0000
0000
,  // measure 37
0210
0000
0001
0000
0310
0000
0000
0000
1000
0000
0001
0010
0100
1000
0001
1000
,  // measure 38
1001
0000
0000
0000
0110
0000
0000
0000
1010
0000
0000
1000
0001
0000
1000
0000
,  // measure 39
0010
0000
0100
0000
0010
0100
0010
0000
0220
0000
0000
0000
0000
0000
0000
0000
0000
0000
0000
0000
0000
0000
0000
0000
0000
0000
0000
0000
0000
0000
0000
0000
,  // measure 40
0000
0000
0030
0002
,  // measure 41
0300
2000
0000
0000
,  // measure 42
0000
0000
0000
0003
0000
0200
0000
0000
,  // measure 43
3000
0020
0000
0000
,  // measure 44
0000
0000
0000
0330
;
