#TITLE:He is my only star;
#SUBTITLE:;
#ARTIST:SUPER HEROINE 彩香 -AYAKA-;
#TITLETRANSLIT:;
#SUBTITLETRANSLIT:;
#ARTISTTRANSLIT:SUPER HEROINE AYAKA;
#GENRE:;
#CREDIT:Chewi☆;
#MENUCOLOR:#00FF00;
#METERTYPE:DDR X;
#BANNER:He is my only star.png;
#BACKGROUND:He is my only star-bg.png;
#LYRICSPATH:;
#CDTITLE:;
#MUSIC:He is my only star.mp3;
#OFFSET:-0.398;
#SAMPLESTART:63.419;
#SAMPLELENGTH:15.000;
#SELECTABLE:YES;
#LISTSORT:;
#DISPLAYBPM:160.000;
#BPMS:0.000=160.000;
#STOPS:;
#BGCHANGES:;
#ATTACKS:;

//---------------dance-single - Chewi----------------
#NOTES:
     dance-single:
     Chewi:
     Beginner:
     1:
     0.091,0.152,0.019,0.000,0.000: // measure 1
0000
0000
0000
0000
,  // measure 2
0000
0000
0000
0000
,  // measure 3
0000
0000
0000
0000
,  // measure 4
0000
0000
0000
0000
,  // measure 5
1000
0000
0000
0000
,  // measure 6
0001
0000
0000
0000
,  // measure 7
0100
0000
0000
0000
,  // measure 8
0010
0000
0000
0000
,  // measure 9
0010
0000
0000
0000
,  // measure 10
0001
0000
0000
0000
,  // measure 11
0100
0000
0000
0000
,  // measure 12
1000
0000
0000
0000
,  // measure 13
0010
0000
0000
0000
,  // measure 14
1000
0000
0000
0000
,  // measure 15
0100
0000
0000
0000
,  // measure 16
0001
0000
0000
0000
,  // measure 17
0001
0000
0000
0000
,  // measure 18
1000
0000
0000
0000
,  // measure 19
0010
0000
0000
0000
,  // measure 20
0010
0000
0000
0000
,  // measure 21
1000
0000
0000
0000
,  // measure 22
0100
0000
0000
0000
,  // measure 23
0010
0000
0000
0000
,  // measure 24
0100
0000
0000
0000
,  // measure 25
0001
0000
0000
0000
,  // measure 26
1000
0000
0000
0000
,  // measure 27
1000
0000
0000
0000
,  // measure 28
0001
0000
0000
0000
,  // measure 29
0010
0000
0000
0000
,  // measure 30
1000
0000
0000
0000
,  // measure 31
0100
0000
0000
0000
,  // measure 32
0100
0000
0000
0000
,  // measure 33
1000
0000
0000
0000
,  // measure 34
0001
0000
0000
0000
,  // measure 35
0100
0000
0000
0000
,  // measure 36
0010
0000
0000
0000
,  // measure 37
0001
0000
0000
0000
,  // measure 38
0100
0000
0000
0000
,  // measure 39
1000
0000
0000
0000
,  // measure 40
0010
0000
0000
0000
,  // measure 41
1001
0000
0000
0000
,  // measure 42
1000
0000
0000
0000
,  // measure 43
0001
0000
0000
0000
,  // measure 44
0010
0000
0000
0000
,  // measure 45
1000
0000
0000
0000
,  // measure 46
0100
0000
0000
0000
,  // measure 47
0001
0000
0000
0000
,  // measure 48
0100
0000
0000
0000
,  // measure 49
1000
0000
0000
0000
,  // measure 50
0010
0000
0000
0000
,  // measure 51
0100
0000
0000
0000
,  // measure 52
1000
0000
0000
0000
,  // measure 53
0001
0000
0000
0000
,  // measure 54
1000
0000
0000
0000
,  // measure 55
0010
0000
0000
0000
,  // measure 56
0100
0000
0000
0000
,  // measure 57
0100
0000
0000
0000
,  // measure 58
1000
0000
0000
0000
,  // measure 59
0001
0000
0000
0000
,  // measure 60
0001
0000
0000
0000
,  // measure 61
1000
0000
0000
0000
,  // measure 62
1000
0000
0000
0000
,  // measure 63
1000
0000
0000
0000
,  // measure 64
0001
0000
0000
0000
,  // measure 65
0010
0000
0000
0000
,  // measure 66
0100
0000
0000
0000
,  // measure 67
1000
0000
0000
0000
,  // measure 68
1001
0000
0000
0000
,  // measure 69
0100
0000
0000
0000
,  // measure 70
0000
0000
0000
0000
,  // measure 71
0000
0000
0000
0000
,  // measure 72
0000
0000
0000
0000
,  // measure 73
0000
0000
0000
0000
,  // measure 74
0000
0000
0000
0000
,  // measure 75
0000
0000
0000
0000
,  // measure 76
0000
0000
0000
0000
,  // measure 77
0000
0000
0000
0000
,  // measure 78
0000
0000
0000
0000
,  // measure 79
0000
0000
0000
0000
,  // measure 80
0000
0000
0000
0000
,  // measure 81
0000
0000
0000
0000
,  // measure 82
0010
0000
0000
0000
;

//---------------dance-single - Chewi----------------
#NOTES:
     dance-single:
     Chewi:
     Easy:
     4:
     0.233,0.266,0.028,0.122,0.000: // measure 1
0000
0000
0000
0000
,  // measure 2
0000
0000
0000
0000
,  // measure 3
0000
0000
0000
0000
,  // measure 4
0000
0000
0000
0000
,  // measure 5
1000
0000
1000
0000
,  // measure 6
0001
0000
0001
0000
,  // measure 7
0100
0100
0100
0100
,  // measure 8
0020
0000
0000
0030
,  // measure 9
0010
1000
0100
0000
,  // measure 10
0001
0010
1000
0000
,  // measure 11
0100
0001
0010
0000
,  // measure 12
1000
0100
0001
0000
,  // measure 13
0010
0001
0100
0000
,  // measure 14
1000
0010
0001
0000
,  // measure 15
0100
1000
0010
0000
,  // measure 16
0001
0100
0010
0000
,  // measure 17
0002
0000
0000
0003
,  // measure 18
2000
0000
0000
3000
,  // measure 19
0010
0000
0100
0000
,  // measure 20
0010
0000
0100
0000
,  // measure 21
2000
0000
0000
3000
,  // measure 22
0200
0000
0000
0300
,  // measure 23
0010
0000
0001
0000
,  // measure 24
0100
0000
0010
0000
,  // measure 25
0001
0001
0100
0000
,  // measure 26
1000
0100
0001
0000
,  // measure 27
1000
1000
0010
0000
,  // measure 28
0001
0010
1000
0000
,  // measure 29
0010
0100
0010
0000
,  // measure 30
1000
0100
0010
0000
,  // measure 31
0100
0010
0100
0000
,  // measure 32
0100
0010
0001
0000
,  // measure 33
2000
0000
0000
0000
,  // measure 34
3002
0000
0000
0000
,  // measure 35
0203
0000
0000
0000
,  // measure 36
0320
0000
0000
0000
,  // measure 37
0032
0000
0000
0000
,  // measure 38
0203
0000
0000
0000
,  // measure 39
2300
0000
0000
0000
,  // measure 40
3010
0000
0110
0000
,  // measure 41
1001
0000
0000
0000
,  // measure 42
1000
0000
0001
0000
,  // measure 43
0001
0010
0001
0000
,  // measure 44
0010
1000
0010
0000
,  // measure 45
1000
0100
1000
0000
,  // measure 46
0100
0001
0100
0000
,  // measure 47
0001
0100
0001
0000
,  // measure 48
0100
1000
0100
0000
,  // measure 49
1000
0010
1000
0000
,  // measure 50
0010
0001
0010
0000
,  // measure 51
0100
0010
0100
0000
,  // measure 52
1000
0001
1000
0000
,  // measure 53
0001
0100
1000
0000
,  // measure 54
1000
0100
0001
0000
,  // measure 55
0010
0100
0010
0000
,  // measure 56
0100
0001
0010
0000
,  // measure 57
0100
0010
0100
0000
,  // measure 58
1000
0010
0100
0000
,  // measure 59
0001
0000
1000
0000
,  // measure 60
0001
0010
0100
1000
,  // measure 61
1000
0000
0001
0000
,  // measure 62
1000
0010
0100
0001
,  // measure 63
1000
0000
0100
0000
,  // measure 64
0001
0010
0100
0001
,  // measure 65
0010
0000
0001
0000
,  // measure 66
0100
1000
0010
0100
,  // measure 67
1000
0000
0001
0000
,  // measure 68
1001
0000
0200
0000
,  // measure 69
0300
0000
0000
0000
,  // measure 70
0000
0000
0000
0000
,  // measure 71
0000
0000
0000
0000
,  // measure 72
0000
0000
0000
0000
,  // measure 73
0000
0000
0000
0000
,  // measure 74
0000
0000
0000
0000
,  // measure 75
0000
0000
0000
0000
,  // measure 76
0000
0000
0000
0000
,  // measure 77
0000
0000
0000
0000
,  // measure 78
0000
0000
0000
0000
,  // measure 79
0000
0000
0000
0000
,  // measure 80
0000
0000
0000
0000
,  // measure 81
0000
0000
0000
0000
,  // measure 82
0010
0000
0000
0000
;

//---------------dance-single - Chewi----------------
#NOTES:
     dance-single:
     Chewi:
     Medium:
     7:
     0.386,0.414,0.206,0.066,0.019: // measure 1
0000
0000
0000
0000
,  // measure 2
0000
0000
0000
0000
,  // measure 3
0000
0000
0000
0000
,  // measure 4
0000
0000
0000
0000
,  // measure 5
1000
0100
0001
0100
,  // measure 6
1000
0010
0001
0010
,  // measure 7
0200
0000
0000
0000
,  // measure 8
0020
0000
0000
0330
,  // measure 9
0001
1000
0100
0001
,  // measure 10
1000
0001
0100
1000
,  // measure 11
0010
0110
1000
1001
,  // measure 12
0001
0010
0100
1000
,  // measure 13
0001
0100
1000
0100
,  // measure 14
0001
0010
1000
0010
,  // measure 15
1000
0010
0100
0001
,  // measure 16
1100
0000
0000
0011
0000
0000
1001
0000
,  // measure 17
1000
0000
0001
0000
1000
0001
1000
0000
,  // measure 18
0001
0010
0100
1000
,  // measure 19
0010
0000
0100
0000
0010
0100
0010
0000
,  // measure 20
0001
0100
1000
0010
,  // measure 21
0100
0000
0001
0000
0100
0010
1000
0000
,  // measure 22
0001
0010
0100
1000
,  // measure 23
0001
0000
1000
0100
0010
0000
0001
0000
,  // measure 24
1001
0000
0000
1001
0000
1001
0000
0000
,  // measure 25
1000
0010
0001
0010
,  // measure 26
1000
0100
0001
0100
,  // measure 27
1000
0100
0010
0001
,  // measure 28
1000
0010
0100
0001
,  // measure 29
0110
1000
0001
0010
,  // measure 30
0100
1000
0010
0100
,  // measure 31
0001
0000
1000
0000
0010
1000
0010
0000
,  // measure 32
1000
0000
0001
0000
0010
0001
0010
0000
,  // measure 33
0001
1000
0100
1000
,  // measure 34
0001
1000
0100
0001
,  // measure 35
1000
0001
0010
0001
,  // measure 36
0001
0010
1000
0001
,  // measure 37
1000
0100
0010
0001
,  // measure 38
1000
0010
0100
0001
,  // measure 39
0100
0100
0010
0010
,  // measure 40
1000
1100
0001
0101
,  // measure 41
0001
0000
0000
1000
0000
0000
0001
0000
0100
0000
0000
0010
0000
0000
1000
0000
,  // measure 42
0001
0000
0000
0002
0000
0000
2000
0000
0000
0000
0000
0000
3003
0000
0000
0000
,  // measure 43
1000
0000
0100
0000
0001
0100
1000
0000
,  // measure 44
0010
0010
0100
0100
,  // measure 45
1000
0000
0010
0000
0001
0010
1000
0000
,  // measure 46
0001
0010
0100
1000
,  // measure 47
0001
0000
0100
0000
1000
0100
0010
0000
,  // measure 48
0001
1000
0010
0100
,  // measure 49
0001
0000
0100
0000
1000
0100
0010
0000
,  // measure 50
0001
1100
1000
0101
,  // measure 51
0010
0000
0010
0000
0010
0100
0010
0000
,  // measure 52
0100
1000
0010
0100
,  // measure 53
0100
0000
0100
0000
0100
0100
0100
0000
,  // measure 54
0010
0001
0100
0010
,  // measure 55
0001
0001
0100
1000
,  // measure 56
0010
0010
1000
0100
,  // measure 57
0001
0000
0010
0000
0100
0000
0001
0001
,  // measure 58
0000
1000
0001
0000
0000
0000
0010
0000
,  // measure 59
0001
0110
0100
1000
,  // measure 60
0001
1100
1000
0101
,  // measure 61
1000
0010
0100
0001
,  // measure 62
1000
0100
0010
0001
,  // measure 63
0010
0001
0100
1000
,  // measure 64
0010
1000
0100
0001
,  // measure 65
0010
0100
0001
1000
,  // measure 66
1100
0000
0000
0011
0000
0000
1001
0000
,  // measure 67
0101
0200
0000
0000
0010
0000
0310
0000
,  // measure 68
1010
0000
0000
1000
0000
0000
2002
0000
0000
0000
0000
0000
0000
0000
0000
0000
,  // measure 69
3003
0000
0000
0000
;

//---------------dance-single - Chewi----------------
#NOTES:
     dance-single:
     Chewi:
     Hard:
     10:
     0.461,0.478,0.216,0.066,0.042: // measure 1
0000
0000
0000
0000
,  // measure 2
0000
0000
0000
0000
,  // measure 3
0000
0000
0000
0000
,  // measure 4
0000
0000
0000
0000
,  // measure 5
0000
0000
0010
0000
0100
0000
0000
0000
0010
0000
0000
0010
0000
0000
0010
0000
,  // measure 6
0000
1000
0010
0000
0100
0000
0001
0010
,  // measure 7
0200
0000
0000
1000
2000
0000
0000
3300
,  // measure 8
0002
0000
0200
0303
,  // measure 9
0100
0001
0010
0100
,  // measure 10
0001
0010
1000
0010
,  // measure 11
1000
0100
0010
1000
,  // measure 12
1000
0100
0001
0100
,  // measure 13
0010
0000
0100
0000
0001
1000
0001
0000
,  // measure 14
0010
0000
0100
0000
0010
0100
0010
0000
,  // measure 15
0001
0010
0100
1000
,  // measure 16
1000
0000
0000
0100
0000
0000
1000
0000
0000
0010
0000
0000
0100
0000
0100
0000
,  // measure 17
0001
0101
1000
1100
,  // measure 18
0001
1000
0001
0000
1000
0001
1000
0000
,  // measure 19
0010
0001
0100
0010
,  // measure 20
0001
0100
1000
0010
,  // measure 21
0100
0110
0010
1001
,  // measure 22
1000
1100
0001
0101
,  // measure 23
1000
0100
1000
0000
0001
0010
0001
0000
,  // measure 24
0001
0010
0000
0100
0000
1100
0000
0100
,  // measure 25
0100
0000
0010
0000
0001
0100
1000
0000
,  // measure 26
0010
0000
0100
0000
0010
0100
0010
0000
,  // measure 27
1000
0000
0100
0000
0010
1000
0100
0000
,  // measure 28
1000
0100
0010
0001
,  // measure 29
1100
0100
0001
0010
,  // measure 30
0100
0010
0001
0100
,  // measure 31
0010
0100
0010
0000
1000
0001
1000
0000
,  // measure 32
1000
0010
0001
0100
0000
1000
0000
0000
,  // measure 33
0001
0110
1000
0110
,  // measure 34
0001
1000
0001
0000
1000
0001
1000
0000
,  // measure 35
1000
0100
0001
0010
,  // measure 36
0001
0100
1000
0010
,  // measure 37
0100
0000
1001
0000
0010
0100
0010
0000
,  // measure 38
0010
0000
1001
0000
1000
0100
0010
0000
,  // measure 39
0001
0100
0010
0001
,  // measure 40
0100
1000
0010
0100
,  // measure 41
0001
0000
0000
0010
0000
0000
0100
0000
1000
0000
0000
0010
0000
0000
0100
0000
,  // measure 42
0010
0000
0000
1000
0000
0000
0010
0000
2000
0000
0000
0000
3000
0000
0000
0000
,  // measure 43
0001
0000
0101
0000
0100
0100
0100
0000
,  // measure 44
1000
0010
0001
0010
,  // measure 45
1000
0100
1000
0000
0001
0010
0001
0000
,  // measure 46
1000
0010
1000
0000
0001
0100
0001
0000
,  // measure 47
1000
0000
1100
0000
0100
0100
0100
0000
,  // measure 48
1000
0010
0001
0010
,  // measure 49
0001
0010
0001
0000
0001
0100
0001
0000
,  // measure 50
1000
0100
1000
0000
1000
0010
1000
0000
,  // measure 51
0010
0100
0001
0000
0010
0000
0100
0000
,  // measure 52
0010
0100
1000
0000
0010
0000
0100
0000
,  // measure 53
0001
1100
1000
0101
,  // measure 54
0110
1001
0110
1001
,  // measure 55
1000
0100
0010
0000
0100
0000
1000
0000
,  // measure 56
0001
0100
0010
0000
0100
0000
0001
0000
,  // measure 57
1000
0001
1000
0000
0001
1000
0001
0010
,  // measure 58
0000
0100
1000
0000
0000
0100
0000
0100
,  // measure 59
0001
0010
0100
1000
0010
1000
0100
0000
,  // measure 60
0010
0001
0100
0001
0010
0100
1000
0000
,  // measure 61
0001
1000
0100
0000
1000
0001
0010
0000
,  // measure 62
0100
0110
0010
0110
,  // measure 63
0001
0010
0100
0000
1000
0001
1000
0000
,  // measure 64
1000
0010
0100
0000
0001
0100
0001
0000
,  // measure 65
0100
0010
1000
0001
0010
0100
1000
0001
,  // measure 66
1000
0000
0000
0001
0000
0000
1000
0000
0000
0001
0000
0000
1000
0000
0010
0000
,  // measure 67
0100
0001
0100
0100
0010
0010
1000
1000
,  // measure 68
0001
0000
0000
0010
0000
0000
2002
0000
0000
0000
0000
0000
0000
0000
0000
0000
,  // measure 69
3003
0000
0000
0000
;
