#TITLE:Happy Happy;
#SUBTITLE:;
#ARTIST:ki☆ki;
#TITLETRANSLIT:;
#SUBTITLETRANSLIT:;
#ARTISTTRANSLIT:ki*ki;
#GENRE:;
#CREDIT:yamamoto_;
#MENUCOLOR:;
#METERTYPE:DDR X;
#BANNER:Happy Happy.png;
#BACKGROUND:Happy Happy-bg.png;
#LYRICSPATH:;
#CDTITLE:;
#MUSIC:Happy Happy.mp3;
#OFFSET:-0.395;
#SAMPLESTART:44.703;
#SAMPLELENGTH:15.000;
#SELECTABLE:YES;
#LISTSORT:;
#DISPLAYBPM:130.000;
#BPMS:0.000=130.000;
#STOPS:;
#BGCHANGES:;
#ATTACKS:;

//---------------dance-single - yamamoto_----------------
#NOTES:
     dance-single:
     yamamoto_:
     Beginner:
     1:
     0.091,0.127,0.041,0.071,0.000: // measure 1
0000
0000
0000
0000
,  // measure 2
0000
0000
0000
0000
,  // measure 3
0000
0000
0000
0000
,  // measure 4
0000
0000
0000
0000
,  // measure 5
2000
0000
0000
3000
,  // measure 6
1000
0000
0000
0000
,  // measure 7
0002
0000
0000
0003
,  // measure 8
0001
0000
0000
0000
,  // measure 9
0100
0000
0000
0000
,  // measure 10
0100
0000
0000
0000
,  // measure 11
0010
0000
0000
0000
,  // measure 12
0010
0000
0000
0000
,  // measure 13
1000
0000
0000
0000
,  // measure 14
1000
0000
0000
0000
,  // measure 15
0001
0000
0000
0000
,  // measure 16
0001
0000
0000
0000
,  // measure 17
0001
0000
0000
0000
,  // measure 18
0010
0000
0000
0000
,  // measure 19
1000
0000
0000
0000
,  // measure 20
0010
0000
0000
0000
,  // measure 21
0010
0000
0000
0000
,  // measure 22
0100
0000
0000
0000
,  // measure 23
1000
0000
0000
0000
,  // measure 24
0001
0000
0000
0000
,  // measure 25
1001
0000
0000
0000
,  // measure 26
1000
0000
0000
0000
,  // measure 27
0110
0000
0000
0000
,  // measure 28
0010
0000
0000
0000
,  // measure 29
1001
0000
0000
0000
,  // measure 30
0001
0000
0000
0000
,  // measure 31
0110
0000
0000
0000
,  // measure 32
0100
0000
0000
0000
,  // measure 33
1000
0000
0001
0000
,  // measure 34
1000
0000
0000
0000
,  // measure 35
1000
0000
0001
0000
,  // measure 36
1000
0000
0000
0000
,  // measure 37
0100
0000
0001
0000
,  // measure 38
0100
0000
0000
0000
,  // measure 39
0100
0000
0010
0000
,  // measure 40
0100
0000
0000
0000
,  // measure 41
0100
0000
0100
0000
,  // measure 42
0200
0000
0000
0300
,  // measure 43
0100
0000
0000
0000
,  // measure 44
0002
0000
0000
0003
,  // measure 45
0001
0000
0000
0000
,  // measure 46
0020
0000
0000
0030
,  // measure 47
0010
0000
0000
0000
,  // measure 48
0020
0000
0000
0030
,  // measure 49
0010
0000
0000
0000
,  // measure 50
0002
0000
0000
0003
,  // measure 51
0001
0000
0000
0000
;

//---------------dance-single - yamamoto_----------------
#NOTES:
     dance-single:
     yamamoto_:
     Easy:
     3:
     0.148,0.180,0.051,0.152,0.000: // measure 1
0000
0000
0000
0000
,  // measure 2
0000
0000
0000
0000
,  // measure 3
0000
0000
0000
0000
,  // measure 4
0000
0000
0000
0000
,  // measure 5
2000
0000
0000
3000
,  // measure 6
2000
0000
0000
3000
,  // measure 7
0002
0000
0000
0003
,  // measure 8
0002
0000
0000
0003
,  // measure 9
0100
0000
0100
0000
,  // measure 10
0100
0000
0100
0000
,  // measure 11
0010
0000
0010
0000
,  // measure 12
0010
0000
0010
0000
,  // measure 13
1000
0000
1000
0000
,  // measure 14
1000
0000
1000
0000
,  // measure 15
0001
0000
0001
0000
,  // measure 16
0001
0000
0001
0000
,  // measure 17
0001
0010
0001
0000
,  // measure 18
0010
0000
0000
0000
,  // measure 19
1000
0010
1000
0000
,  // measure 20
0010
0000
0000
0000
,  // measure 21
0010
0100
0010
0000
,  // measure 22
0100
0000
0000
0000
,  // measure 23
1000
0001
1000
0000
,  // measure 24
0001
0000
0000
0000
,  // measure 25
1001
0000
0000
0000
,  // measure 26
1000
0001
0000
0000
,  // measure 27
0110
0000
0000
0000
,  // measure 28
0010
0100
0000
0000
,  // measure 29
1001
0000
0000
0000
,  // measure 30
0001
1000
0000
0000
,  // measure 31
0110
0000
0000
0000
,  // measure 32
0100
0010
0000
0000
,  // measure 33
1000
0100
0001
0010
,  // measure 34
1000
0000
0000
0000
,  // measure 35
1000
0010
0001
0100
,  // measure 36
1000
0000
0000
0000
,  // measure 37
0100
0010
0001
0010
,  // measure 38
0100
0000
0000
0000
,  // measure 39
0100
1000
0010
1000
,  // measure 40
0100
0000
0000
0000
,  // measure 41
0100
0100
0100
0100
,  // measure 42
0200
0000
0000
0300
,  // measure 43
0020
0000
0000
0030
,  // measure 44
0002
0000
0000
0003
,  // measure 45
2000
0000
0000
3000
,  // measure 46
0020
0000
0000
0030
,  // measure 47
0200
0000
0000
0300
,  // measure 48
0020
0000
0000
0030
,  // measure 49
2000
0000
0000
3000
,  // measure 50
0002
0000
0000
0003
,  // measure 51
2002
0000
0000
3003
;

//---------------dance-single - yamamoto_----------------
#NOTES:
     dance-single:
     yamamoto_:
     Medium:
     6:
     0.300,0.333,0.203,0.000,0.000: // measure 1
0000
0000
0000
0000
,  // measure 2
0000
0000
0000
0000
,  // measure 3
0000
0000
0000
0000
,  // measure 4
0000
0000
0000
0000
,  // measure 5
1000
0100
0010
0001
,  // measure 6
1000
0100
0010
0001
,  // measure 7
1000
0010
0100
0001
,  // measure 8
1000
0010
0100
0001
,  // measure 9
1001
0001
0001
0001
,  // measure 10
1000
1100
0001
0101
,  // measure 11
1001
1000
1000
1000
,  // measure 12
1000
1010
0001
0011
,  // measure 13
0110
0100
0100
0100
,  // measure 14
0010
0011
0001
0101
,  // measure 15
1001
1000
1000
1000
,  // measure 16
0001
0011
1000
1010
,  // measure 17
0010
0100
0001
1000
,  // measure 18
0100
0010
0001
1000
,  // measure 19
0100
0010
0100
1000
,  // measure 20
0001
1000
0010
0100
,  // measure 21
0001
0100
0010
1000
,  // measure 22
0001
0010
0100
1000
,  // measure 23
0010
1000
0100
0010
,  // measure 24
0001
1000
0100
1000
,  // measure 25
1001
0100
0010
0100
,  // measure 26
1001
0010
0100
0010
,  // measure 27
0001
0010
0100
0100
,  // measure 28
0010
0001
0100
1000
,  // measure 29
0010
0100
0010
0010
,  // measure 30
1000
0100
0010
0010
,  // measure 31
0001
0010
0100
1000
,  // measure 32
0001
0010
0100
1000
,  // measure 33
1001
1000
0100
1000
,  // measure 34
0001
0100
0001
0100
,  // measure 35
0101
0100
0001
0100
,  // measure 36
0001
0010
0100
1000
,  // measure 37
1010
1000
0100
1000
,  // measure 38
0010
0100
0001
1000
,  // measure 39
0100
0010
0100
1000
,  // measure 40
0001
1000
0001
0100
,  // measure 41
0010
0010
0010
0010
,  // measure 42
1000
0100
0001
0010
,  // measure 43
1000
0100
0001
0010
,  // measure 44
1000
0100
0010
0001
,  // measure 45
1000
0100
0010
0001
,  // measure 46
1000
0010
0001
0100
,  // measure 47
1000
0010
0001
0100
,  // measure 48
1000
0010
0100
0001
,  // measure 49
1000
0010
0100
0001
,  // measure 50
1000
1000
1000
1000
,  // measure 51
1001
1001
1001
0000
;

//---------------dance-single - yamamoto_----------------
#NOTES:
     dance-single:
     yamamoto_:
     Hard:
     9:
     0.340,0.357,0.182,0.000,0.000: // measure 1
0000
0000
0000
0000
,  // measure 2
0000
0000
0000
0000
,  // measure 3
0000
0000
0000
0000
,  // measure 4
0000
0000
0000
0000
,  // measure 5
1000
0100
1000
0000
0100
0001
0100
0000
,  // measure 6
0001
0010
0001
0000
0010
1000
0010
0000
,  // measure 7
1000
0100
1000
0000
0001
0100
0001
0000
,  // measure 8
1000
0010
1000
0000
0001
0010
0001
0000
,  // measure 9
0001
0010
0100
1000
,  // measure 10
0001
0101
1000
1100
,  // measure 11
1000
0010
0100
0001
,  // measure 12
0001
0011
1000
1010
,  // measure 13
0001
1000
0100
0010
,  // measure 14
0001
0011
1000
1100
,  // measure 15
0001
1000
0010
0100
,  // measure 16
0001
0101
1000
1010
,  // measure 17
0010
1000
0010
0000
1000
0010
1000
0000
,  // measure 18
0010
0100
0001
1000
0100
0000
0000
0000
,  // measure 19
0010
0001
0010
0000
0001
0010
0001
0000
,  // measure 20
0010
0100
1000
0010
1000
0000
0000
0000
,  // measure 21
1000
0001
1000
0000
0001
1000
0001
0000
,  // measure 22
1000
0010
0100
0001
0100
0000
0000
0000
,  // measure 23
0001
0100
0001
0000
1000
0100
1000
0000
,  // measure 24
1000
1100
0101
0000
,  // measure 25
1000
0000
0001
1000
0100
0000
0000
0000
,  // measure 26
1000
0000
0001
1000
0010
0000
0000
0000
,  // measure 27
1000
0010
0100
0001
1000
0000
0000
0000
,  // measure 28
0001
0010
0100
1000
0010
0000
0000
0000
,  // measure 29
1000
0000
0100
0010
0001
0000
0000
0000
,  // measure 30
0001
0000
0100
0010
1000
0000
0000
0000
,  // measure 31
1000
0100
1000
0010
1000
0000
0000
0000
,  // measure 32
0100
0010
0001
0010
0001
0000
0000
0000
,  // measure 33
0001
0010
0100
1000
0001
0000
1000
0000
,  // measure 34
1100
0000
0101
0000
,  // measure 35
1000
0010
0100
0001
1000
0000
0001
0000
,  // measure 36
0001
0000
1100
0000
,  // measure 37
0001
1000
0100
0010
0001
0000
1000
0000
,  // measure 38
0010
0000
0101
0000
,  // measure 39
0001
0010
0100
1000
0001
0000
0010
0000
,  // measure 40
1000
0100
0001
0010
,  // measure 41
0110
0000
0000
0000
,  // measure 42
1000
0100
1000
0000
0100
0001
0100
0000
,  // measure 43
0001
0010
0001
0000
0010
1000
0010
0000
,  // measure 44
1000
0100
1000
0000
0001
0100
0001
0000
,  // measure 45
1000
0010
1000
0000
0001
0010
0001
0000
,  // measure 46
0001
0010
0100
1000
0001
0000
1000
0000
,  // measure 47
1000
0010
0100
0001
0100
0000
0100
0000
,  // measure 48
0100
0010
1000
0001
0010
0000
0010
0000
,  // measure 49
0011
0000
0000
0010
0000
0000
0000
0000
,  // measure 50
1001
0000
0000
1000
0000
0000
0000
0000
,  // measure 51
0110
0000
0000
0010
0000
0000
0000
0000
;
