#TITLE:ヒャダインのカカカタ☆カタオモイ-C;
#SUBTITLE:;
#ARTIST:ヒャダイン;
#TITLETRANSLIT:HYADAIN NO KAKAKATA KATAOMOI-C;
#SUBTITLETRANSLIT:;
#ARTISTTRANSLIT:HYADAIN;
#GENRE:;
#CREDIT:Chewi☆;
#MENUCOLOR:#FFFF00;
#METERTYPE:DDR X;
#BANNER:HYADAIN NO KAKAKAKA KATAOMOI-C.png;
#BACKGROUND:HYADAIN NO KAKAKAKA KATAOMOI-C-bg.png;
#LYRICSPATH:;
#CDTITLE:./CDTITLES/Zenius -I- vanisher SUMMER CONTEST 2011.png;
#MUSIC:HYADAIN NO KAKAKAKA KATAOMOI-C.mp3;
#OFFSET:-1.267;
#SAMPLESTART:53.936;
#SAMPLELENGTH:15.000;
#SELECTABLE:YES;
#LISTSORT:;
#DISPLAYBPM:45.000:180.000;
#BPMS:0.000=180.000,92.000=45.000,93.000=90.000,123.000=180.000;
#STOPS:;
#BGCHANGES:;
#ATTACKS:;

//---------------dance-single - Chewi----------------
#NOTES:
     dance-single:
     Chewi:
     Beginner:
     2:
     0.090,0.094,0.011,0.000,0.000:
0000
0000
0000
0000
,
0000
0000
0000
0000
,
0000
0000
0000
0000
,
0000
0000
0000
0000
,
1000
0000
0000
0000
,
0100
0000
0000
0000
,
0010
0000
0000
0000
,
0001
0000
0000
0000
,
1000
0000
0000
0000
,
0001
0000
0000
0000
,
0100
0000
0000
0000
,
0010
0000
0000
0000
,
1000
0000
0000
0000
,
0001
0000
0000
0000
,
0010
0000
0000
0000
,
0100
0000
0000
0000
,
0010
0000
0000
0000
,
0001
0000
0000
0000
,
1000
0000
0000
0000
,
0010
0000
0000
0000
,
0100
0000
0000
0000
,
0001
0000
0000
0000
,
0100
0000
0000
0000
,
0010
0010
0000
0000
,
0000
0100
0000
0000
,
0000
1000
0000
0000
,
0000
0001
0000
0000
,
0000
0010
0000
0000
,
0000
0100
0000
0000
,
0000
0010
0000
0000
,
0000
0001
0000
0001
,
0000
0000
0000
1000
,
0000
0000
0000
1000
,
0000
0000
0000
0001
,
0000
0000
0000
0001
,
0000
0000
0000
0100
,
0000
0000
0000
0100
,
0000
0000
0000
0010
,
0000
0000
0000
0010
,
0000
0000
0000
1001
,
0000
0000
0000
1000
,
0000
0000
0000
0001
,
0000
0000
0000
0100
,
0000
0000
0000
0010
,
0000
0000
0000
1000
,
0000
0000
0000
0001
,
0000
0000
0000
0010
,
0000
0000
0000
0100
,
0000
0000
0000
1000
,
0000
0000
0000
0010
,
0000
0000
0000
0001
,
0000
0000
0000
0100
,
0000
0000
0000
0001
,
0000
0000
0000
0010
,
0000
0000
0000
1000
,
0000
0000
0000
1000
,
1000
0000
0000
0000
;

//---------------dance-single - Chewi----------------
#NOTES:
     dance-single:
     Chewi:
     Easy:
     4:
     0.200,0.255,0.045,0.022,0.000:
0000
0000
0000
0000
,
0000
0000
0000
0000
,
0000
0000
0000
0000
,
0000
0000
0000
0000
,
1000
0000
0100
0000
,
0001
0000
0010
0000
,
0001
0000
0100
0000
,
1000
0000
0010
0000
,
0110
0000
0100
0000
,
0010
0000
0100
0000
,
1000
0000
0001
0000
,
1000
0000
0001
0000
,
1000
0000
0100
0000
,
0010
0000
1000
0000
,
0100
0000
0001
0000
,
0010
0000
0100
0000
,
0001
0001
0001
0000
,
1000
0000
0100
0000
,
0010
0010
0010
0000
,
0100
0000
1000
0000
,
0001
0001
0001
0000
,
1000
0000
0010
0000
,
0100
0000
0001
0000
,
1001
1000
0000
0100
,
0000
0010
0000
0001
,
0000
0100
0000
0010
,
0000
1000
0000
0001
,
0000
1000
0000
0100
,
0000
0001
0000
0010
,
0000
0001
0000
0100
,
0000
1000
0000
0010
,
0010
0010
0010
0010
,
0000
0100
0000
0001
,
0000
1000
0000
0001
,
0000
0010
0000
0100
,
0000
1000
0000
0010
,
0000
1000
0000
0001
,
0000
0100
0000
0100
,
0000
0001
0000
1000
,
0000
0010
0000
1000
,
1000
1000
0000
0001
,
0000
0010
0000
0100
,
0100
0100
0000
0010
,
0000
0001
0000
1000
,
1000
0001
0001
1000
,
0001
1001
0000
1000
,
0000
0010
0000
0001
,
0000
0100
0000
0100
,
0100
0100
0000
0010
,
0000
1000
0000
0001
,
0001
0001
0000
1000
,
0000
0100
0000
0010
,
0010
0010
0000
0001
,
0000
0001
0000
1000
,
1000
1000
0000
0010
,
0000
0100
0000
0000
,
0220
0000
0000
0000
,
0330
0000
0000
0000
;

//---------------dance-single - Chewi----------------
#NOTES:
     dance-single:
     Chewi:
     Medium:
     8:
     0.382,0.415,0.179,0.056,0.000:
0000
0000
0000
0000
,
0000
0000
0000
0000
,
0000
0000
0000
0000
,
0000
0000
0000
0000
,
1000
0000
0100
0000
1000
0100
1000
0000
,
0001
0000
0010
0000
0001
0010
0001
0000
,
1000
0000
0001
0000
0001
1000
0100
0010
,
0000
0100
0000
0010
0000
0001
0010
0100
,
1000
0010
0100
0001
,
0100
0010
1000
0001
,
1000
0100
0010
0001
,
1000
0100
0001
0100
,
1000
0010
0100
0001
,
1000
0100
0010
0001
,
1000
0010
0100
0001
,
0010
0100
1000
0001
,
1100
0010
0001
0100
,
0010
0010
0100
0100
,
0001
0010
1100
0010
,
0010
1000
1000
0010
,
1100
0010
0101
0100
,
0010
1000
0001
0010
,
0100
1000
0001
1000
,
2020
3030
1000
0010
0001
0000
1000
0000
,
0100
0000
1000
0100
0001
0000
1000
0000
,
0010
0000
0001
0100
0001
0000
0100
0000
,
0010
0000
0100
1000
0010
0000
0100
0000
,
0000
0001
0001
0000
0000
1000
1000
0000
,
0000
0100
0100
0000
0001
0000
1000
0000
,
0000
0100
0010
1000
,
0001
0000
0001
0010
0100
1000
0100
0000
,
1000
0000
0010
0000
0100
0001
0000
0000
,
0100
0010
1000
0001
,
0010
0000
0100
0000
0010
0001
0000
0000
,
0100
1000
0010
1000
,
0100
0000
0001
0000
0010
0100
0010
0000
,
0100
0010
0011
0010
,
1010
0000
0100
0000
0100
0010
0001
0000
,
0001
0101
1000
1010
,
1000
0100
0001
1001
,
0000
1010
0000
1000
,
0010
0001
0010
1010
,
0000
1100
0000
1000
,
0100
0001
0100
0010
,
0000
1000
0000
0000
0001
0000
0000
0000
,
0010
0100
0010
0000
0000
0000
0100
0000
,
0010
0001
0100
2000
,
0000
0000
3000
0010
,
0100
0000
0001
1000
0100
0000
0010
0000
,
0100
0000
1000
0001
0100
0000
0010
0000
,
1100
0010
0101
1000
,
0010
0001
0100
1000
,
0100
0000
0001
1000
0001
0000
1000
0000
,
0010
0000
1000
0001
1000
0000
0001
0000
,
0010
0000
0100
0010
0100
0010
0000
0010
,
0000
0001
0000
0100
0010
0100
0000
0000
,
2002
0000
0000
0000
,
3003
0000
0000
0000
;

//---------------dance-single - Chewi----------------
#NOTES:
     dance-single:
     Chewi:
     Hard:
     11:
     0.601,0.925,0.257,0.437,0.022:
0000
0000
0000
0000
,
0000
0000
0000
0000
,
0000
0000
0000
0000
,
0000
0000
0000
0000
,
0000
0000
0000
0000
0100
0010
0001
0020
,
0000
0230
0000
2300
0000
3010
0000
0110
,
0000
0000
0000
0000
0000
0100
0010
2000
,
0000
3002
0000
0023
0000
0130
0010
0001
,
0100
0000
1000
0000
0100
1000
0001
0000
,
0100
0000
0001
0000
0100
0001
1000
0000
,
0010
0100
0010
0000
1000
0200
0000
0320
,
0000
0230
0000
0320
0000
0031
0100
0010
,
0010
0100
0001
0100
0010
0100
0001
0000
,
0100
1000
0100
0010
0100
1000
0010
0000
,
0100
0010
1000
0001
0010
0100
0010
0000
,
0100
0001
0100
0000
0010
0100
0010
0000
,
0101
0000
1100
0000
0101
0000
1000
0100
,
0000
1000
0100
0010
0001
1000
0100
0010
,
0011
0000
1010
0000
0011
0000
0001
0010
,
0000
0001
0100
0010
1000
0001
0100
0010
,
0110
0000
1001
0000
1010
0000
1000
0010
,
0000
0010
1000
0100
0010
0001
0010
0100
,
0010
0100
0000
0100
0000
0100
0010
0001
,
0000
0000
1000
0010
0000
0000
0010
0000
0100
0001
0000
0000
0001
0000
0000
0000
0000
0000
0010
0000
0000
0000
0000
0000
0100
0000
0000
0000
0000
0000
1000
0000
0000
0000
0000
0000
0100
0000
0000
0000
0000
0000
0010
0000
0000
0000
0000
0000
,
0001
1000
0020
0032
0023
2030
3020
0032
,
0023
2030
3100
0010
0001
0010
0100
0010
,
0001
0100
0020
0230
0302
2003
3020
2030
,
3002
0023
0130
0011
0101
0100
0010
1010
,
1100
1000
0001
0100
0010
1001
0010
1100
,
1100
0000
0011
0100
1010
0100
0110
1000
,
0001
0010
1200
0000
2300
0000
3020
0000
,
0100
0000
1000
0000
0130
1000
0000
0010
,
0100
0001
0000
0010
0100
1000
0000
0010
,
0100
0010
0000
1000
0100
0010
0000
0001
,
0010
0100
0000
1000
0001
1000
0000
0001
,
1000
0001
0000
0010
0010
0010
0000
0100
,
0010
0100
0000
0001
0010
0100
0000
1000
,
0100
0010
0000
0001
0010
0001
0000
1000
,
0100
1000
0000
0001
0100
1000
0000
0010
,
0100
0010
0000
0010
0010
0100
0000
0100
,
0010
1000
0000
0100
0010
0001
0000
1000
,
0100
0010
0000
0001
1000
0010
0000
1000
,
0001
0010
0000
0100
0010
0001
0000
0100
,
0010
1000
0000
0001
1000
0001
0010
0100
,
0010
0100
0010
0001
0100
0010
0000
0100
,
0010
0100
0000
0010
1000
0100
0000
0010
,
0001
0100
0000
0010
0010
0020
0000
0000
,
0000
0000
0030
0000
0100
0010
0100
0000
,
0000
0000
0010
1000
0100
2000
0000
3020
,
0000
0230
0000
0301
0000
0100
0001
0010
,
0001
0010
0100
1000
0100
1000
0010
0100
,
0010
0100
0001
0100
0001
0100
0010
1000
,
0001
0000
0010
0100
0010
0002
0000
0023
,
0000
0230
0000
1300
0010
0200
0000
0000
,
0300
0000
0001
1000
0100
0010
0000
0011
,
0000
0101
0000
0001
0010
0200
0000
0000
,
0020
0000
0000
0000
,
0330
0000
0000
0000
;

//---------------dance-double - Chewi----------------
#NOTES:
     dance-double:
     Chewi:
     Easy:
     4:
     0.249,0.319,0.078,0.022,0.000:
00000000
00000000
00000000
00000000
,
00000000
00000000
00000000
00000000
,
00000000
00000000
00000000
00000000
,
00000000
00000000
00000000
00000000
,
00000001
00000000
00000100
00000000
,
00001000
00000000
00000010
00000000
,
00001000
00000000
00000100
00000000
,
00010000
00000000
00011000
00000000
,
00001000
00010000
01000000
00000000
,
10000000
00100000
00010000
00000000
,
00010000
00100000
01000000
00000000
,
10000000
01000000
00010000
00000000
,
00100000
00010000
01000000
00000000
,
00001000
00010000
00001000
00000000
,
00000010
00001000
00000100
00000000
,
00000010
00000100
00000010
00000000
,
00000100
00000010
00000110
00000000
,
00000001
00000001
00001000
00001000
,
00000001
00001000
00001001
00000000
,
00000100
00000100
00000010
00000010
,
00000100
00001000
00011000
00000000
,
00010000
00010000
00001000
00001000
,
00001000
00000000
00010000
00000000
,
00011000
00010000
00000000
10000000
,
00000000
00100000
00100000
01000000
,
01000000
00010000
00000000
00001000
,
00000000
00000010
00000010
00000001
,
00000001
00000100
00000000
00001000
,
00000000
00000100
00001000
00010000
,
01000000
00100000
00000000
10000000
,
00000000
00010000
00100000
01000000
,
01000000
01000000
01000000
01000000
,
00000000
00100000
00000000
00010000
,
00000000
01000000
00000000
00010000
,
00000000
00001000
00000000
00000010
,
00000000
00000001
00000000
00000100
,
00000000
00001000
00000000
00000010
,
00000000
00001000
00000000
00001000
,
00000000
00010000
00000000
01000000
,
00000000
10000000
00000000
00100000
,
00000000
10000000
00000000
01000000
,
00000000
00100000
00000000
00010000
,
00000000
00100000
00000000
00001000
,
00000000
00010000
00000000
00001000
,
00000000
00000000
00000110
00000000
,
00000000
00000000
00000010
00001000
,
00000000
00000010
00000000
00000100
,
00000000
00000000
00000010
00000001
,
00000010
00000001
00000010
00000100
,
00000001
00000100
00000001
00000100
,
00000010
00001000
00000100
00010000
,
00001000
00100000
01000000
10000000
,
01000000
10000000
01000000
00100000
,
00010000
00100000
00010000
00100000
,
01000000
00100000
00010000
00001000
,
00000100
00000010
00000001
00001000
,
00002002
00000000
00000000
00000000
,
00003003
00000000
00000000
00000000
;

//---------------dance-double - Chewi----------------
#NOTES:
     dance-double:
     Chewi:
     Medium:
     8:
     0.385,0.447,0.269,0.022,0.000: // measure 1
00000000
00000000
00000000
00000000
,  // measure 2
00000000
00000000
00000000
00000000
,  // measure 3
00000000
00000000
00000000
00000000
,  // measure 4
00000000
00000000
00000000
00000000
,  // measure 5
00100000
00010000
01000000
00010000
,  // measure 6
00100000
00001000
00010000
00000100
,  // measure 7
00000010
00000000
00000001
00000000
00000010
00000100
00000010
00000100
,  // measure 8
00000000
00001000
00000000
00000001
00000000
00001000
00000010
00001000
,  // measure 9
00000010
00001000
00000100
00001000
,  // measure 10
00000010
00000100
00000001
00001000
,  // measure 11
00000100
00010100
00010000
00011000
,  // measure 12
00001000
00101000
00100000
01100000
,  // measure 13
01000000
10000000
00100000
01000000
,  // measure 14
00010000
00100000
01000000
00100000
,  // measure 15
00010000
00110000
00010000
00010100
,  // measure 16
00000100
00001100
00001000
00001001
,  // measure 17
00000100
00000010
00001000
00000000
,  // measure 18
00000001
00000010
00000100
00001000
,  // measure 19
00000010
00001000
00001001
00000000
,  // measure 20
00000100
00000100
00010000
00010000
,  // measure 21
00001000
00010000
01010000
00000000
,  // measure 22
01000000
01000000
00100000
00100000
,  // measure 23
10000000
00010000
00000000
00100000
00000000
01000000
00100000
01000000
,  // measure 24
00000000
00010000
00100000
00010000
,  // measure 25
00001000
00000010
00001000
00000010
,  // measure 26
00000001
00000100
00001000
00000100
,  // measure 27
00010000
00001000
00010000
01000000
,  // measure 28
00100000
00000000
00010000
00010000
00010000
00000000
10000000
10000000
,  // measure 29
10000000
00100000
01000000
10010000
,  // measure 30
00100000
01000000
00010000
00100000
,  // measure 31
00001000
00011000
00001010
00001001
,  // measure 32
00000101
00000000
00001001
00000000
00000010
00001000
00000000
00000000
,  // measure 33
00000001
00000010
00000100
00001000
,  // measure 34
00000010
00000000
00000100
00000000
00000001
00000100
00000000
00000000
,  // measure 35
00000010
00001000
00000100
00010000
,  // measure 36
00001000
00000000
00100000
00000000
00010000
00100000
00000000
00000000
,  // measure 37
01000000
10000000
00100000
01000000
,  // measure 38
00010000
00000000
01000000
00000000
00100000
01000000
00000000
00000000
,  // measure 39
00010000
00100000
00001000
00010000
,  // measure 40
00000100
00000000
00001000
00000000
00000001
00001000
00000000
00000000
,  // measure 41
00000010
00001000
00000100
00000001
,  // measure 42
00000010
00000000
00000100
00000000
00001000
00000100
00000000
00000000
,  // measure 43
00010000
00001000
00100000
00010000
,  // measure 44
01000000
00000000
00100000
00000000
10000000
00000000
00010000
10000000
,  // measure 45
00010000
00000000
10000000
00010000
10000000
00000000
00000000
00000000
,  // measure 46
00100000
00100000
01000000
01010000
,  // measure 47
00100000
00110000
01000000
01100000
,  // measure 48
00000000
00000000
00000000
00000000
01000000
00100000
00010000
00000000
,  // measure 49
00000000
00000000
00100000
00001000
00010000
00000100
00000000
00001000
,  // measure 50
00000000
00000010
00000000
00000100
00000000
00000001
00000100
00000000
,  // measure 51
00000010
00001000
00000001
00000010
,  // measure 52
00000100
00001000
00000010
00001000
,  // measure 53
00001100
00000001
00000101
00001000
,  // measure 54
00011000
00010000
00011000
00010000
,  // measure 55
01000000
00000000
00100000
10000000
00010000
00100000
00000000
01000000
,  // measure 56
00000000
00100000
00000000
01000000
00100000
01000000
00000000
00000000
,  // measure 57
02200000
00000000
00000000
00000000
,  // measure 58
03300000
00000000
00000000
00000000
;

//---------------dance-double - Chewi----------------
#NOTES:
     dance-double:
     Chewi:
     Hard:
     11:
     0.592,0.925,0.224,0.425,0.022: // measure 1
00000000
00000000
00000000
00000000
,  // measure 2
00000000
00000000
00000000
00000000
,  // measure 3
00000000
00000000
00000000
00000000
,  // measure 4
00000000
00000000
00000000
00000000
,  // measure 5
00000000
00000000
00000000
00000000
00000001
00000100
00000010
00002000
,  // measure 6
00000000
00003200
00000000
00020300
00000000
00031000
00000000
00010000
,  // measure 7
00000000
00000000
00000000
00000000
00000000
00100000
00010000
00002000
,  // measure 8
00000000
00023000
00000000
00032000
00000000
00013000
00010000
01000000
,  // measure 9
10000000
00100000
10000000
00000000
00010000
00100000
00010000
00000000
,  // measure 10
10000000
01000000
10000000
00000000
00010000
01000000
00010000
00000000
,  // measure 11
10000000
01000000
00100000
00000000
00010000
00200000
00000000
02300000
,  // measure 12
00000000
03200000
00000000
00310000
00000000
00001000
00000100
00001000
,  // measure 13
00000001
00000100
00000010
00000000
00001000
00000001
00000010
00000000
,  // measure 14
00000100
00001000
00000010
00000000
00000100
00000001
00000010
00000000
,  // measure 15
00000100
00001000
00000100
00001000
00000100
00010000
00000100
00010000
,  // measure 16
00001000
00010000
00001000
00010000
00001000
00100000
00001000
00100000
,  // measure 17
00010000
00000000
01010000
00000000
01100000
00000000
00100000
10000000
,  // measure 18
00000000
00010000
00100000
01000000
10000000
00100000
10000000
01000000
,  // measure 19
00100000
00000000
01010000
00000000
00110000
00000000
01000000
00100000
,  // measure 20
00000000
00100000
01000000
00100000
00010000
01000000
00010000
00100000
,  // measure 21
00001000
00000000
00011000
00000000
00010100
00000000
00000100
00001000
,  // measure 22
00000000
00001000
00000100
00001000
00000010
00000100
00000001
00000010
,  // measure 23
00000100
00000100
00000000
00000010
00000000
00000001
00000010
00000100
,  // measure 24
00000000
00000000
00001000
00010000
00000000
00000000
00010000
00000000
00001000
00000010
00000000
00000000
00000100
00000000
00000000
00000000
00000000
00000000
00000001
00000000
00000000
00000000
00000000
00000000
00000010
00000000
00000000
00000000
00000000
00000000
00001000
00000000
00000000
00000000
00000000
00000000
00000100
00000000
00000000
00000000
00000000
00000000
00001000
00000000
00000000
00000000
00000000
00000000
,  // measure 25
00000010
00001000
00000200
00020300
00032000
00023000
02030000
03200000
,  // measure 26
02300000
03020000
10030000
01000000
00010000
00100000
00010000
01000000
,  // measure 27
00100000
01000000
00020000
00230000
00302000
00023000
00030200
00002300
,  // measure 28
00003002
00000203
00000310
00000110
00000110
00001000
00000001
00001001
,  // measure 29
00001001
00000001
00000010
00000100
00001000
00000010
00001000
00001100
,  // measure 30
00001100
00001100
00011000
01010000
,  // measure 31
00011000
00110000
10100000
10020000
,  // measure 32
10000000
00000000
10000000
00000000
10030000
00100000
00000000
10000000
,  // measure 33
00100000
01000000
00000000
00010000
00100000
01000000
00000000
00100000
,  // measure 34
00010000
01000000
00000000
00010000
00100000
00001000
00000000
00010000
,  // measure 35
00000100
00001000
00000000
00000001
00000100
00000010
00000000
00001000
,  // measure 36
00000001
00000010
00000000
00000100
00000100
00000100
00000000
00000010
,  // measure 37
00000001
00000100
00000000
00000010
00000100
00000001
00000000
00001000
,  // measure 38
00000100
00000010
00000000
00000100
00001000
00010000
00000000
00001000
,  // measure 39
00010000
01000000
00000000
01000000
00100000
01000000
00000000
00010000
,  // measure 40
10000000
01000000
00000000
00100000
00100000
00100000
00000000
01000000
,  // measure 41
10000000
00100000
00000000
01000000
00010000
00100000
00000000
01000000
,  // measure 42
00100000
00010000
00000000
10000000
00010000
00100000
00000000
00001000
,  // measure 43
00010000
00000100
00000000
00001000
00000001
00000100
00000000
00000010
,  // measure 44
00000100
00000010
00000000
00000001
00001000
00000001
00001000
00000010
,  // measure 45
00001000
00000010
00000100
00000001
00000100
00000010
00000000
00001000
,  // measure 46
00000100
00001000
00000000
00000100
00001000
00000100
00000000
00010000
,  // measure 47
00001000
00010000
00000000
00001000
00010000
00002000
00000000
00000000
,  // measure 48
00000000
00000000
00003000
00000000
00001000
00010000
01000000
00000000
,  // measure 49
00000000
00000000
01000000
00100000
10000000
00020000
00000000
00230000
,  // measure 50
00000000
02300000
00000000
03100000
00000000
00010000
00100000
00001000
,  // measure 51
00010000
00000000
00000100
00001000
00000001
00000200
00000000
00000320
,  // measure 52
00000000
00002030
00000000
00003001
00000010
00000100
00001000
00000000
,  // measure 53
00000010
00000000
00000100
00000010
00000100
00000002
00000000
00000023
,  // measure 54
00000000
00000230
00000000
00001300
00000100
00010000
00001000
00000000
,  // measure 55
00100000
00000000
00010000
00100000
01000000
00100000
00000000
01000000
,  // measure 56
00000000
00100000
00000000
00010000
01000000
00100000
01000000
00010000
,  // measure 57
00220000
00000000
00000000
00000000
,  // measure 58
00330000
00000000
00000000
00000000
;
