#TITLE:学園黙示録;
#SUBTITLE:;
#ARTIST:岸田教団&THE明星ロケッツ;
#TITLETRANSLIT:HIGHSCHOOL OF THE DEAD;
#SUBTITLETRANSLIT:;
#ARTISTTRANSLIT:KYOUDAN KISHIDA & THE AKEBOSHI ROCKETS;
#GENRE:;
#CREDIT:Chewi☆;
#MENUCOLOR:;
#METERTYPE:DDR X;
#BANNER:HIGHSCHOOL OF THE DEAD.png;
#BACKGROUND:HIGHSCHOOL OF THE DEAD-bg.png;
#LYRICSPATH:;
#CDTITLE:;
#MUSIC:HIGHSCHOOL OF THE DEAD.mp3;
#OFFSET:-2.392;
#SAMPLESTART:55.997;
#SAMPLELENGTH:15.000;
#SELECTABLE:YES;
#LISTSORT:;
#BPMS:0.000=190.000;
#STOPS:;
#BGCHANGES:;
#ATTACKS:;

//---------------dance-single - Chewi----------------
#NOTES:
     dance-single:
     Chewi:
     Hard:
     12:
     0.618,0.598,0.504,0.000,0.000:
0000
0000
0000
0000
,
0000
0000
0000
0000
,
0000
0000
0000
0000
,
0000
0000
0000
0000
,
1001
0000
0000
0000
0000
0000
0000
0110
,
0000
0000
0000
1010
0000
0000
0000
0000
,
1001
0000
0000
0000
0000
0000
0000
0011
,
0000
0000
0000
0110
0000
0000
0000
0000
,
1100
1010
1100
1010
,
1000
0100
0010
0001
1000
0100
0010
0001
,
0010
0000
0001
0010
0100
0000
1000
0010
,
0000
1000
0010
0100
0001
0000
0010
0100
,
0000
0010
0100
1000
0001
0100
0010
1010
,
0000
0101
0000
0011
0000
1100
0000
0011
,
0000
0010
0100
1000
0010
0000
0000
1100
,
0000
0100
1000
0010
0100
0000
0000
0101
,
0000
0100
0010
0100
0001
0010
0100
1000
,
0001
1000
0001
1000
0010
1000
0010
0000
,
1010
0100
0001
0010
,
0100
1000
0010
0000
1000
0100
0010
0000
,
0011
0100
1000
0010
,
0100
0010
1000
0000
0001
0010
0100
0000
,
1001
0000
0100
0000
0010
0100
0001
0000
,
0010
0100
1000
0000
0010
0000
1000
0000
,
1100
0011
0010
1100
,
0101
0000
0010
0000
0100
0001
0010
0100
,
1000
0010
1000
0100
1000
0010
1000
0000
,
0100
0010
0001
0100
0010
0100
0001
0000
,
0010
0100
1000
0001
0100
0010
0100
0000
,
0001
0100
0010
1000
0001
0010
0100
0000
,
1000
0010
0100
0010
1000
0100
0010
0000
,
0001
0010
0100
1000
0001
0100
0010
0000
,
1000
0010
0100
0001
0010
0100
1000
1100
,
0000
0000
0011
0000
0000
1001
0000
0000
,
1000
0000
0001
1000
0010
0100
0001
0010
,
0000
0011
0000
1100
1000
0100
1000
0100
,
0010
0001
0001
0010
0100
1000
0010
1000
,
0000
1100
0000
0011
0000
1010
1000
0010
,
0100
0001
0001
0010
0100
1000
0010
1000
,
1000
0100
0010
0001
0100
0010
1000
0001
,
1000
0010
0100
0001
1000
0010
0100
0001
,
0010
0100
1000
0010
0100
0001
0100
0010
,
0000
0000
1010
0000
,
1001
1000
0100
0010
0001
0010
0100
0000
,
1000
0010
0100
0010
1000
0100
0010
0000
,
0001
0010
0100
1000
0001
0010
0100
0000
,
1000
0010
0100
0001
1000
0010
0100
0001
,
0000
0100
0010
1000
0001
0010
0100
0010
,
0000
0100
0010
0001
0100
0010
1000
0001
,
0100
0010
1000
0000
0001
0010
0100
1000
,
0010
0010
1000
1000
0100
0100
0010
0010
,
0011
0010
0100
1000
0010
0100
0010
0000
,
1000
0100
0010
0001
0010
0100
1000
0000
,
0001
1000
0010
0100
0001
1000
0100
0000
,
0010
0001
0010
0100
1000
0010
1000
0100
,
0000
1000
0010
1000
0100
0010
0001
0000
,
0100
0010
0100
0001
0010
0100
1000
0010
,
1000
1000
0100
0010
0001
1000
0010
0100
,
0001
0100
0010
1000
0001
0010
0100
1000
,
1100
0000
0000
0000
0000
0011
0000
1001
,
0000
0000
0000
0000
0000
0101
0000
0110
,
0000
0000
0000
0000
0000
1010
0000
1000
,
0100
0010
0001
0010
0100
1000
0010
1000
,
1100
0000
0000
0000
0000
0110
0000
0011
,
0000
0000
0000
0000
0000
1001
0000
0101
,
0000
0000
0000
0000
0000
0110
0000
1010
,
1000
0100
0010
0100
1000
0010
0100
0001
,
0010
0000
0000
0000
;

//---------------dance-single - Chewi----------------
#NOTES:
     dance-single:
     Chewi:
     Medium:
     8:
     0.377,0.422,0.116,0.042,0.000:
0000
0000
0000
0000
,
0000
0000
0000
0000
,
0000
0000
0000
0000
,
0000
0000
0000
0000
,
1100
0000
0000
0000
0000
0000
0000
0100
,
0000
0000
0000
0010
0000
0000
0000
0000
,
0011
0000
0000
0000
0000
0000
0000
0010
,
0000
0000
0000
0100
0000
0000
0000
0000
,
1000
0100
0010
0001
,
1000
0001
1000
0000
0001
1000
0001
0000
,
1001
1000
0100
0000
,
1001
0001
0100
0000
,
0100
0010
1000
0000
0100
0010
0001
0000
,
0010
0100
1000
0010
,
1010
0100
1000
0000
,
0011
0100
1000
0000
,
0001
1000
0100
0000
1000
0001
0100
0000
,
0010
0000
0100
0000
0001
1000
0100
0000
,
0020
0000
0000
0000
,
0032
0000
0000
0000
,
0013
0100
1000
0010
,
1000
0010
1000
0000
0001
0100
0001
0000
,
0200
0000
0000
0000
,
0320
0000
0000
0000
,
1030
0100
0010
0100
,
1000
0001
1000
0000
0001
1000
0001
0000
,
1000
0010
0000
0000
1000
0010
0000
0000
,
1000
0100
0010
0001
,
0010
0001
0000
0000
0010
0001
0000
0000
,
0010
0100
1000
0001
,
1000
0001
0000
0000
0001
1000
0000
0000
,
0010
0100
0010
1000
,
0010
1000
0000
0000
1000
0001
1000
0100
,
0000
0000
0010
0000
0000
0001
0000
0000
,
0010
0000
0100
0000
1000
0010
1000
0100
,
0000
0010
0000
0001
0000
0000
0000
0000
,
1000
0000
0010
0000
0100
0000
0010
1000
,
0000
0010
0000
0100
0000
0000
0001
0000
,
0001
0001
0001
1000
,
1000
0000
1000
0000
1000
0001
0010
0000
,
0100
0000
1000
0000
0010
0000
1000
0100
,
0000
0010
0001
0000
0010
0010
0010
0000
,
0000
0000
0011
0000
,
1100
0000
1000
0000
0010
0100
0001
0000
,
0100
0010
1000
0001
,
0010
0000
0100
0000
0010
0001
0100
0000
,
0010
0000
1000
0000
0100
0000
0010
0100
,
0000
1000
0010
0000
1000
0000
0100
0000
,
0010
0100
1000
0001
,
0100
0000
0010
0000
0100
0000
0001
0010
,
0000
0100
0000
0010
0000
0001
0010
0000
,
0100
1000
0010
1000
,
0100
0010
0100
1000
,
0001
0100
0010
0000
1000
0100
0010
0000
,
0001
0000
1000
0000
0010
0000
0100
0010
,
0000
0100
0010
0000
1000
0000
0001
0000
,
0010
0100
1000
0010
,
1000
0100
1000
0000
0100
0010
0100
0000
,
0010
0001
0100
0010
,
1010
0000
0000
0000
0000
1000
0000
0010
,
0000
0000
0000
0000
0000
0100
0000
0001
,
0000
0000
0000
0000
0000
0010
0000
0100
,
0000
1000
0010
1000
,
1100
0000
0000
0000
0000
0010
0000
0100
,
0000
0000
0000
0000
0000
1000
0000
0001
,
0000
0000
0000
0000
0000
0100
0000
0010
,
0000
1000
1000
0000
0010
0000
0100
0000
,
0101
0000
0000
0000
;

//---------------dance-single - Chewi----------------
#NOTES:
     dance-single:
     Chewi:
     Beginner:
     4:
     0.176,0.246,0.021,0.126,0.000:
0000
0000
0000
0000
,
0000
0000
0000
0000
,
0000
0000
0000
0000
,
0000
0000
0000
0000
,
1000
0000
0000
0000
,
0000
0000
0000
0000
,
0001
0000
0000
0000
,
0000
0000
0000
0000
,
1000
0000
0001
0000
,
2002
0000
0000
3003
,
1000
0000
1000
0000
,
0001
0000
0001
0000
,
1000
0000
1000
0000
,
0010
0000
0010
0000
,
0010
0000
0010
0000
,
0100
0000
0100
0000
,
0010
0000
0010
0000
,
1000
0000
1000
0000
,
2000
0000
0000
3000
,
0002
0000
0000
0003
,
0200
0000
0000
0300
,
0020
0000
0000
0030
,
0002
0000
0000
0003
,
2000
0000
0000
3000
,
0010
0000
0010
0000
,
0001
0000
0001
0000
,
0010
0000
1000
0000
,
1000
0000
0100
0000
,
0001
0000
0010
0000
,
1000
0000
0010
0000
,
0100
0000
0001
0000
,
0010
0000
1000
0000
,
0001
0000
0010
0000
,
0010
0000
0000
0000
,
0100
0000
1000
0000
,
0010
0000
1000
0000
,
1000
0000
0010
0000
,
1000
0000
0100
0000
,
0001
0000
0001
0000
,
1000
0000
1000
0000
,
0100
0000
0100
0000
,
0010
0000
0001
0000
,
0010
0000
0000
0000
,
2000
0000
0000
3000
,
1000
0000
0001
0000
,
0100
0000
0100
0000
,
0010
0000
0001
0000
,
0020
0000
0000
0030
,
0010
0000
1000
0000
,
1000
0000
0010
0000
,
1000
0000
0010
0000
,
2000
0000
0000
3000
,
1000
0000
0001
0000
,
0010
0000
0001
0000
,
0100
0000
0010
0000
,
0002
0000
0000
0003
,
0001
0000
1000
0000
,
0100
0000
0100
0000
,
1000
0000
0010
0000
,
0100
0000
0000
0000
0000
0000
0000
0100
,
0000
0000
0000
0000
0000
0000
0000
0010
,
0000
0000
0000
0000
0000
0000
0000
1000
,
0001
0000
0000
0000
,
0001
0000
0000
0000
0000
0000
0000
0001
,
0000
0000
0000
0000
0000
0000
0000
0100
,
0000
0000
0000
0000
0000
0000
0000
0010
,
0001
0000
1000
0000
,
1001
0000
0000
0000
;

//---------------dance-single - Chewi----------------
#NOTES:
     dance-single:
     Chewi:
     Easy:
     6:
     0.309,0.352,0.021,0.126,0.000: // measure 1
0000
0000
0000
0000
,  // measure 2
0000
0000
0000
0000
,  // measure 3
0000
0000
0000
0000
,  // measure 4
0000
0000
0000
0000
,  // measure 5
1000
0000
0000
0000
0000
0000
0000
1000
,  // measure 6
0000
0000
0000
1000
0000
0000
0000
0000
,  // measure 7
0001
0000
0000
0000
0000
0000
0000
0001
,  // measure 8
0000
0000
0000
0001
0000
0000
0000
0000
,  // measure 9
1000
0010
0100
0001
,  // measure 10
2002
0000
0000
3003
,  // measure 11
1000
1000
1000
0000
,  // measure 12
0001
0001
0001
0000
,  // measure 13
1000
0001
1000
0001
,  // measure 14
0010
0100
0010
0100
,  // measure 15
0010
0010
0010
0000
,  // measure 16
0100
0100
0100
0000
,  // measure 17
0010
0100
0010
0100
,  // measure 18
1000
0001
1000
0001
,  // measure 19
2000
0000
0000
0000
,  // measure 20
3002
0000
0000
0000
,  // measure 21
0203
0000
0000
0000
,  // measure 22
0320
0000
0000
0000
,  // measure 23
2030
0000
0000
0000
,  // measure 24
3200
0000
0000
0000
,  // measure 25
0310
0010
0010
0010
,  // measure 26
0001
0001
0001
0001
,  // measure 27
0010
0100
1000
0000
,  // measure 28
1000
0010
0100
0000
,  // measure 29
0001
0100
0010
0000
,  // measure 30
1000
0001
0010
0000
,  // measure 31
0100
0010
0001
0000
,  // measure 32
0010
0100
1000
0000
,  // measure 33
0001
1000
0010
0100
,  // measure 34
0010
0000
0000
0000
,  // measure 35
0100
0010
1000
0001
,  // measure 36
0010
0100
1000
0000
,  // measure 37
1000
0100
0010
0001
,  // measure 38
1000
0010
0100
0001
,  // measure 39
0001
0001
0001
0001
,  // measure 40
1000
1000
1000
1000
,  // measure 41
0100
0010
0100
1000
,  // measure 42
0010
0100
0001
0100
,  // measure 43
0010
0000
0000
0000
,  // measure 44
2000
0010
0010
3010
,  // measure 45
0010
0100
0001
1000
,  // measure 46
0100
0010
0100
1000
,  // measure 47
0010
0100
0001
0010
,  // measure 48
0020
0001
0001
0031
,  // measure 49
0010
0100
1000
0010
,  // measure 50
1000
0100
0010
0001
,  // measure 51
1000
0100
0010
0001
,  // measure 52
2000
0001
0100
3001
,  // measure 53
0010
0100
0001
0100
,  // measure 54
0010
1000
0001
0010
,  // measure 55
0100
1000
0010
1000
,  // measure 56
2000
0100
0010
3001
,  // measure 57
0010
0100
1000
0010
,  // measure 58
0100
0001
0100
0010
,  // measure 59
1000
0001
0010
0100
,  // measure 60
0010
0000
0000
0000
0000
0010
0000
0010
,  // measure 61
0000
0000
0000
0000
0000
0100
0000
0100
,  // measure 62
0000
0000
0000
0000
0000
1000
0000
1000
,  // measure 63
0001
0000
0000
0000
,  // measure 64
0001
0000
0000
0000
0000
0001
0000
0001
,  // measure 65
0000
0000
0000
0000
0000
0100
0000
0100
,  // measure 66
0000
0000
0000
0000
0000
0010
0000
0010
,  // measure 67
0001
1000
0100
0010
,  // measure 68
1001
0000
0000
0000
;
