#TITLE:ハートキャッチパラダイス;
#SUBTITLE:;
#ARTIST:工藤真由;
#TITLETRANSLIT:HEARTCATCH PARADISE;
#SUBTITLETRANSLIT:;
#ARTISTTRANSLIT:Kudou Mayu;
#GENRE:;
#CREDIT:Chewi☆;
#MENUCOLOR:;
#METERTYPE:DDR X;
#BANNER:HEARTCATCH PARADISE.png;
#BACKGROUND:HEARTCATCH PARADISE-bg.png;
#LYRICSPATH:;
#CDTITLE:;
#MUSIC:HEARTCATCH PARADISE.mp3;
#OFFSET:-0.463;
#SAMPLESTART:59.728;
#SAMPLELENGTH:15.000;
#SELECTABLE:YES;
#LISTSORT:;
#DISPLAYBPM:164.000;
#BPMS:0.000=164.000;
#STOPS:;
#BGCHANGES:;
#ATTACKS:;

//---------------dance-single - Chewi----------------
#NOTES:
     dance-single:
     Chewi:
     Beginner:
     3:
     0.194,0.230,0.076,0.065,0.000: // measure 1
0000
0000
0000
0000
,  // measure 2
0000
0000
0000
0000
,  // measure 3
0000
0000
0000
0000
,  // measure 4
0000
0000
0000
0000
,  // measure 5
1000
0000
0001
0000
,  // measure 6
0100
0100
0100
0000
,  // measure 7
0010
0000
0100
0000
,  // measure 8
0001
0001
0001
0000
,  // measure 9
1000
0000
0001
0000
,  // measure 10
1000
1000
1000
0000
,  // measure 11
0100
0100
0100
0000
,  // measure 12
0010
0010
0010
0000
,  // measure 13
0001
0000
0001
0000
,  // measure 14
0001
0000
0001
0000
,  // measure 15
0010
0000
0010
0000
,  // measure 16
0010
0000
0010
0000
,  // measure 17
2000
0000
0000
3000
,  // measure 18
1000
0000
0001
0000
,  // measure 19
0002
0000
0000
0003
,  // measure 20
0001
0000
1000
0000
,  // measure 21
0020
0000
0000
0030
,  // measure 22
0010
0000
1000
0000
,  // measure 23
2000
0000
0000
3000
,  // measure 24
1000
0000
0001
0000
,  // measure 25
0001
0000
0010
0000
,  // measure 26
0001
0000
0100
0000
,  // measure 27
0010
0000
1000
0000
,  // measure 28
0010
0000
0001
0000
,  // measure 29
0001
0000
0010
0000
,  // measure 30
0001
0000
0010
0000
,  // measure 31
1000
0000
0010
0000
,  // measure 32
0001
0000
0100
0000
,  // measure 33
1000
0000
1000
0000
,  // measure 34
0100
0000
0100
0000
,  // measure 35
0110
0000
0000
0000
,  // measure 36
0110
0000
0000
0000
,  // measure 37
0010
0000
0010
0000
,  // measure 38
0001
0000
0001
0000
,  // measure 39
1001
0000
0000
0000
,  // measure 40
1001
0000
0000
0000
,  // measure 41
0220
0000
0000
0330
,  // measure 42
0100
0000
0100
0000
,  // measure 43
0100
0000
0100
0000
,  // measure 44
0100
0000
0100
0000
,  // measure 45
0100
0000
0100
0000
,  // measure 46
0110
0000
0100
0000
,  // measure 47
0001
0000
0010
0000
,  // measure 48
0001
0000
1000
0000
,  // measure 49
0001
0000
1000
0000
,  // measure 50
0100
0000
0100
0000
,  // measure 51
0100
0000
0010
0000
,  // measure 52
1000
0000
1000
0000
,  // measure 53
1000
0000
0100
0000
,  // measure 54
1001
0000
1000
0000
,  // measure 55
0010
0000
1000
0000
,  // measure 56
0100
0000
0100
0000
,  // measure 57
0100
0001
0000
0100
,  // measure 58
0010
0000
0100
0000
,  // measure 59
0010
0000
0010
0000
,  // measure 60
0001
0000
1000
0000
,  // measure 61
0001
1000
0001
0000
;

//---------------dance-single - Chewi----------------
#NOTES:
     dance-single:
     Chewi:
     Easy:
     6:
     0.332,0.329,0.130,0.174,0.000: // measure 1
0000
0000
0000
0000
,  // measure 2
0000
0000
0000
0000
,  // measure 3
0000
0000
0000
0000
,  // measure 4
0000
0000
0000
0000
,  // measure 5
2000
0000
3002
0000
,  // measure 6
0103
0100
0100
0100
,  // measure 7
0020
0000
0230
0000
,  // measure 8
0301
0001
0001
0001
,  // measure 9
2000
0000
3002
0000
,  // measure 10
1003
1000
1000
1000
,  // measure 11
0100
0100
0100
0100
,  // measure 12
0010
0010
0010
0010
,  // measure 13
0001
0010
0001
0010
,  // measure 14
0001
0100
0001
0100
,  // measure 15
0010
0100
0010
0100
,  // measure 16
0010
1000
0010
1000
,  // measure 17
2000
0000
0001
0000
,  // measure 18
0001
0100
3001
0000
,  // measure 19
0002
0000
1000
0000
,  // measure 20
1000
0100
1003
0000
,  // measure 21
0020
0000
0100
0000
,  // measure 22
1000
0100
1030
0000
,  // measure 23
2000
0000
0100
0000
,  // measure 24
0001
0100
3001
0000
,  // measure 25
0001
1000
0010
0100
,  // measure 26
0001
1000
0100
0000
,  // measure 27
0010
0100
1000
0000
,  // measure 28
0010
0100
0001
0000
,  // measure 29
0001
0100
0010
1000
,  // measure 30
0001
0100
0010
0000
,  // measure 31
1000
0100
0010
0000
,  // measure 32
0001
0010
0100
0000
,  // measure 33
1000
0001
1000
0001
,  // measure 34
0100
0010
0100
0010
,  // measure 35
0110
0000
0110
0000
,  // measure 36
0110
0000
0110
0000
,  // measure 37
0010
0100
0010
0100
,  // measure 38
0001
1000
0001
1000
,  // measure 39
1001
0000
1001
0000
,  // measure 40
1001
0000
1001
0000
,  // measure 41
0220
0000
0000
0330
,  // measure 42
0100
0010
0100
0001
,  // measure 43
0100
0010
0100
0010
,  // measure 44
0100
0010
0100
1000
,  // measure 45
0100
0010
0100
0010
,  // measure 46
0110
0000
0100
0010
,  // measure 47
0001
1000
0010
0100
,  // measure 48
0001
0100
1000
0100
,  // measure 49
0001
0100
1000
0010
,  // measure 50
0100
0001
0100
0010
,  // measure 51
0100
0001
0010
0100
,  // measure 52
1000
0010
1000
0100
,  // measure 53
1000
0010
0100
0001
,  // measure 54
1001
0000
1000
0100
,  // measure 55
0010
0100
1000
0010
,  // measure 56
0100
0001
0100
0010
,  // measure 57
0100
0001
0010
0100
,  // measure 58
0020
0000
0230
0000
,  // measure 59
0310
0001
0010
0001
,  // measure 60
0002
0000
2003
0000
,  // measure 61
3001
1001
1000
0000
;

//---------------dance-single - Chewi----------------
#NOTES:
     dance-single:
     Chewi:
     Medium:
     10:
     0.461,0.460,0.435,0.065,0.000: // measure 1
0000
0000
0000
0000
,  // measure 2
0000
0000
0000
0000
,  // measure 3
0000
0000
0000
0000
,  // measure 4
0000
0000
0000
0000
,  // measure 5
1001
0000
1001
0000
,  // measure 6
1000
1100
0001
0101
,  // measure 7
0101
0000
0101
0000
,  // measure 8
1000
1010
0001
0011
,  // measure 9
0110
0000
0110
0000
,  // measure 10
0010
0110
0100
0110
,  // measure 11
0010
0001
0010
0001
0000
0010
0000
0001
,  // measure 12
0000
0010
0001
0000
0011
0000
0000
0000
,  // measure 13
0001
0000
1000
0000
0010
0100
0010
0000
,  // measure 14
0100
0000
0010
0000
1000
0010
1000
0000
,  // measure 15
0001
0000
0010
0000
0100
1000
0100
0000
,  // measure 16
1000
0001
1000
0000
0001
1000
0001
0000
,  // measure 17
2000
0010
0100
3010
,  // measure 18
1000
0100
0010
0001
0010
0000
0000
0000
,  // measure 19
0002
0010
0100
0013
,  // measure 20
0001
0100
0010
1000
0010
0000
0000
0000
,  // measure 21
0200
0010
0001
0310
,  // measure 22
0010
0100
0010
0100
0010
0000
0000
0000
,  // measure 23
0020
1000
0100
1030
,  // measure 24
1000
0010
1000
0010
1000
0000
0000
0000
,  // measure 25
1000
0001
1000
0000
0001
0000
1000
0000
,  // measure 26
0001
0010
0100
1000
0100
0000
0000
0000
,  // measure 27
1000
0001
1000
0010
,  // measure 28
0101
1010
0101
0000
,  // measure 29
0001
0100
0001
0000
1000
0000
0100
0000
,  // measure 30
0001
0010
0100
1000
0010
0000
0000
0000
,  // measure 31
1000
0010
0001
0010
,  // measure 32
1001
1001
1001
0000
,  // measure 33
1000
0000
0001
1000
0001
0000
1000
0000
,  // measure 34
0001
0000
1000
0001
1000
0000
0001
0000
,  // measure 35
1100
1100
0001
0001
,  // measure 36
0101
1100
0101
0000
,  // measure 37
1000
0000
0001
0000
1000
0001
1000
0000
,  // measure 38
0001
0000
1000
0000
0001
1000
0001
0000
,  // measure 39
0011
0011
0011
0000
,  // measure 40
1010
1010
1010
0000
,  // measure 41
0220
0000
0000
0330
,  // measure 42
0100
0010
0100
0000
0010
0000
0100
0000
,  // measure 43
0010
0100
0010
0000
0100
0000
0010
0000
,  // measure 44
1000
0010
1000
0000
0001
0000
1000
0000
,  // measure 45
0001
0010
0001
0000
1000
0000
0001
0000
,  // measure 46
1001
0000
0000
0000
1000
0100
1000
0000
,  // measure 47
0100
1100
1000
1100
,  // measure 48
1000
0001
1000
0000
0001
1000
0001
0000
,  // measure 49
0001
0100
0001
0000
0100
0010
1000
0001
,  // measure 50
1000
0000
1010
0000
1000
0001
1000
0000
,  // measure 51
0001
0010
0100
1000
,  // measure 52
0010
1000
0100
0000
1000
0000
0010
0000
,  // measure 53
0100
0001
0010
0000
0001
0100
0010
1000
,  // measure 54
0001
0000
1000
0000
0001
1000
0100
0010
,  // measure 55
0001
0011
1000
1100
,  // measure 56
0001
1000
0001
0000
1000
0001
1000
0000
,  // measure 57
0010
0001
0100
1000
,  // measure 58
0010
1000
0010
0000
1000
0010
1000
0000
,  // measure 59
1010
0000
0101
0000
,  // measure 60
0001
1000
0001
1000
0000
0100
0000
0010
,  // measure 61
0000
0001
0010
0000
0011
0000
0000
0000
;

//---------------dance-single - Chewi----------------
#NOTES:
     dance-single:
     Chewi:
     Hard:
     12:
     0.650,0.693,0.478,0.272,0.054: // measure 1
0000
0000
0000
0000
,  // measure 2
0000
0000
0000
0000
,  // measure 3
0000
0000
0000
0000
,  // measure 4
0000
0000
0000
0000
,  // measure 5
1100
0000
0101
0000
,  // measure 6
1001
1001
0110
0110
,  // measure 7
1010
0000
0101
0000
,  // measure 8
1100
1100
0101
0101
,  // measure 9
1001
0000
1001
0000
,  // measure 10
1100
1100
0011
0011
,  // measure 11
0001
1000
0010
0200
0000
0320
0000
0230
,  // measure 12
0000
0301
0010
0100
1000
0000
1100
0000
,  // measure 13
1000
0001
1000
0001
0100
0010
0100
0010
,  // measure 14
1000
0010
1000
0010
0100
0001
0100
0001
,  // measure 15
1000
0100
0010
0100
1000
0010
0100
0001
,  // measure 16
0100
0000
0010
0000
0100
0000
0001
0000
0100
0001
0100
0001
0100
0001
0100
0001
,  // measure 17
0100
0001
1000
0010
0100
0001
1000
0100
,  // measure 18
0010
0001
0200
0001
0301
0000
0000
0000
,  // measure 19
0001
0100
0010
1000
0001
0010
0100
1000
,  // measure 20
0010
1000
0002
0010
0013
0000
0000
0000
,  // measure 21
0001
0100
0010
1000
0100
0010
0001
0010
,  // measure 22
0100
1000
0002
0100
0103
0000
0000
0000
,  // measure 23
0001
0100
0010
1000
0001
0100
0010
1000
,  // measure 24
0001
0000
1000
0000
0100
0000
0010
0000
0001
0010
0100
1000
0010
0000
0000
0000
,  // measure 25
1000
0010
0100
0010
1000
0100
0010
0001
,  // measure 26
0100
0001
0010
0100
1000
0000
1001
0000
,  // measure 27
2000
0000
3001
0010
0100
1000
0010
0100
,  // measure 28
0001
0010
0100
1000
0100
0000
1100
0000
,  // measure 29
0001
0010
0100
1000
0001
0010
0100
1000
,  // measure 30
0010
0100
0001
0100
0010
0000
1010
0000
,  // measure 31
2000
0000
3010
0100
0001
1000
0010
0100
,  // measure 32
0001
0100
0001
0100
0001
0000
0100
0000
1000
0100
1000
0100
1000
0000
0100
0000
,  // measure 33
0002
0000
1003
0010
0200
0000
0301
0100
,  // measure 34
0010
1000
0001
0010
0100
1000
0010
1000
,  // measure 35
1100
1100
0101
0101
,  // measure 36
0100
0010
1000
0001
0010
0100
1000
0000
,  // measure 37
2000
0000
3010
0100
0001
0010
0100
1000
,  // measure 38
0010
1000
0001
0010
0200
0000
1300
0000
,  // measure 39
0001
1000
0001
1000
0020
0000
1030
0000
,  // measure 40
1000
0001
1000
0001
0200
0000
0310
0000
,  // measure 41
2002
0000
0000
3003
,  // measure 42
1000
0100
0010
0100
1000
0010
1000
0100
,  // measure 43
0020
0001
0100
0031
,  // measure 44
0001
0100
0001
0010
0100
1000
0010
1000
,  // measure 45
0200
0000
1000
0000
0010
0000
1300
0010
,  // measure 46
1010
0000
1000
0000
0100
0010
0001
0010
,  // measure 47
0011
0101
1100
0101
,  // measure 48
0100
0010
0100
0001
0010
0100
1000
0010
,  // measure 49
0100
0001
0100
0010
1000
0001
1000
0001
,  // measure 50
0001
0010
0100
0010
0001
0100
0001
0010
,  // measure 51
0200
1000
0010
1300
,  // measure 52
1000
0010
1000
0100
0010
0001
0100
0001
,  // measure 53
0020
0000
0001
0000
0100
0000
0031
0100
,  // measure 54
0101
0000
0001
0000
0010
0100
1000
0100
,  // measure 55
1100
1010
0011
1010
,  // measure 56
0010
0100
0010
1000
0100
0010
0001
0100
,  // measure 57
0010
1000
0010
1000
0010
0100
0010
0100
,  // measure 58
0110
0000
1001
0000
,  // measure 59
1100
1100
0011
0011
,  // measure 60
0001
0010
0100
2000
0000
3200
0000
2300
,  // measure 61
0000
3010
0100
0001
0202
0000
0303
0000
;
