#TITLE:Great DJ (Calvin Harris Remix);
#SUBTITLE:;
#ARTIST:The Ting Tings;
#TITLETRANSLIT:;
#SUBTITLETRANSLIT:;
#ARTISTTRANSLIT:;
#GENRE:;
#CREDIT:Chewi☆;
#MENUCOLOR:#FFFF00;
#METERTYPE:DDR X;
#BANNER:Great DJ (Calvin Harris Remix).png;
#BACKGROUND:Great DJ (Calvin Harris Remix)-bg.png;
#LYRICSPATH:;
#CDTITLE:./CDTITLES/DanceDanceRevolution skyMIX2 -FREEDOM-.png;
#MUSIC:Great DJ (Calvin Harris Remix).mp3;
#OFFSET:-0.076;
#SAMPLESTART:60.077;
#SAMPLELENGTH:15.000;
#SELECTABLE:YES;
#LISTSORT:;
#DISPLAYBPM:128.000;
#BPMS:0.000=128.000;
#STOPS:;
#BGCHANGES:;
#ATTACKS:;

//---------------dance-single - Chewi----------------
#NOTES:
     dance-single:
     Chewi:
     Beginner:
     2:
     0.152,0.182,0.049,0.033,0.000: // measure 1
0000
0000
0000
0000
,  // measure 2
0000
0000
0000
0000
,  // measure 3
0000
0000
0000
0000
,  // measure 4
0000
0000
0000
0000
,  // measure 5
1000
0000
0100
0000
,  // measure 6
0100
0000
0000
0000
,  // measure 7
0001
0000
0100
0000
,  // measure 8
0100
0000
0000
0000
,  // measure 9
1000
0000
0001
0000
,  // measure 10
1000
0000
0001
0000
,  // measure 11
0010
0010
0010
0010
,  // measure 12
0010
0000
0000
0000
,  // measure 13
0001
0000
0010
0000
,  // measure 14
0010
0000
0000
0000
,  // measure 15
1000
0000
0010
0000
,  // measure 16
0010
0000
0000
0000
,  // measure 17
0001
0000
1000
0000
,  // measure 18
0001
0000
0100
0000
,  // measure 19
0010
0010
0010
0010
,  // measure 20
0010
0000
0000
0000
,  // measure 21
1001
0000
1000
0000
,  // measure 22
1000
1000
1000
0000
,  // measure 23
0001
0000
0100
0000
,  // measure 24
0001
0001
0001
0000
,  // measure 25
1001
0000
0001
0000
,  // measure 26
1000
1000
1000
0000
,  // measure 27
0001
0000
1000
0000
,  // measure 28
1000
0000
1000
0000
,  // measure 29
1000
0000
0001
0000
,  // measure 30
0001
0000
0001
0000
,  // measure 31
0100
0000
0010
0000
,  // measure 32
0100
0000
0010
0000
,  // measure 33
0020
0000
0000
0030
,  // measure 34
0010
0010
0010
0000
,  // measure 35
0200
0000
0000
0300
,  // measure 36
0100
0100
0100
0000
,  // measure 37
0002
0000
0000
0003
,  // measure 38
0001
0001
0001
0000
,  // measure 39
2000
0000
0000
3000
,  // measure 40
1000
1000
1000
0000
,  // measure 41
1000
0000
0100
0000
,  // measure 42
0100
0000
0000
0000
,  // measure 43
0001
0000
0100
0000
,  // measure 44
0100
0000
0000
0000
,  // measure 45
1000
0000
0001
0000
,  // measure 46
1000
0000
0001
0000
,  // measure 47
0010
0010
0010
0010
,  // measure 48
0010
0000
0000
0000
,  // measure 49
0001
0000
0010
0000
,  // measure 50
0010
0000
0000
0000
,  // measure 51
1000
0000
0010
0000
,  // measure 52
0010
0000
0000
0000
,  // measure 53
0001
0000
1000
0000
,  // measure 54
0001
0000
0100
0000
,  // measure 55
0010
0010
0010
0010
,  // measure 56
0010
0000
0000
0000
,  // measure 57
1001
0000
0000
0000
,  // measure 58
1000
1000
1000
0000
,  // measure 59
1001
0000
0000
0000
,  // measure 60
0001
0001
0001
0000
,  // measure 61
0110
0000
0000
0000
,  // measure 62
0010
0010
0010
0000
,  // measure 63
0110
0000
0100
0000
,  // measure 64
0100
0000
0100
0100
;

//---------------dance-single - Chewi----------------
#NOTES:
     dance-single:
     Chewi:
     Easy:
     5:
     0.260,0.287,0.155,0.335,0.000:
0000
0000
0000
0000
,
0000
0000
0000
0000
,
0000
0000
0000
0000
,
0000
0000
0000
0000
,
2000
3000
0002
0003
,
1001
0000
0000
0000
,
0002
0003
2000
3000
,
1001
0000
0000
0000
,
0200
0300
0020
0030
,
0200
0300
0020
0030
,
1000
0100
0001
0010
,
1000
0000
0000
0000
,
2000
3000
0020
0030
,
0100
0000
0000
0000
,
0200
0300
0002
0003
,
0010
0000
0000
0000
,
0020
0030
0200
0300
,
2000
3000
0002
0003
,
0100
1000
0010
0001
,
0100
0000
0000
0000
,
0110
0100
0010
0100
,
0010
0100
0010
0100
,
1001
1000
0001
1000
,
0001
1000
0001
1000
,
0110
0010
0100
0010
,
0100
0010
0100
0010
,
0110
0000
0110
0000
,
1001
0000
1001
0000
,
0120
0000
0100
0000
,
0100
0000
0100
0030
,
0210
0000
0010
0000
,
0010
0000
0010
0310
,
1000
0100
0010
0100
,
1000
0100
0010
0100
,
1000
0001
1000
0001
,
0100
0010
0100
0010
,
0001
0010
0100
0010
,
0001
0010
0100
0010
,
0001
1000
0001
1000
,
0010
0100
0010
0100
,
0020
0030
2000
3000
,
2002
0000
0000
3003
,
0002
0003
2000
3000
,
0220
0000
0000
0330
,
0200
0300
0002
0003
,
0020
0030
0200
0300
,
0001
1000
0001
1000
,
1001
0000
0000
0000
,
2000
3000
0200
0300
,
0002
0000
1000
1003
,
0020
0030
2000
3000
,
0002
0000
1000
1003
,
2000
3000
0200
0300
,
2000
0001
0001
3001
,
0100
0110
1000
1001
,
0010
0000
0010
0100
,
2100
0000
0100
0000
,
0100
0100
3100
0000
,
0102
0000
0100
0000
,
0100
0100
0103
0000
,
0010
1000
0100
1000
,
0010
0001
0100
1000
,
0001
0100
0001
0010
,
1000
0100
0001
1001
;

//---------------dance-single - Chewi----------------
#NOTES:
     dance-single:
     Chewi:
     Medium:
     8:
     0.327,0.391,0.302,0.229,0.000:
0000
0000
0000
0000
,
0000
0000
0000
0000
,
0000
0000
0000
0000
,
0000
0000
0000
0000
,
1000
0000
0100
0000
0010
0000
0001
0001
,
0001
0000
0000
0000
,
0001
0100
0010
1000
,
1001
0000
0000
0000
,
1000
0100
0010
0001
,
0100
1000
0010
0100
,
0010
0010
0010
0000
0100
0010
0100
0000
,
1001
0000
0000
0000
,
1000
0101
0001
1100
,
1001
0000
0000
0000
,
1000
1010
0001
0011
,
1001
0000
0000
0000
,
0001
0010
1000
0100
,
0001
0100
1000
0100
0000
0000
0000
0000
,
1000
0000
0001
0000
0010
0100
0010
0000
,
0110
0000
0001
0010
,
0100
1000
0010
1000
,
0100
0001
0010
0000
1000
0000
0000
0000
,
0100
0010
0001
0100
,
0010
0001
0100
0000
1000
0000
0010
0000
,
0100
0001
1000
0100
,
0010
1000
0100
0000
0001
0000
0010
0000
,
0110
0010
1001
0001
,
0110
0100
1001
1000
,
0012
0000
1000
0000
,
0100
0000
0010
0013
,
2100
0000
0001
0000
,
0010
0000
0100
3100
,
0001
1100
1000
0101
,
0020
0032
0203
2300
,
3010
0110
0100
0110
,
0020
2030
3200
0302
,
0013
0101
0010
1100
,
0002
2003
3002
0203
,
0310
1100
0010
0101
,
2000
3002
2003
3200
,
0310
0001
0100
1000
,
0220
0000
0000
0330
,
0001
1000
0010
0100
,
0202
0000
0000
0303
,
1000
0010
0001
0010
,
1000
0001
1000
0000
0001
1000
0001
0000
,
1000
0100
0011
1010
,
0202
0000
0000
0303
,
0001
0000
1000
0000
0010
0001
0100
0000
,
2000
0000
0000
3000
,
0001
0000
0010
0000
0100
0000
1000
0001
,
0200
0000
0000
0300
,
0010
1000
0001
0011
,
0001
0010
1000
1001
,
0010
0100
0010
0000
0100
0010
0100
0000
,
2002
0000
0000
3003
,
0010
0100
0001
0010
,
0100
1000
0100
1000
0000
0000
0100
0000
,
1000
0010
0100
0001
,
0100
0001
0100
0001
0000
0000
1000
0000
,
0100
0011
0100
1010
,
0001
0001
0001
0001
0000
0000
0001
0000
,
0100
1001
0100
1001
,
0010
1001
0010
0110
;

//---------------dance-single - Chewi----------------
#NOTES:
     dance-single:
     Chewi:
     Hard:
     10:
     0.450,0.443,0.147,0.245,0.061:
0000
0000
0000
0000
,
0000
0000
0000
0000
,
0000
0000
0000
0000
,
0000
0000
0000
0000
,
1000
0100
0010
0100
1000
0010
0200
0000
,
0302
1003
0000
0001
,
0001
0100
0010
0100
0002
0000
0023
0000
,
2030
3100
0000
1000
,
1000
0100
0001
0010
0100
0000
1100
0000
,
0010
0001
0100
0001
0010
0000
0110
0000
,
0010
0001
1000
0010
0200
0000
0302
0000
,
0023
0130
0000
0100
,
0100
0010
1000
0100
0001
1000
0200
0000
,
0302
0013
0000
0100
,
0100
0010
1000
0100
0001
1000
0100
0001
,
0020
1030
0000
0100
,
0010
0100
1000
0001
0100
0000
0110
0000
,
0100
0001
0010
0100
1000
0010
1010
0000
,
1000
0100
0002
0023
,
2030
3000
1000
0001
,
1100
0000
0010
0001
0100
0000
0001
0000
,
0010
0100
1000
0010
0000
0000
0100
0001
,
0101
0000
0010
1000
0100
0000
0010
0000
,
0001
0100
1000
0010
0000
0000
0100
0010
,
0001
0000
1000
0100
0010
0000
0001
0000
,
0001
0010
1000
0100
0000
0000
0001
0100
,
1010
0000
0000
0100
0011
0000
0000
0010
,
0110
0000
0000
1000
1001
0000
0000
1000
,
0010
0000
0000
0010
1000
0000
0000
1000
0100
0000
0000
0100
0010
0000
0000
0010
,
0001
0000
0000
0001
0010
0000
0000
0010
0100
0000
0000
0100
1000
0000
0000
1000
,
0001
0000
0000
0001
0100
0000
0000
0100
1000
0000
0000
1000
0010
0000
0000
0010
,
0100
0000
0000
0100
0010
0000
0000
0010
0001
0000
0000
0001
2000
0000
0000
0000
,
3001
0010
0100
1000
0010
0100
1000
0010
,
0100
0001
0100
0010
1000
0001
0010
0000
,
0100
0010
0001
0100
0010
1000
0001
0010
,
0100
1000
0010
0001
0100
1000
0001
0100
,
0010
0100
0001
0010
0100
1000
0010
1000
,
0100
0010
1000
0100
0001
1000
0100
0000
,
0001
0010
0100
1000
0001
0100
1000
0100
,
0001
0010
1000
0100
0001
0010
0100
1000
,
0001
1000
0100
1000
0001
0010
0200
0000
,
0320
0031
0000
1000
,
0001
0100
0010
0001
0200
0000
2300
0000
,
3002
1003
0000
1000
,
0001
0010
0100
1000
0010
0000
0101
0000
,
0010
1000
0100
1000
0010
0000
1100
0000
,
1000
0100
0001
0100
2000
0000
3002
0000
,
0023
0130
0000
0100
,
0010
0100
0001
0100
0020
0000
2030
0000
,
3200
0000
0000
0300
,
1000
0100
0001
0010
2000
0000
3002
0000
,
0023
0000
0000
0030
,
0100
0010
0100
0010
0001
0010
0001
0010
,
0001
0100
0001
0100
0010
0100
0010
0100
,
0010
1000
0100
1000
0010
0100
0001
0010
,
0200
0310
0000
0010
,
0110
0000
0010
0001
0100
0000
1000
0000
,
0010
0010
0100
0100
0000
0000
0010
1000
,
0100
0000
0001
0010
0100
0000
1000
0000
,
0001
0001
1000
1000
0000
0000
0010
0100
,
0101
0000
0010
0100
0100
0000
1000
0000
,
0010
0010
0001
0001
0000
0000
0100
0010
,
1001
0000
0000
0100
1001
0000
0000
0010
,
1010
0000
0000
0010
0110
0000
0010
0000
;
