#TITLE:Grace Kelly (Bimbo Jones Remix);
#SUBTITLE:;
#ARTIST:Mika;
#TITLETRANSLIT:;
#SUBTITLETRANSLIT:;
#ARTISTTRANSLIT:;
#GENRE:;
#CREDIT:Chewi☆;
#MENUCOLOR:#FFFF00;
#METERTYPE:DDR X;
#BANNER:Grace Kelly (Bimbo Jones Remix).png;
#BACKGROUND:Grace Kelly (Bimbo Jones Remix)-bg.png;
#LYRICSPATH:;
#CDTITLE:./CDTITLES/DanceDanceRevolution skyMIX2 -FREEDOM-.png;
#MUSIC:Grace Kelly (Bimbo Jones Remix).mp3;
#OFFSET:-1.138;
#SAMPLESTART:42.941;
#SAMPLELENGTH:15.000;
#SELECTABLE:YES;
#LISTSORT:;
#DISPLAYBPM:126.000;
#BPMS:0.000=126.290;
#STOPS:;
#BGCHANGES:;
#ATTACKS:;

//---------------dance-single - Chewi----------------
#NOTES:
     dance-single:
     Chewi:
     Beginner:
     1:
     0.072,0.126,0.009,0.000,0.000:
0000
0000
0000
0000
,
0000
0000
0000
0000
,
0000
0000
0000
0000
,
0000
0000
0000
0000
,
1000
0000
0000
0000
,
0001
0000
0000
0000
,
0100
0000
0000
0000
,
0010
0000
0000
0000
,
1000
0000
0000
0000
,
0001
0000
0000
0000
,
0100
0000
0000
0000
,
1000
0000
0000
0000
,
0010
0000
0000
0000
,
0001
0000
0000
0000
,
1001
0000
0000
0000
,
1000
0000
0000
0000
,
0001
0000
0000
0000
,
0010
0000
0000
0000
,
0100
0000
0000
0000
,
0001
0000
0000
0000
,
1000
0000
0000
0000
,
0010
0010
0010
0000
,
1000
0000
0000
0000
,
0100
0000
0000
0000
,
0001
0000
0000
0000
,
0010
0000
0000
0000
,
0100
0000
0000
0000
,
0010
0000
0000
0000
,
0100
0000
0000
0000
,
0001
0000
0000
0000
,
0001
0000
0000
0000
,
1000
0000
0000
0000
,
0010
0000
0000
0000
,
0100
0000
0000
0000
,
0010
0000
0000
0000
,
0001
0000
0000
0000
,
0100
0000
0000
0000
,
1000
0000
0000
0000
,
0100
0000
0000
0000
,
1000
0000
0000
0000
,
0010
0000
0000
0000
,
0001
0000
0000
0000
,
0010
0000
0000
0000
,
0010
0000
0000
0000
,
0100
0000
0000
0000
,
0010
0000
0000
0000
,
0100
0000
0000
0000
,
1000
0000
0000
0000
,
0001
0000
0000
0000
,
1000
0000
0000
0000
,
0001
0000
0000
0000
,
0001
0000
0000
0000
,
0010
0000
0000
0000
,
0100
0000
0000
0000
,
1000
0000
0000
0000
,
1000
0000
0000
0000
,
0100
0000
0000
0000
,
0010
0000
0000
0000
,
0001
0000
0000
0000
;

//---------------dance-single - Chewi----------------
#NOTES:
     dance-single:
     Chewi:
     Easy:
     4:
     0.184,0.231,0.061,0.078,0.000:
0000
0000
0000
0000
,
0000
0000
0000
0000
,
0000
0000
0000
0000
,
0000
0000
0000
0000
,
1000
0010
0010
0000
,
0001
0000
1000
0000
,
0001
0100
0100
0000
,
1000
0000
0001
0000
,
1000
0010
0010
0000
,
0001
0000
1000
0000
,
0010
0010
0010
0000
,
0100
0000
0110
0000
,
0010
0010
0010
0000
,
1000
0000
1001
0000
,
0002
0000
0000
0003
,
0010
0100
0010
0100
,
2000
0000
0000
3000
,
0100
0010
0100
0010
,
0020
0000
0000
0030
,
0001
1000
0001
1000
,
0200
0000
0000
0300
,
0010
0010
0010
0010
,
0110
0000
1000
0000
,
0001
0000
1000
0001
,
1000
0000
0100
0000
,
1000
0000
0100
0001
,
0100
0000
0001
0000
,
0100
0000
0001
0010
,
1000
0000
0010
0000
,
1000
0000
0010
1000
,
0010
0010
0000
0100
,
0000
0001
0000
1000
,
2002
0000
0000
3003
,
0010
0000
0100
0000
,
0110
0000
0010
0000
,
1000
0000
0100
0000
,
1000
0100
0010
0000
,
0001
0000
1000
0000
,
1001
0000
0110
0000
,
0010
0100
0010
0010
,
2000
0000
0000
3000
,
0002
0000
0000
0003
,
0010
0000
1000
0000
,
0001
0000
1000
0001
,
1000
0000
0100
0000
,
1000
0000
0100
0001
,
0100
0000
0001
0000
,
0100
0000
0001
0010
,
1000
0000
0010
0000
,
1000
0000
0010
1000
,
0010
0000
0100
0000
,
0010
0100
0010
0000
,
1000
0000
0010
0000
,
1000
0100
1000
0000
,
0100
0000
1000
0000
,
0100
0001
0010
0000
,
0001
0000
0010
0000
,
0001
0010
0001
0100
,
2000
0000
0000
0000
,
3000
0000
0000
0000
;

//---------------dance-single - Chewi----------------
#NOTES:
     dance-single:
     Chewi:
     Medium:
     7:
     0.348,0.385,0.383,0.104,0.000:
0000
0000
0000
0000
,
0000
0000
0000
0000
,
0000
0000
0000
0000
,
0000
0000
0000
0000
,
1000
0010
0001
0000
,
0001
0100
1000
0000
,
1002
0100
0010
0103
,
0010
0100
0010
0100
,
0210
0001
0010
0301
,
0010
0100
0010
0100
,
0010
1000
0100
0001
,
0010
1000
0100
0001
,
0010
0110
0100
0110
,
1000
0001
1000
0000
0001
1000
0001
0000
,
2100
0000
0001
0010
,
0020
0000
0000
0000
,
3030
0000
0001
0100
0001
0000
1000
0000
,
1100
0000
0000
0000
,
1000
0000
0100
0000
0001
0000
0001
0010
,
0100
1000
1001
0000
,
0000
0000
1000
0000
0010
0000
0001
0100
,
1000
0002
2000
0003
,
3001
1000
0101
0001
,
1100
1000
0011
1010
,
0011
1000
0101
0001
,
1010
1000
0011
1001
,
1010
0000
0010
0100
0010
0000
0010
0000
,
0100
0000
0001
1000
0001
0000
1000
0000
,
1001
0000
0001
0010
0001
0000
1000
0000
,
0100
0000
1000
0100
1000
0000
0001
0000
,
1002
0010
0010
0013
,
0100
0010
0100
0010
,
2100
0100
0100
3100
,
0001
1000
0010
0001
,
0200
1000
1000
1300
,
0001
1000
0001
1000
,
0102
0010
0010
0013
,
0010
1000
0100
0001
,
0020
0100
1000
0130
,
1001
0010
0100
1000
,
0100
1000
0100
0000
0100
0000
0100
0000
,
0100
0001
0100
0000
0001
0010
0001
0000
,
1000
1000
0101
0001
,
1100
1000
0011
1010
,
0011
1000
0101
0001
,
1010
1000
0011
1001
,
1010
0000
0010
0100
0010
0000
0010
0000
,
0100
0000
0001
1000
0001
0000
1000
0000
,
1001
0000
0001
0010
0001
0000
1000
0000
,
0100
0000
1000
0100
1000
0000
0001
0000
,
0001
0010
1100
0100
,
1010
0010
0101
0011
,
0101
0010
1100
0100
,
0011
0010
0101
0110
,
0011
0000
0001
1000
0001
0000
0001
0000
,
1000
0000
0100
0010
0100
0000
0010
0000
,
0110
0000
0100
0001
0100
0000
0010
0000
,
1000
0000
0010
1000
0010
0000
0100
0000
,
0002
0000
0000
0000
,
0003
0000
0000
0000
;

//---------------dance-single - Chewi----------------
#NOTES:
     dance-single:
     Chewi:
     Hard:
     10:
     0.414,0.410,0.096,0.148,0.000: // measure 1
0000
0000
0000
0000
,  // measure 2
0000
0000
0000
0000
,  // measure 3
0000
0000
0000
0000
,  // measure 4
0000
0000
0000
0000
,  // measure 5
1000
0100
0010
0001
,  // measure 6
1000
0010
0100
0001
,  // measure 7
2002
3003
1000
0010
,  // measure 8
1000
0000
0100
0001
0010
0000
1000
0000
,  // measure 9
0010
0000
0110
0000
0010
0000
1000
0001
,  // measure 10
1000
0010
0100
0110
,  // measure 11
1001
0000
0001
0000
0100
0000
0010
1000
,  // measure 12
0010
0100
0001
0010
,  // measure 13
1000
0000
0100
1000
0100
0000
1000
0001
,  // measure 14
0100
0000
0001
0100
1000
0100
0001
0010
,  // measure 15
1000
0000
0010
0100
0001
0010
0100
0010
,  // measure 16
0001
2000
0000
0000
0000
0000
3000
0000
,  // measure 17
0000
0000
1000
0001
0100
0010
1000
0002
,  // measure 18
1000
0000
0010
1000
,  // measure 19
0103
0000
0010
0100
0001
1000
0100
0010
,  // measure 20
0001
1000
0000
0000
2002
0000
0000
0000
,  // measure 21
3003
0000
1000
0010
0100
0001
0010
0100
,  // measure 22
2010
0000
0001
0000
0020
0000
0000
3030
,  // measure 23
1010
0000
1000
0010
0001
0000
1000
0010
,  // measure 24
0001
0000
1000
0010
0001
0100
1000
0100
,  // measure 25
0001
0000
0001
1000
0100
0000
1000
0001
,  // measure 26
0100
0000
1000
0001
0100
1000
0010
0100
,  // measure 27
1000
0000
1000
0010
0001
0000
1000
0010
,  // measure 28
0001
0000
1000
0010
0001
0100
1000
0100
,  // measure 29
0001
0000
1000
0001
0100
0000
0001
1000
,  // measure 30
0100
0000
1000
0001
0010
1000
0001
0010
,  // measure 31
1000
0000
0010
0100
0001
0010
0100
0000
,  // measure 32
0100
0010
0100
1000
0010
0100
0001
0000
,  // measure 33
0102
1000
0010
0103
,  // measure 34
0200
1000
0001
1300
,  // measure 35
0020
0001
1000
0031
,  // measure 36
0010
1000
0010
0000
0010
0001
0010
0000
,  // measure 37
2100
0001
0010
3100
,  // measure 38
0002
0010
0100
1003
,  // measure 39
0200
0001
1000
0301
,  // measure 40
0020
1000
0100
1030
,  // measure 41
1000
0001
1000
0000
0001
1000
0001
0000
,  // measure 42
0010
0100
0010
0100
0010
0001
0010
0001
,  // measure 43
0011
0000
0001
0010
0100
0000
1000
0010
,  // measure 44
0100
0000
1000
0010
0100
1000
0010
0100
,  // measure 45
0001
0000
0010
0001
0100
0000
0100
1000
,  // measure 46
0010
0000
0010
0001
0100
0010
0001
0100
,  // measure 47
0010
0000
1000
0001
0010
0000
0001
1000
,  // measure 48
0010
0000
0001
0010
1000
0001
0010
1000
,  // measure 49
0010
0000
1000
0100
0001
0010
0100
0001
,  // measure 50
0010
0100
0001
0010
0100
1000
0001
0010
,  // measure 51
0100
0000
1000
0010
0100
0000
1000
0010
,  // measure 52
0001
0000
1000
0010
0001
0100
0010
0001
,  // measure 53
0100
0000
0001
0100
1000
0000
0001
0100
,  // measure 54
1000
0000
1000
0010
0001
0010
1000
0010
,  // measure 55
0001
0000
0001
0010
0100
0000
0001
0010
,  // measure 56
0100
0000
0001
0010
0100
0001
0010
0100
,  // measure 57
1000
0000
1000
0010
0100
0000
0100
1000
,  // measure 58
0010
0100
0001
0010
0100
1000
0001
0100
,  // measure 59
0220
0000
0000
0000
,  // measure 60
0330
0000
0000
0000
;
