#TITLE:Go!Go!カリート!;
#SUBTITLE:;
#ARTIST:カリート;
#TITLETRANSLIT:Go!Go!Carlito!;
#SUBTITLETRANSLIT:;
#ARTISTTRANSLIT:Carlito;
#CREDIT:Chewi☆;
#BANNER:Go!Go!Carlito!.png;
#BACKGROUND:Go!Go!Carlito!-bg.png;
#LYRICSPATH:;
#CDTITLE:;
#MUSIC:Go!Go!Carlito!.mp3;
#OFFSET:-2.567;
#SAMPLESTART:18.567;
#SAMPLELENGTH:15.000;
#SELECTABLE:YES;
#DISPLAYBPM:120.000;
#BPMS:0.000=120.000;
#STOPS:;
#BGCHANGES:;

//---------------dance-single - Chewi----------------
#NOTES:
     dance-single:
     Chewi:
     Hard:
     11:
     0.469,0.494,0.342,0.246,0.353: // measure 1
0000
0000
0000
0000
,  // measure 2
0000
0000
0000
0000
,  // measure 3
0000
0000
0000
0000
,  // measure 4
0000
0000
0000
0000
,  // measure 5
1000
0000
0000
1000
0100
0000
0000
0000
0001
0000
0000
0001
0100
0000
0000
0000
,  // measure 6
0110
0000
0000
1001
0000
0000
0220
0000
0000
0000
0000
0000
0330
0000
0000
0000
,  // measure 7
0010
0000
0000
0010
0100
0000
0000
0000
0100
0000
0000
0100
0010
0000
0000
0000
,  // measure 8
0011
0000
0000
1100
0000
0000
0202
0000
0000
0000
0000
0000
0303
0000
0000
0000
,  // measure 9
0001
0100
1000
0000
1000
0010
0001
0000
,  // measure 10
1000
0001
1001
0000
0001
1000
1001
0000
,  // measure 11
0010
1000
0100
0000
0010
0001
0100
0000
,  // measure 12
0001
0100
0101
0000
1000
0100
1100
0000
,  // measure 13
1000
0100
0010
0000
0001
0010
0100
0000
,  // measure 14
1000
0100
1000
0100
0001
0100
0001
0100
,  // measure 15
1000
0010
0100
0000
0001
1000
0001
0000
,  // measure 16
1000
1000
0100
0100
0010
0010
0001
0001
,  // measure 17
0001
0000
1000
0001
0000
0100
0000
0010
0000
1000
0000
0001
0000
0010
0100
1000
,  // measure 18
0010
0000
0100
0001
0000
0010
0000
1100
0000
0022
0000
0000
0033
0000
0000
0000
,  // measure 19
1000
0000
0100
1000
0000
0010
0000
0100
0000
0001
0000
0100
0000
0010
0000
1000
,  // measure 20
0001
0000
2002
0000
3003
0000
0000
0000
0001
1000
0001
1000
0001
0000
0000
0000
,  // measure 21
1000
0000
0010
1000
0000
0001
0000
0010
0000
0100
0000
1000
0000
0010
0000
0100
,  // measure 22
0000
0001
0000
0100
0000
1010
0000
0101
0000
2002
0000
0000
3003
0000
0000
0000
,  // measure 23
0001
0000
1000
0010
0000
0100
0000
0001
0000
0010
0000
0100
0000
1000
0000
0001
,  // measure 24
0000
1000
0000
0001
0100
0000
0010
0000
0022
0000
0000
0000
0033
0000
0000
0000
,  // measure 25
0100
0000
0010
0001
0000
0010
0000
0100
0000
1000
0000
0010
0000
0100
0000
0001
,  // measure 26
0000
0100
0000
0010
1000
0000
0001
0000
2002
0000
0000
0000
3003
0000
0000
0000
,  // measure 27
2200
0000
0000
0000
3300
0000
1000
0000
0100
0000
0000
0010
0000
0000
0001
0000
,  // measure 28
0200
0000
0000
0000
0300
0000
0100
0000
0010
0000
0000
1000
0000
0000
0001
0000
,  // measure 29
0010
0000
0000
0100
0000
0000
1000
0000
0010
0000
0000
0100
0000
0000
0001
0000
,  // measure 30
0202
0000
0000
0000
0303
0000
0000
0000
0100
0000
0000
0010
0000
0000
1000
0000
,  // measure 31
0002
0000
0000
0000
0003
0000
0001
0000
0010
0000
0000
0100
0000
0000
0001
0000
,  // measure 32
0020
0000
0000
0000
0030
0000
1000
0000
0001
0000
0000
0010
0000
0000
0100
0000
,  // measure 33
1000
0000
0000
0010
0000
0000
0100
0000
0001
0000
0000
0100
0000
0000
0010
0000
,  // measure 34
1000
0001
1000
0001
0010
0100
0010
0100
,  // measure 35
0110
0000
0000
0011
0000
0000
0000
0000
,  // measure 36
1001
0000
0000
1100
0000
0000
2002
0000
0000
0000
0000
0000
3003
0000
0000
0000
,  // measure 37
1000
0010
0100
0010
1000
0010
0100
0001
,  // measure 38
0010
0100
0110
0000
0100
0010
0110
0000
,  // measure 39
0010
0001
0100
0001
0010
0100
1000
0010
,  // measure 40
1000
1000
1100
0000
0001
0001
0011
0000
,  // measure 41
0001
1000
0010
1000
0001
0010
0100
1000
,  // measure 42
0010
0010
0110
0000
0100
0100
0110
0000
,  // measure 43
0100
0001
0010
0001
0100
0010
1000
0100
,  // measure 44
0010
0010
0100
0100
1000
1000
0001
0001
,  // measure 45
1001
0000
0000
0000
;

//---------------dance-single - Chewi----------------
#NOTES:
     dance-single:
     Chewi:
     Medium:
     7:
     0.278,0.282,0.310,0.128,0.005: // measure 1
0000
0000
0000
0000
,  // measure 2
0000
0000
0000
0000
,  // measure 3
0000
0000
0000
0000
,  // measure 4
0000
0000
0000
0000
,  // measure 5
2000
3001
0002
1003
,  // measure 6
1001
0000
0000
1001
0000
0000
0000
0000
,  // measure 7
0020
0130
0200
0310
,  // measure 8
0110
0000
0000
0110
0000
0000
0000
0000
,  // measure 9
0010
1000
0100
0001
,  // measure 10
0110
0010
0110
0100
,  // measure 11
0010
1000
0100
0001
,  // measure 12
1001
1000
1001
0001
,  // measure 13
1000
0100
0010
0001
,  // measure 14
1000
1100
0001
0101
,  // measure 15
1000
0010
0100
0001
,  // measure 16
1000
1100
0001
0011
,  // measure 17
1000
1000
1000
1000
,  // measure 18
0001
0001
0001
0001
,  // measure 19
0100
0010
0100
0010
,  // measure 20
1000
0010
0001
0010
,  // measure 21
1000
0100
1000
0100
,  // measure 22
0010
0001
0010
0001
,  // measure 23
0010
0100
0010
0100
,  // measure 24
0010
0010
0011
0000
,  // measure 25
0001
0100
0010
1000
,  // measure 26
0001
1000
1001
0000
,  // measure 27
1001
0000
1000
1100
,  // measure 28
0101
0000
0001
0100
,  // measure 29
0010
1000
0001
0010
,  // measure 30
0100
0000
1000
0100
,  // measure 31
1001
0000
1000
1010
,  // measure 32
0101
0000
0001
0100
,  // measure 33
0010
1000
0001
0010
,  // measure 34
0100
0100
0100
0100
,  // measure 35
0110
0000
0000
0110
0000
0000
0000
0000
,  // measure 36
0010
0000
0000
0010
0000
0000
0010
0000
0000
0000
0000
0000
0000
0000
0000
0000
,  // measure 37
0002
0103
2000
3100
,  // measure 38
1001
0000
1001
0000
,  // measure 39
2000
3010
0002
0013
,  // measure 40
0110
0000
0110
0000
,  // measure 41
0020
1030
0200
0301
,  // measure 42
0011
0000
1010
0000
,  // measure 43
2000
3010
0002
0103
,  // measure 44
1000
0100
0001
0100
,  // measure 45
1001
0000
0000
0000
;

//---------------dance-single - Chewi----------------
#NOTES:
     dance-single:
     Chewi:
     Easy:
     4:
     0.188,0.235,0.139,0.128,0.000: // measure 1
0000
0000
0000
0000
,  // measure 2
0000
0000
0000
0000
,  // measure 3
0000
0000
0000
0000
,  // measure 4
0000
0000
0000
0000
,  // measure 5
1001
0000
1001
0000
,  // measure 6
1000
0001
1000
0000
,  // measure 7
0110
0000
0110
0000
,  // measure 8
0010
0100
0010
0000
,  // measure 9
1000
0000
0100
0000
,  // measure 10
0001
0000
0010
0000
,  // measure 11
1000
0000
0100
0000
,  // measure 12
0001
0000
0010
0000
,  // measure 13
1000
0000
0010
0000
,  // measure 14
0001
0000
0100
0000
,  // measure 15
1000
0000
0010
0000
,  // measure 16
0001
0000
0100
0000
,  // measure 17
2000
0000
3100
0000
,  // measure 18
0100
0010
0010
0000
,  // measure 19
0002
0000
0103
0000
,  // measure 20
0100
0010
0010
0000
,  // measure 21
2000
0000
3001
0000
,  // measure 22
0001
1000
0001
0000
,  // measure 23
0002
0000
0103
0000
,  // measure 24
1000
0001
1000
0000
,  // measure 25
1001
0000
1001
0000
,  // measure 26
1000
0001
1000
0000
,  // measure 27
1010
0000
1000
1000
,  // measure 28
1000
0000
0001
0001
,  // measure 29
0001
0000
0010
0000
,  // measure 30
0110
0000
0000
0000
,  // measure 31
0011
0000
1000
1000
,  // measure 32
1000
0000
0001
0001
,  // measure 33
0001
0000
0100
0100
,  // measure 34
0100
0000
0000
0000
,  // measure 35
0110
0000
1001
0000
,  // measure 36
0110
0000
0000
0000
,  // measure 37
1000
0100
1000
0100
,  // measure 38
2000
3000
0002
0003
,  // measure 39
0001
0100
0001
0100
,  // measure 40
0002
0003
2000
3000
,  // measure 41
1000
0010
1000
0010
,  // measure 42
0002
0003
2000
3000
,  // measure 43
0001
0010
0001
0010
,  // measure 44
2000
3000
0002
0003
,  // measure 45
1001
0000
0000
0000
;

//---------------dance-single - Chewi----------------
#NOTES:
     dance-single:
     Chewi:
     Beginner:
     2:
     0.082,0.118,0.096,0.000,0.000: // measure 1
0000
0000
0000
0000
,  // measure 2
0000
0000
0000
0000
,  // measure 3
0000
0000
0000
0000
,  // measure 4
0000
0000
0000
0000
,  // measure 5
1001
0000
0000
0000
,  // measure 6
1000
0000
0000
0000
,  // measure 7
0110
0000
0000
0000
,  // measure 8
0010
0000
0000
0000
,  // measure 9
1000
0000
0000
0000
,  // measure 10
0001
0000
0000
0000
,  // measure 11
1000
0000
0000
0000
,  // measure 12
0001
0000
0000
0000
,  // measure 13
1000
0000
0000
0000
,  // measure 14
0001
0000
0000
0000
,  // measure 15
1000
0000
0000
0000
,  // measure 16
0001
0000
0000
0000
,  // measure 17
1000
0000
0000
0000
,  // measure 18
0100
0000
0000
0000
,  // measure 19
0001
0000
0000
0000
,  // measure 20
0100
0000
0000
0000
,  // measure 21
1000
0000
0000
0000
,  // measure 22
0001
0000
0000
0000
,  // measure 23
0001
0000
0000
0000
,  // measure 24
1000
0000
0000
0000
,  // measure 25
1001
0000
0000
0000
,  // measure 26
1000
0000
0000
0000
,  // measure 27
0110
0000
0000
0000
,  // measure 28
1000
0000
0000
0000
,  // measure 29
0001
0000
0000
0000
,  // measure 30
0110
0000
0000
0000
,  // measure 31
1001
0000
0000
0000
,  // measure 32
1000
0000
0000
0000
,  // measure 33
0001
0000
0000
0000
,  // measure 34
0100
0000
0000
0000
,  // measure 35
0110
0000
0000
0000
,  // measure 36
1001
0000
0000
0000
,  // measure 37
1000
0000
1000
0000
,  // measure 38
1000
0000
0000
0000
,  // measure 39
0001
0000
0001
0000
,  // measure 40
0001
0000
0000
0000
,  // measure 41
0010
0000
0010
0000
,  // measure 42
0010
0000
0000
0000
,  // measure 43
0100
0000
0100
0000
,  // measure 44
0100
0000
0000
0000
,  // measure 45
1001
0000
0000
0000
;
