#TITLE:Glamorous (feat. Ludacris);
#SUBTITLE:;
#ARTIST:Fergie;
#TITLETRANSLIT:;
#SUBTITLETRANSLIT:;
#ARTISTTRANSLIT:;
#GENRE:;
#CREDIT:chewi;
#BANNER:Glamorous (feat. Ludacris).png;
#BACKGROUND:Glamorous (feat. Ludacris)-bg.png;
#LYRICSPATH:;
#CDTITLE:;
#MUSIC:Glamorous (feat. Ludacris).mp3;
#OFFSET:-1.246000;
#SAMPLESTART:45.176998;
#SAMPLELENGTH:15.000000;
#SELECTABLE:YES;
#DISPLAYBPM:131.000000;
#BPMS:0.000000=131.000000
;
#STOPS:
;
#BGCHANGES:;
#KEYSOUNDS:;
#ATTACKS:;

//---------------dance-single - ----------------
#NOTES:
     dance-single:
     :
     Hard:
     7:
     0.356068,0.417535,0.372961,0.118256,0.000000,220.000000,41.000000,13.000000,0.000000,0.000000,0.000000,0.356068,0.417535,0.372961,0.118256,0.000000,220.000000,41.000000,13.000000,0.000000,0.000000,0.000000:
// measure 0
0000
0000
0000
0000
,  // measure 1
0000
0000
0000
0000
,  // measure 2
0000
0000
0000
0000
,  // measure 3
0000
0000
0000
0000
,  // measure 4
0000
0000
0000
0000
,  // measure 5
0000
0000
0000
0000
,  // measure 6
0000
0000
0000
0000
,  // measure 7
0000
0000
0000
0000
,  // measure 8
1001
0000
1010
0000
,  // measure 9
0101
0000
0000
1001
0000
0000
0000
0000
,  // measure 10
1010
0000
0110
0000
,  // measure 11
0001
0010
1000
0100
0000
0000
0000
0000
,  // measure 12
0101
0000
1100
0000
,  // measure 13
1001
0000
0000
1010
0000
0000
0000
0000
,  // measure 14
1010
0000
0101
0000
,  // measure 15
1000
0100
0001
0010
0000
0000
1000
0010
,  // measure 16
2000
3020
0000
0000
,  // measure 17
0130
0001
0100
0002
0000
0000
1003
0000
,  // measure 18
1001
0000
0020
0000
0000
0000
0000
0030
,  // measure 19
0010
1000
0100
0101
0000
0000
0001
0100
,  // measure 20
0010
1010
0000
0000
,  // measure 21
1000
0010
0100
0001
0000
0000
0001
0000
,  // measure 22
1001
0100
0010
0000
0000
0011
0000
0000
,  // measure 23
0101
1000
0000
1100
0001
0000
1010
0000
,  // measure 24
0100
0010
0100
0000
0200
0000
0000
0000
,  // measure 25
0301
0100
0010
0000
0010
0100
0001
1000
,  // measure 26
0010
1000
0020
0000
0000
0000
0000
0000
,  // measure 27
1030
0000
0001
1000
0000
1001
0000
0000
,  // measure 28
1000
0100
0002
0000
0000
0000
0000
0000
,  // measure 29
0013
0001
0100
0000
0010
1000
0100
0000
,  // measure 30
1000
0100
0002
0000
0000
0000
0000
0000
,  // measure 31
0013
0000
1000
0001
0000
0000
1001
0000
,  // measure 32
1000
0010
1000
0000
0001
0001
0001
0000
,  // measure 33
0100
0010
1000
0000
0001
0001
0001
0000
,  // measure 34
1000
0100
0001
0000
0001
0100
1000
0010
,  // measure 35
0000
0100
0010
0000
0100
0100
0100
0000
,  // measure 36
0001
0000
0101
0000
1000
0000
1100
0010
,  // measure 37
0100
0000
0010
0100
1000
1000
1000
0000
,  // measure 38
0001
0101
1000
1010
,  // measure 39
0100
0000
0010
0100
0010
0010
0010
0000
,  // measure 40
1000
0001
1000
0010
1000
0001
1000
0100
,  // measure 41
1000
0001
1000
0010
0100
0001
0100
0000
,  // measure 42
0100
0100
0010
1000
0001
0100
0010
0100
,  // measure 43
0001
0000
0011
0000
0101
0000
0001
0100
,  // measure 44
0010
1000
0001
1000
2001
0000
3000
0000
,  // measure 45
0110
0001
0100
0010
0110
0000
0100
0010
,  // measure 46
0100
0001
0100
0010
1000
0001
1000
0010
,  // measure 47
0200
0302
2003
0000
,  // measure 48
3001
0000
1001
0000
,  // measure 49
0110
0000
0000
1010
0000
0000
0000
0000
,  // measure 50
0101
0000
1001
0000
,  // measure 51
1000
0010
0001
0010
2000
0000
3001
0000
,  // measure 52
0110
0000
0101
0000
,  // measure 53
1100
0000
0000
1001
0000
0000
1000
0010
,  // measure 54
0001
0000
0001
0010
1000
0000
1000
0100
,  // measure 55
0010
0001
0010
0100
0000
0000
1000
0001
,  // measure 56
1000
1010
0001
0000
,  // measure 57
0010
1000
0100
0001
0000
0000
0000
0000
;

//---------------dance-single - ----------------
#NOTES:
     dance-single:
     :
     Medium:
     6:
     0.291092,0.313151,0.354768,0.109159,0.000000,173.000000,39.000000,12.000000,0.000000,0.000000,0.000000,0.291092,0.313151,0.354768,0.109159,0.000000,173.000000,39.000000,12.000000,0.000000,0.000000,0.000000:
// measure 0
0000
0000
0000
0000
,  // measure 1
0000
0000
0000
0000
,  // measure 2
0000
0000
0000
0000
,  // measure 3
0000
0000
0000
0000
,  // measure 4
0000
0000
0000
0000
,  // measure 5
0000
0000
0000
0000
,  // measure 6
0000
0000
0000
0000
,  // measure 7
0000
0000
0000
0000
,  // measure 8
0101
0000
1010
0000
,  // measure 9
0101
0000
0000
1001
0000
0000
0000
0000
,  // measure 10
1010
0000
0101
0000
,  // measure 11
0001
0100
1000
0100
0000
0000
0000
0000
,  // measure 12
1100
0000
0011
0000
,  // measure 13
1001
0000
0000
0101
0000
0000
0000
0000
,  // measure 14
1010
0000
1001
0000
,  // measure 15
1000
0010
0001
0010
0000
0000
1000
0010
,  // measure 16
1000
2002
0000
3003
,  // measure 17
1000
0000
0100
0100
0000
0000
0001
0000
,  // measure 18
0100
2000
0000
0000
,  // measure 19
3010
0000
0000
0100
0000
0000
0001
0100
,  // measure 20
0001
1000
0000
0000
,  // measure 21
0001
0000
0000
0011
0000
0000
0001
0010
,  // measure 22
0100
1000
0020
0000
0000
0000
0000
0000
,  // measure 23
1030
0000
0000
1001
0000
0000
0001
0000
,  // measure 24
0001
0100
0010
0000
0000
0000
0000
0000
,  // measure 25
0010
1000
0010
0000
1000
0010
1000
0000
,  // measure 26
0010
0100
0002
0000
0000
0000
0000
0000
,  // measure 27
1003
0000
0000
1001
0000
1001
0000
0000
,  // measure 28
1000
0100
0010
0000
0000
0000
0000
0000
,  // measure 29
0001
0010
0100
0000
0100
1000
0010
0000
,  // measure 30
0100
0001
0100
0000
0000
0000
0000
0000
,  // measure 31
0020
0000
0000
1030
0000
1001
0000
0000
,  // measure 32
1001
0000
0101
0000
0100
0100
0100
0000
,  // measure 33
0010
0000
1000
0000
0001
0001
0001
0000
,  // measure 34
1000
0000
0100
0000
0001
0100
0000
1000
,  // measure 35
0000
0100
0000
0000
1000
1000
1000
0000
,  // measure 36
0100
0001
0100
0000
0010
0000
0100
0000
,  // measure 37
0001
0000
1000
0000
0001
0001
0002
0000
,  // measure 38
1003
0010
0100
0001
,  // measure 39
0100
0000
0010
0000
0010
0010
0020
0000
,  // measure 40
1030
0100
0001
0010
,  // measure 41
1000
0001
0100
0010
,  // measure 42
1000
0000
0001
0000
0100
0000
0010
1000
,  // measure 43
0010
1000
2002
3003
,  // measure 44
0100
0001
0101
0001
,  // measure 45
0100
1000
1100
1000
,  // measure 46
0010
0100
0001
0101
,  // measure 47
2010
0000
0001
0000
0200
0000
0000
3300
,  // measure 48
1001
0000
0101
0000
,  // measure 49
1010
0000
0000
1010
0000
0000
0000
0000
,  // measure 50
0110
0000
0101
0000
,  // measure 51
0001
0100
1000
0100
0000
0000
0000
0000
,  // measure 52
0011
0000
1100
0000
,  // measure 53
1001
0000
0000
1010
0000
0000
0000
0000
,  // measure 54
0101
0000
0110
0000
,  // measure 55
1000
0010
0001
0010
0000
0000
0011
0100
,  // measure 56
1000
0101
0000
0000
,  // measure 57
1000
0001
1000
0001
0000
0000
0000
0000
;

//---------------dance-single - ----------------
#NOTES:
     dance-single:
     :
     Easy:
     4:
     0.240411,0.259254,0.072773,0.300188,0.000000,144.000000,8.000000,33.000000,0.000000,0.000000,0.000000,0.240411,0.259254,0.072773,0.300188,0.000000,144.000000,8.000000,33.000000,0.000000,0.000000,0.000000:
// measure 0
0000
0000
0000
0000
,  // measure 1
0000
0000
0000
0000
,  // measure 2
0000
0000
0000
0000
,  // measure 3
0000
0000
0000
0000
,  // measure 4
0000
0000
0000
0000
,  // measure 5
0000
0000
0000
0000
,  // measure 6
0000
0000
0000
0000
,  // measure 7
0000
0000
0000
0000
,  // measure 8
2001
0000
0100
0000
,  // measure 9
0010
0000
0001
0000
,  // measure 10
0001
0000
0100
0000
,  // measure 11
0010
0100
3010
0000
,  // measure 12
1002
0000
0100
0000
,  // measure 13
1000
0000
0010
0000
,  // measure 14
1000
0000
0100
0000
,  // measure 15
0010
0100
0013
1000
,  // measure 16
0200
0000
0000
0000
,  // measure 17
1300
0010
0001
0100
,  // measure 18
1000
2000
0000
0000
,  // measure 19
3010
0100
0001
1000
,  // measure 20
1001
0020
0000
0000
,  // measure 21
0031
0000
0001
0100
,  // measure 22
0010
0000
1001
0000
,  // measure 23
0100
0001
0100
0000
,  // measure 24
2000
3010
0000
0000
,  // measure 25
0002
0103
2000
3010
,  // measure 26
0200
0000
0300
0010
,  // measure 27
1001
0000
0100
0000
,  // measure 28
0110
0001
0000
0000
,  // measure 29
1000
0001
1000
0001
,  // measure 30
2000
3100
0000
0002
,  // measure 31
0013
2000
3010
0100
,  // measure 32
0110
0100
0010
1000
,  // measure 33
0001
1000
0002
0000
,  // measure 34
1003
0010
0100
0001
,  // measure 35
0100
0010
2000
0000
,  // measure 36
3010
1000
0100
1000
,  // measure 37
0010
0100
0002
0000
,  // measure 38
0103
0010
1000
0100
,  // measure 39
1000
0010
0200
0000
,  // measure 40
0310
0100
0010
0100
,  // measure 41
0010
1000
0010
1000
,  // measure 42
0001
1000
0001
1000
,  // measure 43
0100
1000
0100
1000
,  // measure 44
0010
0100
0002
0103
,  // measure 45
0010
1000
0002
1003
,  // measure 46
0100
0001
0100
1000
,  // measure 47
0002
0100
2000
3003
,  // measure 48
2000
0000
3020
0000
,  // measure 49
0230
0000
0302
0000
,  // measure 50
2003
0000
3002
0000
,  // measure 51
1000
0010
1003
0000
,  // measure 52
2000
0000
3020
0000
,  // measure 53
0230
0000
0302
0000
,  // measure 54
2003
0000
3200
0000
,  // measure 55
1000
1000
1300
1000
,  // measure 56
0110
0000
0200
0300
,  // measure 57
0001
0000
0000
0000
;

//---------------dance-single - ----------------
#NOTES:
     dance-single:
     :
     Beginner:
     1:
     0.101362,0.103701,0.036386,0.090966,0.000000,64.000000,4.000000,10.000000,0.000000,0.000000,0.000000,0.101362,0.103701,0.036386,0.090966,0.000000,64.000000,4.000000,10.000000,0.000000,0.000000,0.000000:
// measure 0
0000
0000
0000
0000
,  // measure 1
0000
0000
0000
0000
,  // measure 2
0000
0000
0000
0000
,  // measure 3
0000
0000
0000
0000
,  // measure 4
0000
0000
0000
0000
,  // measure 5
0000
0000
0000
0000
,  // measure 6
0000
0000
0000
0000
,  // measure 7
0000
0000
0000
0000
,  // measure 8
2000
0000
0000
3000
,  // measure 9
1000
0000
0000
0000
,  // measure 10
0002
0000
0000
0003
,  // measure 11
0001
0000
0000
0000
,  // measure 12
1000
0000
1000
0000
,  // measure 13
1000
0000
0000
0000
,  // measure 14
0001
0000
0001
0000
,  // measure 15
0001
0000
0000
0000
,  // measure 16
0010
0000
1000
0000
,  // measure 17
0100
0000
0001
0000
,  // measure 18
0020
0000
0000
0030
,  // measure 19
0010
0000
0000
0000
,  // measure 20
1000
0000
0010
0000
,  // measure 21
1000
0000
0010
0000
,  // measure 22
0001
0000
0100
0000
,  // measure 23
2000
0000
0000
3000
,  // measure 24
1000
0000
0000
0000
,  // measure 25
1001
0000
0000
0000
,  // measure 26
0001
0000
0000
0000
,  // measure 27
0200
0000
0000
0300
,  // measure 28
0100
0000
0000
0000
,  // measure 29
0020
0000
0000
0030
,  // measure 30
0010
0000
0000
0000
,  // measure 31
1001
0000
0000
0000
,  // measure 32
1000
0000
0000
0000
,  // measure 33
1000
0000
0000
0000
,  // measure 34
0001
0000
0000
0000
,  // measure 35
0001
0000
0000
0000
,  // measure 36
1000
0000
0000
0000
,  // measure 37
0010
0000
0000
0000
,  // measure 38
0100
0000
0000
0000
,  // measure 39
0001
0000
0000
0000
,  // measure 40
0001
0000
0001
0000
,  // measure 41
0001
0000
0001
0000
,  // measure 42
0001
0000
0001
0000
,  // measure 43
0001
0000
0001
0000
,  // measure 44
0000
0000
1001
0000
,  // measure 45
0000
0000
0110
0000
,  // measure 46
1000
0000
0001
0000
,  // measure 47
0001
0000
0001
0000
,  // measure 48
0002
0000
0000
0003
,  // measure 49
0001
0000
0000
0000
,  // measure 50
2000
0000
0000
3000
,  // measure 51
1000
0000
0000
0000
,  // measure 52
0020
0000
0000
0030
,  // measure 53
0010
0000
0000
0000
,  // measure 54
0200
0000
0000
0300
,  // measure 55
0100
0000
0000
0000
,  // measure 56
1000
0000
0010
0000
,  // measure 57
1000
0000
0000
0000
;
