#TITLE:Give Me Your Love;
#SUBTITLE:;
#ARTIST:星野奏子;
#TITLETRANSLIT:;
#SUBTITLETRANSLIT:Kanako Hoshino;
#ARTISTTRANSLIT:;
#GENRE:Kana-Pop;
#CREDIT:chewi;
#BANNER:Give Me Your Love.png;
#BACKGROUND:Give Me Your Love-bg.png;
#LYRICSPATH:;
#CDTITLE:cdtitle.png;
#MUSIC:Give Me Your Love.ogg;
#OFFSET:-3.434000;
#SAMPLESTART:62.513000;
#SAMPLELENGTH:15.000000;
#SELECTABLE:YES;
#BPMS:0.000000=130.000000
;
#STOPS:
;
#BGCHANGES:;
#KEYSOUNDS:;
#ATTACKS:;

//---------------dance-single - ----------------
#NOTES:
     dance-single:
     :
     Beginner:
     3:
     0.134941,0.151993,0.042936,0.000000,0.000000,105.000000,5.000000,0.000000,0.000000,0.000000,0.000000,0.134941,0.151993,0.042936,0.000000,0.000000,105.000000,5.000000,0.000000,0.000000,0.000000,0.000000:
0000
0000
0000
0000
,
0000
0000
0000
0000
,
0000
0000
0000
0000
,
0000
0000
0000
0000
,
1000
0000
1000
0000
,
1000
1000
1000
0000
,
0001
0001
0001
0000
,
0001
0001
0001
0000
,
1001
0000
0000
0000
,
0100
0000
0000
0000
,
0010
0000
0000
0000
,
0100
0000
0000
0000
,
0001
0000
0000
0000
,
1000
0000
0000
0000
,
0001
0000
0000
0000
,
0010
0000
0000
0000
,
0100
0000
0100
0000
,
0100
0000
0100
0000
,
0010
0000
0010
0000
,
0010
0000
0010
0000
,
1000
0000
1000
0000
,
1000
0000
1000
0000
,
0001
0000
0001
0000
,
0001
0000
0001
0000
,
1001
0000
0000
0000
,
0100
0000
0000
0000
,
1001
0000
0000
0000
,
0010
0000
0000
0000
,
0110
0000
0000
0000
,
1000
0000
0000
0000
,
0110
0000
0000
0000
,
0001
0000
0000
0000
,
0001
0000
0001
0000
,
0001
0001
0001
0000
,
1000
1000
1000
0000
,
1000
1000
1000
0000
,
0010
0000
0010
0000
,
0010
0010
0010
0000
,
0100
0100
0100
0000
,
0100
0100
0100
0000
,
0010
0000
1000
0000
,
0010
0000
1000
0000
,
0010
0000
0001
0000
,
0010
0000
0001
0000
,
0010
0000
0100
0000
,
0010
0000
0100
0000
,
0100
0000
0100
0000
,
0010
0000
0010
0000
,
0010
0000
0000
0000
,
0010
0000
0000
0000
,
1000
0000
0000
0000
,
1000
0000
1000
0000
,
1000
1000
1000
0000
,
0001
0000
0001
0000
,
0001
0001
0001
0000
,
0100
0000
0010
0000
,
0100
0100
0100
0000
,
0100
0000
0010
0000
,
0100
0100
0100
0000
,
0100
0000
0000
0000
;

//---------------dance-single - ----------------
#NOTES:
     dance-single:
     :
     Easy:
     5:
     0.223266,0.256541,0.128807,0.103046,0.000000,155.000000,15.000000,12.000000,0.000000,0.000000,0.000000,0.223266,0.256541,0.128807,0.103046,0.000000,155.000000,15.000000,12.000000,0.000000,0.000000,0.000000:
0000
0000
0000
0000
,
0000
0000
0000
0000
,
0000
0000
0000
0000
,
0000
0000
0000
0000
,
1000
0100
1000
0000
,
0001
0010
0001
0000
,
1001
0000
1001
0000
,
1001
1001
1001
0000
,
0020
0000
0000
0030
,
0010
0010
0010
0000
,
0200
0000
0000
0300
,
0100
0100
0100
0000
,
2000
0000
0000
3000
,
1000
1000
1000
0000
,
0002
0000
0000
0003
,
0001
0001
0001
0000
,
0001
0100
0001
0000
,
0100
1000
0100
0000
,
1000
0010
1000
0000
,
0010
0001
0010
0000
,
0001
0010
0100
0000
,
1000
0100
0010
0000
,
0001
1000
0010
0000
,
1000
0001
0100
0000
,
0100
0100
0100
0000
,
0200
0000
0310
0000
,
0010
0010
0010
0000
,
0020
0000
0130
0000
,
0100
0100
0100
0000
,
0200
0000
0301
0000
,
0001
0001
0001
0000
,
2000
0000
3001
0000
,
1000
0001
1000
1000
,
0001
1000
0001
1001
,
1000
0100
0010
0000
,
0100
0010
0001
0000
,
0010
0010
0100
0100
,
0010
0100
0010
0110
,
0100
1000
0010
0000
,
0010
0100
0001
0000
,
0001
0100
1000
0100
,
0001
0100
1000
0100
,
0001
0010
1000
0010
,
0001
0010
1000
0010
,
0001
0100
1000
0100
,
0001
0100
1000
0100
,
0001
0001
1000
1000
,
0010
0010
0100
0100
,
0020
0000
0000
0030
,
0200
0000
0000
0300
,
0200
0000
0000
0300
,
0110
0000
0010
0000
,
0010
1000
0100
0000
,
0110
0000
0100
0000
,
0100
1000
0010
0000
,
1001
0000
0001
0000
,
1000
0001
0100
0000
,
0110
0000
0110
0000
,
0110
0110
0110
0000
,
0020
0000
0000
0030
;

//---------------dance-single - ----------------
#NOTES:
     dance-single:
     :
     Medium:
     7:
     0.326312,0.410466,0.094459,0.403596,0.034349,208.000000,11.000000,47.000000,0.000000,0.000000,0.000000,0.326312,0.410466,0.094459,0.403596,0.034349,208.000000,11.000000,47.000000,0.000000,0.000000,0.000000:
0000
0000
0000
0000
,
0000
0000
0000
0000
,
0000
0000
0000
0000
,
0000
0000
0000
0000
,
0010
0000
0000
0010
0000
0000
0010
0000
0010
0000
0000
0000
0000
0000
0000
0000
,
0100
0000
0000
0100
0000
0000
0100
0000
0100
0000
0000
0000
0100
0000
0000
0000
,
0110
0000
0000
0010
0000
0000
0010
0000
,
0000
0010
0100
0010
0100
0000
0000
0000
,
0200
0000
0000
0300
,
0100
0010
1000
0001
,
2000
0000
0000
3000
,
1000
0001
0010
0100
,
0020
0000
0230
0000
,
2300
0000
3002
0000
,
0103
0010
0100
0001
,
0010
0100
1000
1100
,
0020
0000
0000
0030
,
0010
0100
1000
0001
,
0002
0000
0000
0003
,
0001
1000
0010
0100
,
0200
0000
0320
0000
,
2030
0000
3002
0000
,
0013
0100
0010
0001
,
0100
1000
0010
1001
,
1000
0000
0000
1000
0000
1000
0000
0000
,
0001
0000
0000
0001
0000
0001
0000
0000
,
0100
0000
0000
0100
0000
0100
0000
0000
,
0010
0000
0000
0010
0000
0010
0000
0000
,
0010
0100
0001
1001
,
0010
0100
1000
1100
,
0010
0001
0100
0101
,
2200
0000
0000
3300
,
1000
0100
0010
0100
,
1000
0001
1000
0000
0001
1000
0001
0000
,
0200
0320
2030
3002
,
2003
3020
0032
0023
,
0130
0010
1000
0001
,
1000
0010
1000
0000
0001
0100
0001
0000
,
0200
0320
2030
3020
,
0230
0302
2003
3200
,
0310
0001
0100
0010
,
1000
0001
1000
0000
0001
1000
0001
0000
,
0020
0230
2300
3020
,
0230
0302
2003
3200
,
0310
0100
1000
0001
,
0001
0100
0001
0000
1000
0010
1000
0000
,
0020
0230
0302
0203
,
0320
2030
3002
0023
,
0030
0001
0001
0000
1000
1000
0000
0001
,
1000
0100
0000
0100
0010
0000
0010
0001
,
0000
0001
1000
0001
1000
0000
1001
0000
,
1000
0000
0000
1000
0000
0000
1000
0000
1000
0000
0000
0000
0000
0000
0000
0000
,
0001
0000
0000
0001
0000
0000
0001
0000
0001
0000
0000
0000
0001
0000
0000
0000
,
0100
0000
0000
0100
0000
0000
0100
0000
0100
0000
0000
0000
0000
0000
0000
0000
,
0010
0000
0000
0010
0000
0000
0010
0000
0010
0000
0000
0000
0010
0000
0000
0000
,
0100
0000
0000
0010
0000
0000
0100
0000
0010
0000
0000
0000
0000
0000
0000
0000
,
1000
0000
0000
0001
0000
0000
1000
0000
0001
0000
0000
0000
0010
0000
0000
0000
,
0110
0000
0000
0110
0000
0000
0110
0000
,
0000
0010
0100
0010
0100
0000
0000
0000
,
0200
0000
0000
0300
;

//---------------dance-single - ----------------
#NOTES:
     dance-single:
     :
     Hard:
     12:
     0.419544,0.436120,0.326312,0.154569,0.055817,286.000000,38.000000,18.000000,0.000000,0.000000,0.000000,0.419544,0.436120,0.326312,0.154569,0.055817,286.000000,38.000000,18.000000,0.000000,0.000000,0.000000:
// measure 0
0000
0000
0000
0000
,  // measure 1
0000
0000
0000
0000
,  // measure 2
0000
0000
0000
0000
,  // measure 3
0000
0000
0000
0000
,  // measure 4
1000
0100
1000
0010
2000
0000
3100
0000
,  // measure 5
0010
0001
0100
0001
0020
0000
0032
0000
,  // measure 6
0013
0110
0000
0100
0110
0000
0010
0110
,  // measure 7
0000
0100
0100
0100
0100
0000
0000
0000
,  // measure 8
1000
0000
0000
1000
0000
0000
1000
0000
1000
0000
0000
0000
0000
0000
0000
0000
,  // measure 9
0001
0000
0000
0001
0000
0000
0001
0000
0000
0000
0000
0000
0000
0000
0000
0000
,  // measure 10
0100
0000
0000
0100
0000
0000
0100
0000
0100
0000
0000
0000
0000
0000
0000
0000
,  // measure 11
0010
0000
0000
0010
0000
0000
0010
0000
0000
0000
0000
0000
0000
0000
0000
0000
,  // measure 12
1000
0000
0000
0010
0000
0000
0001
0000
0000
0000
0000
0000
0010
0000
0000
0000
,  // measure 13
1000
0000
0000
0100
0000
0000
0001
0000
0000
0000
0000
0000
0100
0000
0000
0000
,  // measure 14
0010
0000
0000
0001
0000
0000
0100
0000
0000
0000
0000
0000
0101
0000
0000
0000
,  // measure 15
0100
0000
0000
0010
0000
0000
1000
0000
0100
0000
0000
0000
1100
0000
0000
0000
,  // measure 16
1000
0100
1000
0100
0010
0100
0010
0100
,  // measure 17
0010
0001
0100
0000
0010
1000
0100
0000
,  // measure 18
1000
0001
1000
0001
0100
0010
0100
0010
,  // measure 19
1000
0010
1000
0000
0001
0100
0001
0000
,  // measure 20
1000
0010
0001
0010
1000
0010
0001
0000
,  // measure 21
0001
0010
1000
0100
0001
0100
1000
0000
,  // measure 22
1000
0100
0001
0100
1000
0100
0001
0000
,  // measure 23
0001
0100
1000
0010
0001
0010
1000
0000
,  // measure 24
0001
0000
0000
0100
0000
0100
0000
0010
,  // measure 25
0000
0010
0000
1000
0000
1000
1100
0000
,  // measure 26
0010
0000
0000
0100
0000
0100
0000
0010
,  // measure 27
0000
0010
0000
0001
0000
0001
0011
0000
,  // measure 28
0010
0100
1000
0100
0000
0010
0000
0001
,  // measure 29
0000
0000
1000
0000
0000
0000
0010
0000
0000
0000
0100
0000
0010
0100
0000
0000
,  // measure 30
0000
0000
0001
0101
0000
1010
0000
0101
,  // measure 31
0000
0000
0000
0000
,  // measure 32
1001
0000
0000
1000
0000
0000
0001
0000
0000
0000
0000
0000
1000
0000
0100
0000
,  // measure 33
0010
0001
0010
0002
0000
0013
0100
1000
,  // measure 34
0000
0100
1100
0000
1000
1100
0000
1001
,  // measure 35
0000
0100
0010
0100
0000
0110
0000
0000
,  // measure 36
0110
0000
0000
0100
0000
0000
0010
0000
0000
0000
0000
0000
0100
0000
0001
0000
,  // measure 37
1000
0010
1000
0020
0000
1030
0001
0100
,  // measure 38
0000
0001
0101
0000
0100
0101
0000
0110
,  // measure 39
0000
0001
1000
1001
0000
0000
0000
0000
,  // measure 40
0110
0000
0000
0010
0000
0000
0100
0000
0000
0000
0000
0000
0010
0000
0001
0000
,  // measure 41
1000
0100
0001
0200
0000
1300
0010
0100
,  // measure 42
0000
0010
1010
0000
1000
1010
0000
0110
,  // measure 43
0000
0001
1000
0001
0000
1001
0000
0000
,  // measure 44
1001
0000
0000
0001
0000
0000
1000
0000
0000
0000
0000
0000
0001
0000
0010
0000
,  // measure 45
0100
1000
0100
2000
0000
3100
0010
0001
,  // measure 46
0000
0010
0011
0000
0001
0011
0000
1001
,  // measure 47
0000
0010
0100
0110
0000
0000
1001
0000
,  // measure 48
0000
1000
0100
0000
0001
0100
0010
1000
,  // measure 49
0001
1001
0000
1000
1001
0000
0001
1001
,  // measure 50
0000
1000
1000
1000
1000
0000
0000
0000
,  // measure 51
0010
0100
0010
1000
0200
0000
0310
0000
,  // measure 52
0100
0010
0001
1000
2000
0000
3002
0000
,  // measure 53
1003
0010
0100
1000
0200
0000
0301
0000
,  // measure 54
0010
0100
1000
0001
0200
0000
0302
0000
,  // measure 55
1003
0100
0010
0100
0020
0000
0130
0000
,  // measure 56
1000
0001
0100
0010
0200
0000
0320
0000
,  // measure 57
0130
0110
0000
0010
0110
0000
0100
0110
,  // measure 58
0000
0010
0010
0010
0010
0000
0000
0000
,  // measure 59
2002
0000
0000
3003
;
