#TITLE:Girls Night Out (Andy Harding Radio Edit);
#SUBTITLE:;
#ARTIST:Jenna Drey;
#TITLETRANSLIT:;
#SUBTITLETRANSLIT:;
#ARTISTTRANSLIT:;
#GENRE:;
#CREDIT:Chewi☆;
#MENUCOLOR:;
#METERTYPE:DDR X;
#BANNER:Girls Night Out (Andy Harding Radio Edit).png;
#BACKGROUND:Girls Night Out (Andy Harding Radio Edit)-bg.png;
#LYRICSPATH:;
#CDTITLE:;
#MUSIC:Girls Night Out (Andy Harding Radio Edit).mp3;
#OFFSET:-0.072;
#SAMPLESTART:45.057;
#SAMPLELENGTH:15.000;
#SELECTABLE:YES;
#LISTSORT:;
#DISPLAYBPM:128.000;
#BPMS:0.000=128.000;
#STOPS:;
#BGCHANGES:;
#ATTACKS:;

//---------------dance-single - Chewi----------------
#NOTES:
     dance-single:
     Chewi:
     Beginner:
     2:
     0.158,0.262,0.101,0.071,0.000:
0000
0000
0000
0000
,
0000
0000
0000
0000
,
0000
0000
0000
0000
,
0000
0000
0000
0000
,
1000
0000
0100
0000
,
1000
0000
0100
0000
,
0001
0000
0100
0000
,
0001
0000
0100
0000
,
0010
0000
0100
0000
,
0010
0000
0100
0000
,
1000
0000
0001
0000
,
1000
0000
0001
0000
,
1000
0000
0100
0000
,
0010
0000
0001
0000
,
1000
0000
0100
0000
,
0010
0000
0001
0000
,
0001
0000
0100
0000
,
0010
0000
1000
0000
,
0001
0000
0100
0000
,
0010
0000
1000
0000
,
2002
0000
0000
3003
,
0220
0000
0000
0330
,
2002
0000
0000
3003
,
0000
0000
0000
0000
,
1000
1000
1000
0000
,
1000
0000
0001
0000
,
1001
0000
0010
0010
,
0010
0000
0000
0000
,
0001
0001
0001
0000
,
0001
0000
1001
0000
,
0010
0010
0010
0000
,
0110
0000
0000
0000
,
0001
0001
0001
0000
,
0001
0000
1000
0000
,
1001
0000
0100
0100
,
0100
0000
0000
0000
,
1000
1000
1000
0000
,
1000
0000
1001
0000
,
0100
0100
0100
0000
,
0110
0000
0000
0000
,
0020
0000
0000
0000
,
0000
0000
0000
0030
,
0010
0000
0100
0000
,
0110
0000
0000
0000
,
1000
0000
0001
0000
,
1000
0000
0001
0000
,
0100
0000
0010
0000
,
0100
0000
0010
0000
,
1000
0000
0010
0000
,
0001
0000
0010
0000
,
1000
0000
0100
0000
,
0001
0000
0100
0100
;

//---------------dance-single - Chewi----------------
#NOTES:
     dance-single:
     Chewi:
     Easy:
     4:
     0.246,0.367,0.142,0.314,0.000:
0000
0000
0000
0000
,
0000
0000
0000
0000
,
0000
0000
0000
0000
,
0000
0000
0000
0000
,
2000
3001
0100
0010
,
1000
0100
0010
0001
,
2002
0000
0000
3003
,
0010
0010
0010
0000
,
0200
0310
0001
1000
,
0100
0001
1000
0010
,
0220
0000
0000
0330
,
1000
1000
1000
0000
,
1000
0100
0010
0000
,
0100
0010
0001
0000
,
0001
0100
0010
0000
,
0100
0010
1000
0000
,
0001
1000
0001
0000
,
1000
0001
1000
0000
,
0010
0100
0010
0100
,
0200
0010
0010
0000
,
0302
0000
1000
0010
,
2003
0000
0100
0001
,
3002
0000
0010
0100
,
0200
0000
0000
0303
,
0001
0100
0010
0000
,
0010
0010
0010
0010
,
0010
0000
0000
0000
,
0000
0000
0000
0000
,
1000
0100
0010
0000
,
0100
0100
0100
0100
,
0100
0000
0000
0000
,
0000
0000
0000
0000
,
0001
1001
1000
0010
,
0001
0100
1000
0100
,
0110
0000
0000
0000
,
0000
0000
0000
0000
,
1000
1001
0001
0100
,
1000
0010
0001
0010
,
0100
0000
0000
0000
,
0100
0100
0100
0100
,
0020
0000
0000
0030
,
0002
0000
0000
0003
,
2000
0000
0000
3000
,
0020
0000
0000
0030
,
0220
0330
1000
0001
,
2002
3003
0001
1000
,
2200
3300
1000
0100
,
0202
0303
0001
0100
,
0220
0330
0001
1000
,
2002
3003
1000
0001
,
0022
0033
0001
0010
,
2020
3030
1000
1001
;

//---------------dance-single - Chewi----------------
#NOTES:
     dance-single:
     Chewi:
     Medium:
     7:
     0.336,0.393,0.243,0.152,0.000:
0000
0000
0000
0000
,
0000
0000
0000
0000
,
0000
0000
0000
0000
,
0000
0000
0000
0000
,
2100
3010
0100
0001
,
0010
0100
1000
0001
,
0200
0000
0000
0300
,
0010
0001
0010
0000
0100
1000
0100
0000
,
0012
0013
0100
1000
,
0010
0100
0001
0010
,
0200
0000
0000
0300
,
0010
0100
0010
0000
0100
0010
0100
0000
,
1000
0000
0100
0000
0001
1000
0100
0000
,
0001
0000
0100
0000
1000
0001
0100
0000
,
0010
0000
0100
0000
0001
0010
0100
0000
,
0010
0000
0100
0000
1000
0100
0010
0000
,
0001
0101
1000
1100
,
0001
1000
0010
0100
,
0020
0100
0100
0130
,
0200
0010
0010
0310
,
2002
0000
3003
0000
1000
0100
0001
0000
,
0002
0000
0003
0000
0001
0010
1000
0000
,
2000
0000
3000
0000
1000
0010
0001
1000
,
0002
0000
0000
0000
,
1003
1100
0101
0100
,
0110
1000
0001
0010
,
0100
0010
0100
0010
,
0010
0010
0000
0001
,
1000
1010
0101
0100
,
0010
1000
0100
0001
,
0010
0000
0010
0100
,
0010
0100
0000
0000
,
1000
1100
0011
0100
,
1000
0010
0001
0100
,
0100
0000
0000
0000
0010
0100
0010
0000
,
0100
0100
0000
0000
,
0010
0110
1001
0100
,
0010
1000
0100
0001
,
0010
0000
0000
0000
0010
0100
0010
0000
,
0100
0000
0001
0000
1000
0001
1000
0000
,
2100
0001
0010
0001
,
3020
1000
1000
1000
,
0230
0001
0010
0001
,
0020
0000
0000
0330
,
1010
0000
0001
0000
1000
0100
1000
0000
,
0101
0000
1000
0000
0010
1000
0010
0000
,
1001
0000
0010
0000
0100
0010
0100
0000
,
0110
0000
0100
0000
1000
0100
1000
0000
,
0001
0000
0101
0000
0100
0010
1000
0001
,
1000
0000
1100
0000
1000
0001
0010
0100
,
1000
0000
1010
0000
0100
0001
0100
0010
,
1001
0000
1000
1001
;

//---------------dance-single - Chewi----------------
#NOTES:
     dance-single:
     Chewi:
     Hard:
     12:
     0.530,0.579,0.294,0.223,0.076:
0000
0000
0000
0000
,
0000
0000
0000
0000
,
0000
0000
0000
0000
,
0000
0000
0000
0000
,
2001
0000
3010
0100
0001
0000
0100
0010
,
1000
0001
0010
0100
1000
1000
0100
0100
,
0020
0001
0100
1030
,
2000
0010
0001
3010
,
1020
0000
0130
0001
0010
0100
0010
0001
,
0010
0000
0010
0100
1000
0001
0100
0010
,
1000
0100
1100
0000
1000
0100
1000
0100
,
0001
0100
0101
0000
0010
0100
0010
0000
,
1000
0010
0100
0001
0100
0000
0010
0000
1000
0000
0001
0000
0110
0000
0000
0000
,
0010
0001
0010
0100
1000
0010
0100
0000
,
0100
0010
1000
0001
0010
0000
0100
0000
0010
0000
0001
0000
0011
0000
0000
0000
,
0001
0010
0100
1000
0010
0100
0001
0000
,
0001
0100
1000
0010
0010
1000
0100
0001
,
0010
0100
1000
0001
0100
0010
1000
0001
,
1000
0100
1000
0000
0001
0100
0001
0000
,
1000
0010
1000
0000
0001
0010
0001
0000
,
2001
0000
0000
0000
3100
0000
0010
0001
0010
0000
0100
0000
1000
0000
0000
0000
,
1020
0000
0000
0000
0130
0000
0010
0100
0010
0000
0100
0000
0001
0000
0000
0000
,
0120
0000
0000
0000
0031
0000
0010
0100
1000
0000
0010
0000
0100
0000
0001
0000
,
0100
1000
0100
0001
0010
0000
0100
0010
,
0001
0010
0001
0010
0001
0010
0001
0010
,
0100
1000
0100
1000
0100
1000
0100
1000
,
0001
1000
0001
1000
0001
1000
0001
1000
,
0010
0100
0010
0100
0010
0100
0010
0100
,
0010
0100
1001
0000
0010
0100
1100
0000
,
0100
0010
0011
0000
0001
0100
0101
0000
,
0100
0010
1000
0001
0010
0100
1000
0002
,
1000
2000
0000
3003
,
1000
0000
1010
0000
0011
0000
0001
0010
,
0100
0000
1000
0000
0010
1000
0100
0001
,
0010
0000
0000
0010
0100
1000
0001
0100
,
0010
0000
0110
0000
0000
0000
0001
0100
,
1000
0000
1100
0000
0101
0000
1000
0010
,
0001
0010
1000
0100
0001
0010
0100
1000
,
0010
0000
0100
0100
0001
0100
1000
0100
,
1000
1000
0010
0001
0010
1000
0010
0100
,
0002
0010
0100
1000
,
2003
0010
0001
0100
,
3020
0100
1000
0100
,
0002
0000
0000
0033
,
0021
0000
0000
0000
0031
0010
0100
0000
1000
0000
0010
0000
0100
0000
0001
0000
,
0102
0000
0000
0000
0103
0010
1000
0000
0001
0000
1000
0000
0100
0000
1000
0000
,
2010
0000
0000
0000
3010
0100
0001
0000
0100
0000
0010
0000
1000
0000
0001
0000
,
1002
0000
0000
0000
1003
0001
0010
0000
0100
0000
1000
0000
0010
0000
0100
0000
,
0102
0000
0000
0000
0013
0100
1000
0000
0010
0000
0100
0000
0001
0000
0100
0000
,
0210
0000
0000
0000
0310
1000
0100
0000
0010
0000
0001
0000
0100
0000
0010
0000
,
0210
0000
0000
0000
0310
0100
0001
0000
0010
0000
0100
0000
1000
0000
0010
0000
,
1001
0000
0010
0000
0000
0110
0000
0000
1001
0000
0000
0000
0220
0000
0000
0000
,
0330
0000
0000
0000
;

//---------------dance-double - Chewi----------------
#NOTES:
     dance-double:
     Chewi:
     Hard:
     12:
     0.540,0.577,0.294,0.152,0.041:
00000000
00000000
00000000
00000000
,
00000000
00000000
00000000
00000000
,
00000000
00000000
00000000
00000000
,
00000000
00000000
00000000
00000000
,
01020000
00000000
01030000
00100000
10000000
00010000
00100000
01000000
,
10000000
01000000
00100000
00010000
01000000
00100000
01000000
00010000
,
00100000
00001000
00010000
00000000
00010000
00000100
00001000
00000001
,
00000100
00000010
00001000
00000000
00000100
00000010
00000001
00000100
,
00000102
00000000
00000103
00000010
00001000
00000001
00000010
00000000
,
00000100
00001000
00000010
00001000
00000100
00010000
00001000
00000000
,
00010000
00001000
00010000
01000000
00100000
10000000
00010000
00000000
,
10000000
01000000
10000000
01000000
00110000
00000000
11000000
00000000
,
00010000
01000000
00100000
10000000
00010000
00010000
00010000
00000000
,
00100000
00001000
00010000
00000100
00001000
00000001
00000100
00000000
,
00000010
00001000
00000001
00000010
00000100
00000100
00000100
00000000
,
00000010
00000100
00001000
00010000
01000000
10000000
00100000
00010000
,
00100000
01000000
10000000
00100000
01000000
00000000
01010000
00000000
,
00010000
00100000
01000000
10000000
00100000
01000000
01010000
00000000
,
00100000
00001000
00010000
00000100
00001000
00000001
00001001
00000000
,
00000100
00000010
00001000
00000001
00000010
00000000
00000110
00000000
,
00000012
00000000
00000103
00000010
00001000
00000100
00010000
00001000
,
00012000
00000000
00013000
01000000
10000000
00100000
00010000
00100000
,
20100000
00000000
30100000
10000000
01000000
00100000
00010000
01000000
,
10000000
01000000
00010000
01000000
10000000
00000000
00100000
01000000
,
00010000
00000000
00110000
00000000
00011000
00000000
00001000
00000010
,
00000001
00000000
00000100
00000000
00001000
00001000
00000001
00000001
,
00000000
00000000
00000000
00000010
00000100
00001000
00000100
00010000
,
00001000
00100000
00010000
00000000
01000000
00000000
01100000
00000000
,
10000000
00000000
11000000
00000000
01010000
00000000
01000000
00100000
,
10000000
00010000
00100000
00001000
00010000
00000100
00001000
00000001
,
00000001
00000000
00000100
00000010
00000100
00000001
00000010
00000100
,
00001000
00000010
00001000
00000100
00010000
00001000
00100000
00010000
,
01000000
01000000
00100000
10000000
00010000
00010000
00100000
01000000
,
10000000
00100000
10000000
01000000
00100000
00010000
01000000
00100000
,
01000000
00010000
00100000
00001000
00010000
00000100
00001000
00000001
,
00000100
00001000
00000010
00000001
00000010
00001000
00000100
00000001
,
00000100
00000010
00001000
00000100
00010000
00001000
00100000
10000000
,
01000000
00010000
01000000
10000000
00100000
00010000
00100000
10000000
,
01000000
00100000
00010000
01000000
00100000
01000000
00010000
00100000
,
00001000
00010000
00000100
00001000
00000001
00000100
00000010
00001000
,
00002010
00000001
00000100
00000010
,
00003002
00000100
00000010
00001000
,
00002003
00010000
00010000
00013000
,
00011000
00000000
00000000
00000000
00001000
00100000
00010000
01000000
,
01020000
00000000
00000000
00000000
10030000
00100000
01000000
00000000
01000000
00000000
00010000
00000000
00100000
00000000
01000000
00000000
,
21000000
00000000
00000000
00000000
31000000
00100000
00010000
00000000
01000000
00000000
00010000
00000000
00100000
00000000
00001000
00000000
,
00021000
00000000
00000000
00000000
00031000
00000010
00001000
00000000
00000001
00000000
00000010
00000000
00000100
00000000
00001000
00000000
,
00001002
00000000
00000000
00000000
00000103
00000010
00000001
00000000
00000100
00000000
00000010
00000000
00001000
00000000
00000010
00000000
,
00000120
00000000
00000000
00000000
00001030
00000100
00010000
00000000
00001000
00000000
00100000
00000000
00010000
00000000
01000000
00000000
,
02100000
00000000
00000000
00000000
03010000
00100000
01000000
00000000
10000000
00000000
00100000
00000000
01000000
00000000
00010000
00000000
,
00210000
00000000
00000000
00000000
00310000
00100000
00001000
00000000
00010000
00000000
00000100
00000000
00001000
00000000
00000001
00000000
,
00001001
00000000
00000010
00000000
00000000
00000101
00000000
00000000
00001001
00000000
00000000
00000000
00001100
00000000
00000000
00000000
;

//---------------dance-double - Chewi----------------
#NOTES:
     dance-double:
     Chewi:
     Medium:
     7:
     0.342,0.367,0.355,0.122,0.000: // measure 1
00000000
00000000
00000000
00000000
,  // measure 2
00000000
00000000
00000000
00000000
,  // measure 3
00000000
00000000
00000000
00000000
,  // measure 4
00000000
00000000
00000000
00000000
,  // measure 5
21000000
30010000
00100000
01000000
,  // measure 6
00100000
00010000
01000000
00000000
00100000
10000000
01000000
00000000
,  // measure 7
02200000
00000000
00000000
03300000
,  // measure 8
00010000
00010000
00010000
00000000
,  // measure 9
00012000
00000000
00013000
00000000
00010000
00001000
00000010
00000000
,  // measure 10
00000001
00000000
00000010
00000000
00000100
00001000
00000010
00000000
,  // measure 11
00000220
00000000
00000000
00000330
,  // measure 12
00000010
00001000
00000001
00000000
,  // measure 13
00000001
00000100
00000010
00001000
,  // measure 14
00010000
01000000
10000000
00100000
,  // measure 15
10000000
01000000
00100000
00010000
,  // measure 16
00001000
00000010
00000001
00000100
,  // measure 17
00000010
00000100
00000010
00000000
00000100
00000010
00000100
00000000
,  // measure 18
00001000
00000100
00000001
00000100
,  // measure 19
00000110
00000110
00000000
00000000
,  // measure 20
00001000
00000001
00001000
00000000
,  // measure 21
00011000
00000000
00001000
00000000
00010000
01000000
10000000
00000000
,  // measure 22
11000000
00000000
00100000
00000000
01000000
00100000
00010000
00000000
,  // measure 23
01010000
00000000
00010000
00000000
00100000
00001000
00010000
00000000
,  // measure 24
00022000
00000000
00000000
00033000
,  // measure 25
00010000
00000000
00001000
00000000
00000010
00000000
00000100
00000001
,  // measure 26
00000010
00000000
00000100
00000000
00001000
00000001
00001000
00000001
,  // measure 27
00001000
00000000
00001010
00000101
,  // measure 28
00001001
00000000
00001000
00000000
00000000
00000000
00000001
00000010
,  // measure 29
00000100
00000000
00001000
00000000
00000100
00000000
00010000
00001000
,  // measure 30
00010000
00000000
00100000
00000000
10000000
00000000
00010000
10000000
,  // measure 31
00010000
00100000
01000000
11000000
,  // measure 32
00110000
00000000
01010000
00000000
00000000
00000000
00100000
01000000
,  // measure 33
00100000
10100000
00110000
10000000
,  // measure 34
11000000
00000000
00010000
00000000
00100000
00001000
00010000
00000100
,  // measure 35
00000000
00000000
00001100
00000001
,  // measure 36
00000101
00000000
00000110
00000000
00000000
00000000
00000010
00001000
,  // measure 37
00000010
00000000
00000101
00000000
00001001
00000000
00000100
00001000
,  // measure 38
00000100
00010000
00001000
00100000
,  // measure 39
01000000
00000000
00100000
00010000
01000000
00000000
00100000
00000000
,  // measure 40
10000000
00000000
01000000
00000000
10000000
01000000
00100000
00000000
,  // measure 41
20020000
00000000
00000000
30000000
,  // measure 42
00200000
00000000
00000000
00030000
,  // measure 43
00002000
00000000
00000000
00000000
,  // measure 44
00303000
00000000
00100000
00001000
,  // measure 45
00011000
00000000
00000010
00000000
00001000
00000010
00000100
00000000
,  // measure 46
00000001
00000000
00000101
00000000
00000001
00000100
00000010
00000000
,  // measure 47
00001000
00000000
00001001
00000000
00001000
00000100
00001000
00000000
,  // measure 48
00000100
00000000
00010100
00000000
00010000
00001000
00010000
00000000
,  // measure 49
00001000
00000000
00101000
00000000
00010000
00100000
00010000
00000000
,  // measure 50
00100000
00000000
11000000
00000000
10000000
01000000
10000000
00000000
,  // measure 51
00010000
00000000
01010000
00000000
01000000
00100000
10000000
00000000
,  // measure 52
10010000
00000000
01010000
00011000
;

//---------------dance-double - Chewi----------------
#NOTES:
     dance-double:
     Chewi:
     Easy:
     5:
     0.266,0.288,0.172,0.061,0.000: // measure 1
00000000
00000000
00000000
00000000
,  // measure 2
00000000
00000000
00000000
00000000
,  // measure 3
00000000
00000000
00000000
00000000
,  // measure 4
00000000
00000000
00000000
00000000
,  // measure 5
10000000
01000000
00010000
01000000
,  // measure 6
00010000
00001000
00010000
00001000
,  // measure 7
00000010
00000001
00000001
00000100
,  // measure 8
00001000
00000000
00000100
00000000
00001000
00000000
00000100
20000000
,  // measure 9
00000001
30000000
00001000
00000000
00000010
00000000
00000100
00000000
,  // measure 10
00000001
00001000
00000100
00010000
,  // measure 11
00001000
00010000
01000000
10000000
,  // measure 12
00010000
10000000
00100000
01000000
,  // measure 13
01100000
00100000
10000000
10000000
,  // measure 14
00010000
00100000
00001000
00001000
,  // measure 15
00010000
00000100
00000110
00000010
,  // measure 16
00000001
00001000
00001001
00001000
,  // measure 17
00000001
00000100
00001000
00010000
,  // measure 18
01000000
10000000
00100000
00010000
,  // measure 19
00100000
00100000
01000000
01000000
,  // measure 20
10000000
00010000
10000000
00010000
,  // measure 21
10010000
00000000
00010000
00001000
,  // measure 22
00011000
00000000
00001000
00000010
,  // measure 23
00000110
00000000
00000100
00000001
,  // measure 24
00002002
00000000
00000000
00003003
,  // measure 25
00000001
00000100
00001000
00000100
,  // measure 26
00000001
00000010
00001000
00010000
,  // measure 27
01100000
00000000
00000000
00000000
,  // measure 28
10010000
00000000
00000000
00000000
,  // measure 29
10000000
01000000
00010000
00001000
,  // measure 30
00000100
00000001
00000110
00000010
,  // measure 31
00000100
00000000
00000010
00000001
,  // measure 32
00001001
00001001
00000000
00000001
,  // measure 33
00000100
00000010
00001000
00000100
,  // measure 34
00010000
00001000
00100000
00010000
,  // measure 35
01000000
00100000
10000000
00010000
,  // measure 36
10000000
00010000
00100000
00100000
,  // measure 37
01000000
00100000
00010000
01000000
,  // measure 38
00010000
00001000
00000001
00000100
,  // measure 39
00000010
00001000
00000001
00000010
,  // measure 40
00000100
00000100
00000010
00000010
,  // measure 41
00000002
00000000
00000000
00000000
,  // measure 42
00002000
00000000
00000000
00000003
,  // measure 43
00000020
00000000
00000000
00000000
,  // measure 44
00003030
00000000
00000000
00000000
,  // measure 45
00001001
00000000
00000001
00001000
,  // measure 46
00011000
00000000
00001000
00010000
,  // measure 47
10010000
00000000
10000000
00010000
,  // measure 48
01100000
00000000
00100000
01000000
,  // measure 49
00100000
00010000
01000000
10000000
,  // measure 50
00100000
00010000
00001000
00000010
,  // measure 51
00000001
00000100
00001000
00000010
,  // measure 52
00000110
00000000
00000010
00001000
;
