#TITLE:Gimme (feat. Badjokes);
#SUBTITLE:;
#ARTIST:Habstrakt;
#TITLETRANSLIT:;
#SUBTITLETRANSLIT:;
#ARTISTTRANSLIT:;
#GENRE:Bass House;
#CREDIT:chewi;
#BANNER:;
#BACKGROUND:;
#LYRICSPATH:;
#CDTITLE:cdtitle.png;
#MUSIC:Gimme (feat. Badjokes).ogg;
#OFFSET:-0.024000;
#SAMPLESTART:15.023000;
#SAMPLELENGTH:15.000000;
#SELECTABLE:YES;
#BPMS:0.000000=128.000000
;
#STOPS:
;
#BGCHANGES:;
#KEYSOUNDS:;
#ATTACKS:;

//---------------dance-single - ----------------
#NOTES:
     dance-single:
     :
     Beginner:
     3:
     0.146242,0.182879,0.085308,0.000000,0.000000,96.000000,88.000000,8.000000,0.000000,0.000000,0.000000,0.146242,0.182879,0.085308,0.000000,0.000000,96.000000,88.000000,8.000000,0.000000,0.000000,0.000000:
0000
0000
0000
0000
,
0000
0000
0000
0000
,
0000
0000
0000
0000
,
0000
0000
0000
0000
,
0010
0010
0010
0000
,
0010
0000
0010
0000
,
0100
0100
0100
0000
,
0100
0000
0100
0000
,
1001
0000
1000
0000
,
0001
0000
1000
0000
,
0110
0000
0010
0000
,
0100
0000
0010
0000
,
0110
0000
1000
0000
,
0001
0000
1000
0000
,
1001
0000
0010
0000
,
0100
0000
0010
0000
,
0000
1000
1000
0000
,
0001
0001
0001
0000
,
0100
0100
0000
0000
,
0010
0010
0010
0000
,
0000
0000
1000
1000
,
0000
0000
0001
0001
,
0001
0000
0100
0100
,
0000
0000
0010
0010
,
0010
0000
0010
0000
,
0010
0000
0010
0000
,
0000
0100
0000
0100
,
0000
0100
0000
0100
,
0100
0000
0100
0000
,
0100
0000
0100
0000
,
0000
0010
0000
0010
,
0000
0010
0000
0010
,
1000
0000
0000
0000
,
0001
0000
0001
0000
,
1001
0000
0000
0000
,
0110
0000
0000
0000
,
1001
0000
0000
0000
,
0100
0100
0100
0000
,
0110
0000
0000
0000
,
0010
0010
0010
0000
,
1000
0000
0001
0000
,
0000
0000
1000
0000
,
0001
0000
1000
0000
,
0000
0000
0001
0000
,
0100
0000
0010
0000
,
0010
0000
0100
0000
,
0100
0000
0000
0000
,
0010
0000
0000
0000
,
1000
0000
0000
0000
,
0001
0000
0000
0000
;

//---------------dance-single - ----------------
#NOTES:
     dance-single:
     :
     Easy:
     5:
     0.176709,0.235130,0.042654,0.085308,0.000000,116.000000,112.000000,4.000000,8.000000,0.000000,0.000000,0.176709,0.235130,0.042654,0.085308,0.000000,116.000000,112.000000,4.000000,8.000000,0.000000,0.000000:
0000
0000
0000
0000
,
0000
0000
0000
0000
,
0000
0000
0000
0000
,
0000
0000
0000
0000
,
1000
1000
1000
1000
,
0001
0001
0001
0001
,
0100
0100
0100
0100
,
0010
0010
0010
0000
,
0010
0000
0010
0000
,
0010
0100
0000
0100
,
0100
0010
0000
0010
,
0100
0001
0000
0000
,
0001
0001
0001
0001
,
1000
0001
1000
0000
,
1000
1000
1000
1000
,
0001
1000
0001
0000
,
0000
0100
0100
0100
,
0100
0010
0100
0000
,
0010
0010
0010
0010
,
0100
0010
0100
0000
,
0000
0000
1000
0100
,
0001
0100
1000
0100
,
0001
0100
1000
0010
,
0001
0010
1000
0010
,
0002
0010
0000
0010
,
0000
0010
0000
0013
,
2000
0100
0000
0100
,
0000
0100
0000
3100
,
0002
0100
0000
0100
,
0000
0100
0000
0103
,
2000
0010
0000
0010
,
0000
0010
0000
3010
,
1001
0000
0000
0000
,
0000
0000
0110
0000
,
1000
1000
1000
0000
,
0001
0100
0001
0000
,
1001
0000
0000
0000
,
0000
0000
0110
0000
,
0001
0001
0001
0000
,
1000
0100
1000
0000
,
2000
0000
0010
0000
,
0000
0000
3010
0000
,
0002
0000
0100
0000
,
0000
0000
0103
0000
,
0200
0000
0000
0000
,
0000
0000
0300
0000
,
0020
0000
0000
0000
,
0000
0000
0000
0030
,
0010
0000
0000
0000
,
0100
0000
0000
0000
;

//---------------dance-single - ----------------
#NOTES:
     dance-single:
     :
     Medium:
     8:
     0.286391,0.424407,0.234597,0.000000,0.000000,188.000000,166.000000,22.000000,0.000000,0.000000,0.000000,0.286391,0.424407,0.234597,0.000000,0.000000,188.000000,166.000000,22.000000,0.000000,0.000000,0.000000:
0000
0000
0000
0000
,
0000
0000
0000
0000
,
0000
0000
0000
0000
,
0000
0000
0000
0000
,
1000
0000
1000
0000
1000
0100
0010
0000
,
0001
0000
0001
0000
0001
0100
0010
0000
,
1000
0000
1000
0000
1000
0001
1000
0000
,
0001
1000
0001
1000
,
0001
0010
0001
0010
,
0001
0010
0100
0000
1000
0000
0000
0000
,
1000
0010
1000
0010
,
1000
0010
0100
0000
0010
0000
0000
0000
,
0100
0010
1000
0001
,
1000
0100
0010
0000
0001
0000
0000
0000
,
0001
0010
0100
1000
,
0001
0010
0100
0000
1000
0010
0100
0001
,
0100
1001
0101
1001
,
1100
1000
0001
1000
,
1001
1010
1001
0011
,
1000
0010
0100
0000
,
0000
0000
0000
0000
0100
0010
0100
0010
,
0100
0100
0010
0100
,
0010
1000
0001
1000
,
0100
0010
0001
1000
,
1100
1000
0001
0010
,
0100
1000
0010
0000
0100
0001
0010
0000
,
1001
0000
0001
1000
0001
1000
0001
1000
,
0001
0000
1000
0001
1000
0001
1000
0000
,
0010
0100
0001
0010
,
0100
1000
0001
1000
,
0001
0000
1000
0100
1000
0100
1000
0100
,
1000
1000
0010
0000
,
0110
0000
0000
0000
,
0000
0000
1001
0000
,
1000
0100
0001
0010
,
1000
0100
0001
0100
,
0101
0000
0000
0000
,
0000
0000
0110
0000
,
0010
1000
0001
0100
,
1000
0100
0010
0001
,
0011
0000
0001
0000
,
0000
0000
0101
0000
,
1001
0000
1000
0000
,
1010
0010
0100
0001
,
0101
0000
0000
0000
,
0000
0000
1001
0000
,
1100
0000
0000
0000
,
0110
0000
0100
0000
,
0100
0000
0010
0000
,
0010
0010
0010
0010
;

//---------------dance-single - ----------------
#NOTES:
     dance-single:
     :
     Hard:
     12:
     0.351895,0.503983,0.255924,0.170616,0.229265,231.000000,207.000000,24.000000,16.000000,16.000000,0.000000,0.351895,0.503983,0.255924,0.170616,0.229265,231.000000,207.000000,24.000000,16.000000,16.000000,0.000000:
// measure 0
0000
0000
0000
0000
,  // measure 1
0000
0000
0000
0000
,  // measure 2
0000
0000
0000
0000
,  // measure 3
0000
0000
0000
0000
,  // measure 4
1000
1000
0010
0010
0100
0100
0001
0001
,  // measure 5
1000
1000
0100
0100
0010
0010
0001
0001
,  // measure 6
0010
0100
1000
0001
0010
0100
1000
0001
,  // measure 7
1001
0110
1001
1000
,  // measure 8
2010
3001
0012
1003
,  // measure 9
1000
0001
0100
0000
0001
1000
0100
0000
,  // measure 10
0010
0100
1000
0001
0010
0010
0010
0000
,  // measure 11
0100
1000
0001
0100
0010
0010
0010
0000
,  // measure 12
0120
1030
0210
0301
,  // measure 13
1000
0100
0010
0000
0001
0100
0010
0000
,  // measure 14
1000
0100
0001
1000
0010
0010
0010
0000
,  // measure 15
0001
0100
1000
0001
0010
0010
0010
0000
,  // measure 16
1000
1002
0103
2001
,  // measure 17
3010
1000
0001
0010
0100
1000
0001
0000
,  // measure 18
1000
0100
0001
0100
1000
0010
0001
0010
,  // measure 19
1000
0010
0100
0001
0000
0000
0000
0000
,  // measure 20
0000
0000
0000
0000
1000
1000
0001
0001
,  // measure 21
1000
0001
1000
0000
1001
0000
0000
0000
0001
0000
0100
0000
0010
0000
1000
0000
,  // measure 22
0001
0000
1100
0000
1000
0001
0010
0010
,  // measure 23
0001
1000
0100
1000
0001
0001
1000
0000
,  // measure 24
1001
0000
0000
1000
0000
0100
0000
0010
0000
0001
0000
0010
,  // measure 25
0000
0100
0000
1000
0000
0001
0000
0010
0000
0100
0000
1000
,  // measure 26
0000
0000
0000
0001
1000
0001
1000
0001
1000
0001
1000
0001
,  // measure 27
0000
0000
0000
1000
0001
1000
0001
1000
0001
1000
0000
0000
,  // measure 28
1001
0000
0000
1000
0000
0010
0000
0100
0000
0001
0000
1000
,  // measure 29
0010
1000
0010
1000
0000
0010
0000
1000
0000
0001
0000
0100
,  // measure 30
0000
0001
0000
0010
0001
0010
0001
0010
0001
0010
0001
0010
,  // measure 31
0000
1100
0101
0000
,  // measure 32
0220
0000
0000
0000
,  // measure 33
0000
0000
0330
0000
,  // measure 34
1000
0000
0000
0001
0100
0001
0100
0001
0100
0001
0100
0001
,  // measure 35
0000
0000
0000
1000
0100
1000
0100
0000
0000
0000
0000
0000
,  // measure 36
2002
0000
0000
0000
,  // measure 37
0000
0000
3003
0000
,  // measure 38
0100
0000
0000
0000
0000
0000
0110
0000
0000
0000
0000
0010
,  // measure 39
0010
0000
1001
0000
,  // measure 40
2200
0000
0000
0000
,  // measure 41
0000
0000
3300
0000
,  // measure 42
0001
0000
0000
0000
0000
0000
1001
0000
0000
0000
0000
0100
,  // measure 43
0100
0000
0110
0000
,  // measure 44
2020
0000
0000
0000
,  // measure 45
0000
0000
3030
0000
,  // measure 46
0202
0000
0000
0000
,  // measure 47
0000
0000
0000
0000
,  // measure 48
0000
0000
0000
0303
,  // measure 49
MMMM
MMMM
MMMM
MMMM
;
