#TITLE:Ghosts N Stuff;
#SUBTITLE:;
#ARTIST:deadmau5 feat. ROB SWIRE;
#TITLETRANSLIT:;
#SUBTITLETRANSLIT:;
#ARTISTTRANSLIT:;
#GENRE:;
#CREDIT:Chewphoria~;
#MENUCOLOR:;
#METERTYPE:DDR;
#BANNER:Ghosts N Stuff.png;
#BACKGROUND:Ghosts N Stuff-bg.png;
#LYRICSPATH:;
#CDTITLE:;
#MUSIC:Ghosts N Stuff.mp3;
#OFFSET:-3.774;
#SAMPLESTART:7.491;
#SAMPLELENGTH:15.000;
#SELECTABLE:YES;
#LISTSORT:;
#BPMS:0.000=127.990;
#STOPS:;
#BGCHANGES:-7.548=Ghosts N Stuff.avi=1.000=1=0=0,
99999=-nosongbg-=1.000=0=0=0 // don't automatically add -songbackground-
;
#ATTACKS:;

//---------------dance-single - Chewphoria~----------------
#NOTES:
     dance-single:
     Chewphoria~:
     Beginner:
     2:
     0.138,0.175,0.121,0.000,0.000: // measure 1
0000
0000
0000
0000
,  // measure 2
0000
0000
0000
0000
,  // measure 3
1000
1000
1000
0000
,  // measure 4
1001
0000
0000
0000
,  // measure 5
0100
0100
0100
0000
,  // measure 6
0110
0000
0000
0000
,  // measure 7
0010
0010
0010
0000
,  // measure 8
1000
0000
0000
0000
,  // measure 9
0100
0100
0100
0000
,  // measure 10
1000
0000
0000
0000
,  // measure 11
0001
0000
1000
0000
,  // measure 12
0001
0000
1000
0000
,  // measure 13
0010
0000
0100
0000
,  // measure 14
0010
0000
0100
0000
,  // measure 15
0100
0000
0001
0000
,  // measure 16
0100
0000
0001
0000
,  // measure 17
0100
0000
1000
0000
,  // measure 18
0100
0000
1000
0000
,  // measure 19
1001
0000
0001
0001
,  // measure 20
0000
0010
0000
0000
,  // measure 21
1001
0000
1000
1000
,  // measure 22
0000
0010
0000
0000
,  // measure 23
0100
0000
0100
0000
,  // measure 24
0100
0000
0100
0000
,  // measure 25
0010
0000
0010
0000
,  // measure 26
0010
0000
0010
0000
,  // measure 27
1001
0000
0000
0000
,  // measure 28
1000
0000
0000
0000
,  // measure 29
0001
0000
0000
0000
,  // measure 30
0000
0000
0000
0000
,  // measure 31
0110
0000
0000
0000
,  // measure 32
0010
0000
0000
0000
,  // measure 33
0100
0000
0000
0000
,  // measure 34
0000
0000
0000
0000
,  // measure 35
1000
1000
1000
0000
,  // measure 36
1000
0000
0001
0000
,  // measure 37
1000
1000
1000
0000
,  // measure 38
0010
0000
0100
0000
,  // measure 39
0001
0001
0001
0000
,  // measure 40
1000
0000
0001
0000
,  // measure 41
0001
0001
0001
0000
,  // measure 42
0010
0000
0100
0000
,  // measure 43
1001
0000
0000
0000
,  // measure 44
0110
0000
0000
0000
,  // measure 45
1001
0000
0000
0000
,  // measure 46
1000
0001
0000
0000
,  // measure 47
0110
0000
0000
0000
,  // measure 48
1001
0000
0000
0000
,  // measure 49
0110
0000
0000
0000
,  // measure 50
0000
0000
0100
0010
;

//---------------dance-single - Chewphoria~----------------
#NOTES:
     dance-single:
     Chewphoria~:
     Easy:
     5:
     0.239,0.300,0.181,0.181,0.000: // measure 1
0000
0000
0000
0000
,  // measure 2
0000
0000
0000
0000
,  // measure 3
2000
0010
0001
3100
,  // measure 4
0110
0000
1001
0000
,  // measure 5
0002
0100
1000
0013
,  // measure 6
1001
0000
0110
0000
,  // measure 7
2000
0010
0100
3001
,  // measure 8
1001
1001
0000
0000
,  // measure 9
0002
0100
1000
0013
,  // measure 10
1001
1001
0000
0000
,  // measure 11
1000
0100
0010
0001
,  // measure 12
1000
1000
0001
0001
,  // measure 13
1001
0000
0000
0000
,  // measure 14
0100
0000
0000
0000
,  // measure 15
0001
0100
0010
1000
,  // measure 16
1000
0000
0110
0000
,  // measure 17
1001
0000
0001
1000
,  // measure 18
0200
0300
0000
0000
,  // measure 19
0001
0010
0100
1000
,  // measure 20
0010
0100
0010
0100
,  // measure 21
0010
1000
0100
0010
,  // measure 22
1000
0100
0010
0001
,  // measure 23
1000
0001
0100
0010
,  // measure 24
1000
0001
0010
0100
,  // measure 25
1000
0100
0010
0001
,  // measure 26
1001
0000
0100
0010
,  // measure 27
0200
0000
0000
0000
,  // measure 28
0302
0000
0000
0000
,  // measure 29
0023
0000
0000
0000
,  // measure 30
0200
0000
0000
0330
,  // measure 31
0200
0000
0000
0000
,  // measure 32
2300
0000
0000
0000
,  // measure 33
0020
0000
0000
0000
,  // measure 34
0000
0000
3030
1000
,  // measure 35
0102
0100
0010
1003
,  // measure 36
1000
0100
0010
0001
,  // measure 37
0110
0000
0100
0000
,  // measure 38
0010
0000
1000
0010
,  // measure 39
0002
0100
1000
0100
,  // measure 40
1003
0010
0100
0001
,  // measure 41
1001
0000
0110
0000
,  // measure 42
1001
0000
0110
0001
,  // measure 43
0010
1000
0100
0001
,  // measure 44
0010
0100
0001
0010
,  // measure 45
0200
0000
0000
0000
,  // measure 46
0320
0000
0000
0000
,  // measure 47
0031
0010
0001
0100
,  // measure 48
1000
0010
0100
1000
,  // measure 49
0020
0000
0000
0000
,  // measure 50
0230
0000
0000
0310
;

//---------------dance-single - Chewphoria~----------------
#NOTES:
     dance-single:
     Chewphoria~:
     Medium:
     7:
     0.318,0.350,0.221,0.231,0.000: // measure 1
0000
0000
0000
0000
,  // measure 2
0000
0000
0000
0000
,  // measure 3
2100
0010
0100
3010
,  // measure 4
0010
0000
0000
0100
0000
0000
0001
0000
,  // measure 5
0012
0100
1000
0013
,  // measure 6
1100
0000
0000
0000
0000
0100
0000
0100
,  // measure 7
2000
0010
0001
3100
,  // measure 8
0010
0000
0000
0100
0000
0100
0010
0000
,  // measure 9
0200
0001
0010
0310
,  // measure 10
1010
0000
0000
0000
0010
1000
0001
0000
,  // measure 11
1100
0011
0100
1000
,  // measure 12
0001
0000
0000
0100
0000
0010
1000
0001
,  // measure 13
0010
0100
1000
0001
,  // measure 14
1001
0000
0000
0000
0000
1000
0000
0010
,  // measure 15
0100
0101
0100
0100
,  // measure 16
1000
0010
0001
0000
0100
0000
0010
0000
,  // measure 17
0001
0000
1000
0001
,  // measure 18
1001
0000
0000
0000
0000
1000
0010
0100
,  // measure 19
0001
0100
0010
1000
,  // measure 20
0001
0010
0100
1000
,  // measure 21
1000
0100
0010
0001
,  // measure 22
1000
0010
0100
0001
,  // measure 23
0100
0000
0010
0000
1000
0100
1000
0000
,  // measure 24
0100
0010
0001
1001
,  // measure 25
0001
0000
0100
0000
0010
1000
0010
0000
,  // measure 26
1000
1100
0011
1100
,  // measure 27
0002
0000
0000
0000
,  // measure 28
0203
0000
0000
0320
0000
0000
0000
2030
,  // measure 29
0000
0000
0000
0001
,  // measure 30
0200
0000
0000
3000
,  // measure 31
0320
0000
0000
0000
,  // measure 32
0032
0000
0000
1000
0000
0000
0200
0003
,  // measure 33
0320
0000
0000
0000
,  // measure 34
2000
0000
0000
3030
,  // measure 35
1100
0001
1100
0001
,  // measure 36
1000
0010
0001
0100
,  // measure 37
1000
1000
0001
0001
,  // measure 38
0010
0100
0010
0000
0100
0010
0100
0000
,  // measure 39
0001
1100
0001
1100
,  // measure 40
1000
0100
0001
0010
,  // measure 41
1000
0000
0100
0000
0010
0100
0010
0000
,  // measure 42
0100
0000
0010
0000
0001
0100
0001
0000
,  // measure 43
0102
0010
1000
0013
,  // measure 44
1000
1010
0001
0011
,  // measure 45
0020
0130
0100
0100
,  // measure 46
0200
0310
0010
0010
,  // measure 47
2100
0100
0001
3100
,  // measure 48
0002
1003
0200
0310
,  // measure 49
2010
0001
0010
0001
,  // measure 50
3002
0000
0000
0000
0000
0000
0000
0000
0000
0000
0000
0000
0000
0000
0000
0000
0000
0000
0000
0000
0000
0000
0000
0000
0000
0000
0000
0000
0000
0000
0000
0000
0000
0000
0000
0000
0000
0000
0000
0000
0000
0000
0000
0000
0000
0000
0000
0000
0100
0000
0000
0000
0000
0000
0000
0000
0000
0000
0000
0000
0000
0000
0000
0000
0000
0000
0000
0000
0000
0000
0000
0000
0000
0000
0000
0000
0000
0000
0000
0000
0000
0000
0000
0000
0000
0000
0000
0000
0000
0000
0000
0000
0000
0000
0000
0000
1000
0000
0000
0000
0000
0000
0000
0000
0000
0000
0000
0000
0000
0000
0000
0000
0000
0000
0000
0000
0000
0000
0000
0000
0000
0000
0000
0000
0000
0000
0000
0000
0000
0000
0000
0000
0000
0000
0000
0000
0000
0000
0000
0000
0000
0000
0000
0000
0200
0303
0000
0000
0000
0000
0000
0000
0000
0000
0000
0000
0000
0000
0000
0000
0000
0000
0000
0000
0000
0000
0000
0000
0000
0000
0000
0000
0000
0000
0000
0000
0000
0000
0000
0000
0000
0000
0000
0000
0000
0000
0000
0000
0000
0000
0000
0000
;

//---------------dance-single - Chewphoria~----------------
#NOTES:
     dance-single:
     Chewphoria~:
     Hard:
     9:
     0.422,0.427,0.111,0.251,0.025: // measure 1
0000
0000
0000
0000
,  // measure 2
0000
0000
0000
0000
,  // measure 3
0010
1000
0100
1000
0010
1000
0100
1000
,  // measure 4
0010
0000
0000
0010
0000
0000
0010
0000
0000
0000
0110
0000
0001
0000
0100
0000
,  // measure 5
0001
0010
0100
0010
0001
0010
0100
0010
,  // measure 6
0220
0000
0330
0000
0000
0100
1000
0001
,  // measure 7
0100
0010
0100
0001
0100
0010
0100
0001
,  // measure 8
0100
0000
0000
0100
0000
0000
0100
0000
0000
0000
0100
0000
1000
0000
0010
0000
,  // measure 9
0001
0010
0100
1000
0010
1000
0100
1000
,  // measure 10
0220
0000
0330
0000
0000
0110
0100
0001
,  // measure 11
0100
0000
1010
0000
0100
0010
0001
0010
,  // measure 12
0100
0000
0000
0100
0000
0000
0100
0000
1000
0000
0000
0001
0000
0000
0100
0000
,  // measure 13
0000
0020
0000
0000
0000
0000
0030
0000
,  // measure 14
0202
0000
0303
0000
0000
0001
0100
0010
,  // measure 15
1000
0001
0010
0000
0100
1000
0010
0000
,  // measure 16
1000
0001
0100
0010
1000
0001
0010
0100
,  // measure 17
1000
0000
0100
0000
0010
0100
1000
0010
,  // measure 18
0200
0310
0101
1010
,  // measure 19
0001
0010
0100
1000
0010
0000
0110
0000
,  // measure 20
0100
0010
1000
0100
0010
0001
0010
0000
,  // measure 21
0001
0010
0100
0010
0001
0100
1000
0000
,  // measure 22
0010
0100
1000
0010
0100
0001
0100
0000
,  // measure 23
0010
1000
0100
1000
0010
1000
0100
1000
,  // measure 24
0010
0100
0010
0000
0100
0010
0100
0000
,  // measure 25
0100
0001
0010
0001
0100
0001
0010
0001
,  // measure 26
0010
0100
0010
0000
0100
0010
0100
1000
,  // measure 27
0002
0000
0000
0000
,  // measure 28
2003
0000
0000
3020
0000
0000
0000
0230
,  // measure 29
0000
0000
0000
0010
,  // measure 30
0302
0000
0000
0000
,  // measure 31
2003
0000
0000
0000
,  // measure 32
3200
0000
0000
0320
0000
0000
0000
0032
,  // measure 33
0000
0000
0000
1000
,  // measure 34
0200
0000
0003
0310
,  // measure 35
0001
0001
1000
0000
1000
0100
1000
0000
,  // measure 36
0001
0010
0100
1000
0010
0100
0001
0100
,  // measure 37
0020
1000
0100
0001
,  // measure 38
0230
0001
0010
1300
,  // measure 39
1000
0010
1000
0000
0001
0010
0001
0000
,  // measure 40
1000
0000
0100
0000
0010
0000
0001
0000
0100
0000
0000
0010
0000
0000
0100
0000
,  // measure 41
0001
0010
1000
0000
0100
1000
0100
0000
,  // measure 42
1000
0100
0001
0000
0100
0001
0100
0010
,  // measure 43
2000
0001
0100
3001
,  // measure 44
0011
0100
0100
0000
0100
1000
0100
0000
,  // measure 45
2010
0000
0100
0000
0010
0010
0010
0001
,  // measure 46
3002
0000
0100
0000
1000
1000
1000
1000
,  // measure 47
0103
1000
0100
0000
1000
0010
1000
0000
,  // measure 48
0010
0001
0010
0000
0001
0100
0001
0000
,  // measure 49
0100
1000
0010
1000
0100
1000
0020
0000
,  // measure 50
0130
0001
0010
0001
0100
0010
0200
0000
,  // measure 51
0300
0000
0000
0000
;
