#VERSION:0.82;
#TITLE:簋街 (中文版);
#SUBTITLE:;
#ARTIST:歌者森;
#TITLETRANSLIT:Ghost Street (Mandarin Version);
#SUBTITLETRANSLIT:;
#ARTISTTRANSLIT:SingerSen;
#GENRE:C-Pop;
#ORIGIN:;
#CREDIT:chewi;
#BANNER:Ghost Street (Mandarin Version).png;
#BACKGROUND:Ghost Street (Mandarin Version)-bg.png;
#PREVIEWVID:;
#JACKET:Ghost Street (Mandarin Version)-jacket.png;
#CDIMAGE:;
#DISCIMAGE:;
#LYRICSPATH:;
#CDTITLE:cdtitle.png;
#MUSIC:Ghost Street (Mandarin Version).ogg;
#OFFSET:-0.233000;
#SAMPLESTART:44.894001;
#SAMPLELENGTH:15.000000;
#SELECTABLE:YES;
#BPMS:0.000=128.000;
#STOPS:;
#DELAYS:;
#WARPS:;
#TIMESIGNATURES:0.000=4=4;
#TICKCOUNTS:0.000=4;
#COMBOS:0.000=1;
#SPEEDS:0.000=1.000=0.000=0;
#SCROLLS:0.000=1.000;
#FAKES:;
#LABELS:0.000=Song Start;
#BGCHANGES:;
#KEYSOUNDS:;
#ATTACKS:
;

//---------------dance-single - ----------------
#NOTEDATA:;
#CHARTNAME:;
#STEPSTYPE:dance-single;
#DESCRIPTION:;
#CHARTSTYLE:;
#DIFFICULTY:Beginner;
#METER:1;
#RADARVALUES:0.094155,0.157282,0.023967,0.095867,0.000000,45.000000,2.000000,8.000000,0.000000,0.000000,0.000000,0.000000,0.000000,0.094155,0.157282,0.023967,0.095867,0.000000,45.000000,2.000000,8.000000,0.000000,0.000000,0.000000,0.000000,0.000000;
#CREDIT:;
#NOTES:
// measure 0
0000
0000
0000
0000
,  // measure 1
0000
0000
0000
0000
,  // measure 2
0000
0000
0000
0000
,  // measure 3
0000
0000
0000
0000
,  // measure 4
0020
0000
0000
0030
,  // measure 5
0010
0000
0000
0000
,  // measure 6
0200
0000
0000
0300
,  // measure 7
0100
0000
0000
0000
,  // measure 8
1000
0000
0000
0000
,  // measure 9
1000
0000
0000
0000
,  // measure 10
0100
0000
0000
0000
,  // measure 11
0100
0000
0000
0000
,  // measure 12
0001
0000
0000
0000
,  // measure 13
0001
0000
0000
0000
,  // measure 14
0010
0000
0000
0000
,  // measure 15
0010
0000
0000
0000
,  // measure 16
1000
0000
0000
0000
,  // measure 17
0010
0000
0000
0000
,  // measure 18
0001
0000
0000
0000
,  // measure 19
0010
0000
0000
0000
,  // measure 20
1000
0000
0000
0000
,  // measure 21
0100
0000
0000
0000
,  // measure 22
0001
0000
0000
0000
,  // measure 23
0100
0000
0000
0000
,  // measure 24
0100
0000
0100
0000
,  // measure 25
0200
0000
0000
0300
,  // measure 26
0010
0000
0010
0000
,  // measure 27
0020
0000
0000
0030
,  // measure 28
1000
0000
1000
0000
,  // measure 29
2000
0000
0000
3000
,  // measure 30
0001
0000
0001
0000
,  // measure 31
0002
0000
0000
0003
,  // measure 32
1001
0000
0000
0000
,  // measure 33
1000
0000
0000
0000
,  // measure 34
0001
0000
0000
0000
,  // measure 35
0100
0000
0000
0000
,  // measure 36
0110
0000
0000
0000
,  // measure 37
0010
0000
0000
0000
,  // measure 38
0100
0000
0000
0000
,  // measure 39
1000
0000
0000
0000
,  // measure 40
0002
0000
0000
0003
,  // measure 41
0001
0000
0000
0000
,  // measure 42
2000
0000
0000
3000
,  // measure 43
1000
0000
0000
1000
;

//---------------dance-single - ----------------
#NOTEDATA:;
#CHARTNAME:;
#STEPSTYPE:dance-single;
#DESCRIPTION:;
#CHARTSTYLE:;
#DIFFICULTY:Easy;
#METER:4;
#RADARVALUES:0.195158,0.262136,0.047933,0.191734,0.000000,94.000000,4.000000,16.000000,0.000000,0.000000,0.000000,0.000000,0.000000,0.195158,0.262136,0.047933,0.191734,0.000000,94.000000,4.000000,16.000000,0.000000,0.000000,0.000000,0.000000,0.000000;
#CREDIT:;
#NOTES:
// measure 0
0000
0000
0000
0000
,  // measure 1
0000
0000
0000
0000
,  // measure 2
0000
0000
0000
0000
,  // measure 3
0000
0000
0000
0000
,  // measure 4
1000
0000
1000
0000
,  // measure 5
1000
0010
1000
0000
,  // measure 6
0001
0000
0001
0000
,  // measure 7
0001
0010
0001
0000
,  // measure 8
1002
0000
0000
0003
,  // measure 9
2000
0000
0000
3000
,  // measure 10
0020
0000
0000
0030
,  // measure 11
0100
0100
0100
0000
,  // measure 12
0120
0000
0000
0030
,  // measure 13
2000
0000
0000
3000
,  // measure 14
0002
0000
0000
0003
,  // measure 15
1000
1000
1000
0000
,  // measure 16
0002
0000
0010
0000
,  // measure 17
0013
0010
0000
0000
,  // measure 18
2000
0000
0010
0000
,  // measure 19
3010
0010
0000
0000
,  // measure 20
1000
0000
0001
0000
,  // measure 21
1000
0001
0100
0000
,  // measure 22
0001
0000
1000
0000
,  // measure 23
0001
1000
0010
0000
,  // measure 24
1000
1000
1000
1000
,  // measure 25
0010
1000
0010
0000
,  // measure 26
0100
0100
0100
0100
,  // measure 27
0001
0100
0001
0000
,  // measure 28
0010
0010
0010
0010
,  // measure 29
0100
0010
0100
0000
,  // measure 30
0100
1000
0001
0000
,  // measure 31
1000
0001
0010
0000
,  // measure 32
0020
0030
0020
0030
,  // measure 33
0010
0010
0100
0100
,  // measure 34
2000
3000
0002
0003
,  // measure 35
1000
0001
1000
0000
,  // measure 36
0002
0003
2000
3000
,  // measure 37
0001
0001
1000
1000
,  // measure 38
0020
0030
0200
0300
,  // measure 39
0010
0100
0010
0000
,  // measure 40
0110
0000
0000
0000
,  // measure 41
1001
0000
0000
0000
,  // measure 42
1000
0000
0000
0000
,  // measure 43
0001
0000
0000
0001
;

//---------------dance-single - ----------------
#NOTEDATA:;
#CHARTNAME:;
#STEPSTYPE:dance-single;
#DESCRIPTION:;
#CHARTSTYLE:;
#DIFFICULTY:Medium;
#METER:6;
#RADARVALUES:0.275617,0.366991,0.083884,0.119834,0.000000,144.000000,7.000000,10.000000,0.000000,0.000000,0.000000,0.000000,0.000000,0.275617,0.366991,0.083884,0.119834,0.000000,144.000000,7.000000,10.000000,0.000000,0.000000,0.000000,0.000000,0.000000;
#CREDIT:;
#NOTES:
// measure 0
0000
0000
0000
0000
,  // measure 1
0000
0000
0000
0000
,  // measure 2
0000
0000
0000
0000
,  // measure 3
0000
0000
0000
0000
,  // measure 4
2000
3100
0010
0001
,  // measure 5
0002
0103
0010
1000
,  // measure 6
2002
0000
0000
3003
,  // measure 7
0220
0000
0000
0330
,  // measure 8
0010
0010
0100
0100
,  // measure 9
0001
0001
1000
1000
,  // measure 10
0001
0010
0100
0010
,  // measure 11
0001
0100
0010
0100
,  // measure 12
0001
0001
0100
0100
,  // measure 13
0010
0010
1000
1000
,  // measure 14
0001
1000
0100
0010
,  // measure 15
0100
1000
0001
0010
,  // measure 16
0001
1000
0001
0100
,  // measure 17
0010
0100
0010
0000
0100
0000
0010
0000
,  // measure 18
0100
0010
1000
0100
,  // measure 19
0010
0100
0010
0000
0100
0000
0010
0000
,  // measure 20
0001
1000
0100
1000
,  // measure 21
0001
1000
0010
1000
,  // measure 22
0001
0100
1000
0010
,  // measure 23
0001
0100
1000
0010
,  // measure 24
1010
0000
1000
0000
,  // measure 25
0010
1000
0010
0100
,  // measure 26
0101
0000
0100
0000
,  // measure 27
0001
0100
1000
0100
,  // measure 28
0110
0000
0100
0000
,  // measure 29
0010
0100
0010
0001
,  // measure 30
1100
0000
0000
0000
0100
0100
0100
0000
,  // measure 31
0011
0000
0000
0000
0001
0001
0001
0000
,  // measure 32
0001
1000
0001
0100
,  // measure 33
0001
0000
1000
0000
0001
0000
0010
0100
,  // measure 34
1000
0010
1000
0100
,  // measure 35
1000
0000
0001
0000
0100
0000
0010
1000
,  // measure 36
0001
0100
0010
0100
,  // measure 37
0001
0000
0010
0000
0100
0000
1000
0001
,  // measure 38
0010
0100
0010
0001
,  // measure 39
0100
0000
0010
0000
1000
0001
0100
0010
,  // measure 40
0200
0000
0000
0300
,  // measure 41
0020
0000
0000
0030
,  // measure 42
2000
0000
0000
3000
,  // measure 43
0002
0000
0000
1003
;

//---------------dance-single - ----------------
#NOTEDATA:;
#CHARTNAME:;
#STEPSTYPE:dance-single;
#DESCRIPTION:;
#CHARTSTYLE:;
#DIFFICULTY:Hard;
#METER:9;
#RADARVALUES:0.366349,0.419418,0.095867,0.023967,0.000000,204.000000,8.000000,2.000000,0.000000,0.000000,0.000000,0.000000,0.000000,0.366349,0.419418,0.095867,0.023967,0.000000,204.000000,8.000000,2.000000,0.000000,0.000000,0.000000,0.000000,0.000000;
#CREDIT:;
#NOTES:
// measure 0
0000
0000
0000
0000
,  // measure 1
0000
0000
0000
0000
,  // measure 2
0000
0000
0000
0000
,  // measure 3
0000
0000
0000
0000
,  // measure 4
0000
1000
0010
0000
1000
0100
0000
0010
,  // measure 5
0000
0001
0000
0010
0100
0010
0001
0000
,  // measure 6
1000
0100
1000
0010
1000
0000
1100
0000
,  // measure 7
0001
0010
0001
0100
0001
0000
0101
0000
,  // measure 8
1001
1000
0001
0001
,  // measure 9
1000
0100
0010
0001
,  // measure 10
1000
0100
0001
0000
1000
0010
0001
0000
,  // measure 11
1000
0001
0100
0000
0001
1000
0100
0010
,  // measure 12
0100
0100
1000
0001
,  // measure 13
0010
0010
0001
1000
,  // measure 14
0001
0100
1000
0000
0001
0010
1000
0000
,  // measure 15
0001
0100
0010
0000
1000
0100
0010
0000
,  // measure 16
0001
0001
1000
0000
0100
0100
0010
0000
,  // measure 17
0100
1000
0001
0010
,  // measure 18
0100
0100
0010
0000
0001
0001
0100
0000
,  // measure 19
0010
1000
0001
0100
,  // measure 20
0001
0001
1000
0000
0100
0100
0010
0000
,  // measure 21
0001
0010
0100
1000
,  // measure 22
0001
0010
1000
0000
0001
0010
1000
0000
,  // measure 23
1000
0010
0001
0000
1000
0010
0001
0010
,  // measure 24
0010
0001
0010
0100
,  // measure 25
0010
0100
1000
0010
0100
0000
0101
0000
,  // measure 26
0100
0001
1000
0010
,  // measure 27
1000
0100
0010
0100
1000
0100
0010
0100
,  // measure 28
1000
0001
0010
0100
,  // measure 29
0010
0100
1000
0000
0010
0100
0001
0000
,  // measure 30
0100
0000
0010
1000
0000
1000
0010
0000
,  // measure 31
0100
0000
0001
0100
0000
0100
0001
1000
,  // measure 32
0100
0010
0100
0000
0010
0100
0000
0010
,  // measure 33
0000
0100
0000
0000
0010
0000
0001
0000
,  // measure 34
0000
1000
0100
0000
1000
0001
0000
0010
,  // measure 35
0000
0011
1100
0101
,  // measure 36
0000
0100
0010
0000
0100
0001
0000
0100
,  // measure 37
0000
0010
0000
1000
0001
0000
1100
0000
,  // measure 38
0010
0100
1000
0100
0000
0010
0100
1000
,  // measure 39
0100
0000
0000
1000
1000
0001
0001
0000
,  // measure 40
0001
0100
0010
0100
0000
0001
0100
0010
,  // measure 41
0100
0000
0000
0010
0010
0010
0010
0000
,  // measure 42
0020
0000
0000
0000
0000
0000
1030
0001
,  // measure 43
0020
0000
0000
0130
;
