#TITLE:Gettin' Over You;
#SUBTITLE:;
#ARTIST:David Guetta & Chris Willis feat. Fergie & LMFAO;
#TITLETRANSLIT:;
#SUBTITLETRANSLIT:;
#ARTISTTRANSLIT:;
#GENRE:;
#CREDIT:Chewphoria~;
#MENUCOLOR:;
#METERTYPE:DDR;
#BANNER:Gettin' Over You.png;
#BACKGROUND:Gettin' Over You-bg.png;
#LYRICSPATH:;
#CDTITLE:;
#MUSIC:Gettin' Over You.mp3;
#OFFSET:-3.759;
#SAMPLESTART:70.257;
#SAMPLELENGTH:15.000;
#SELECTABLE:YES;
#LISTSORT:;
#BPMS:0.000=64.970,36.000=129.940;
#STOPS:;
#BGCHANGES:-4.000=Gettin' Over You.avi=0.970=1=0=1,
99999=-nosongbg-=1.000=0=0=0 // don't automatically add -songbackground-
;
#ATTACKS:;

//---------------dance-single - Chewphoria~----------------
#NOTES:
     dance-single:
     Chewphoria~:
     Hard:
     11:
     0.410,0.420,0.338,0.101,0.400:
0010
0000
0000
0010
0000
0000
0000
1000
0000
0001
0000
1001
0000
0000
0001
0000
,
0010
0000
0000
0100
0000
0000
0100
0100
0000
0000
0000
0000
1000
0001
1000
0001
,
0000
1000
0000
0000
0001
1000
0001
1000
0000
0001
0000
0000
1000
0010
0001
0100
,
0000
0101
0000
0001
0000
1001
0000
1001
0000
0000
0000
0001
0010
0100
0000
1000
,
0000
0100
0000
0001
0000
0010
0000
1000
1000
1000
0000
0000
0000
0010
0001
0100
,
0000
0000
0100
1000
0000
0000
0010
0110
0000
0000
0000
0000
1000
0001
1000
0001
,
0000
1000
0000
0000
0010
0100
0010
0100
0000
0010
0000
0000
0010
0001
0010
0001
,
0000
0101
0000
1000
0000
1100
0000
0020
0000
0000
0000
0000
0000
0000
0000
0000
,
0030
0000
0000
0000
0000
0000
0000
0000
0000
0000
0000
0000
0000
1000
0010
0100
,
0000
0000
0000
0000
0101
0000
0000
1000
0000
0000
0100
0000
0010
0000
0001
0000
,
0010
0000
0100
1000
0000
1000
0100
0000
0000
0000
1000
0000
0010
0000
0100
0000
,
0001
0000
0100
0001
0000
0001
0100
0000
0000
0000
0010
1000
0001
0000
0010
0000
,
0100
0000
0100
0010
0000
0100
0010
0000
0000
0000
0010
0000
0001
0000
0010
0000
,
0011
0000
0000
0100
0000
0000
1010
0000
0000
0000
0010
0000
1000
0000
0100
0000
,
0110
0000
0000
1000
0000
0000
0100
0000
0000
0000
0000
0000
0010
0000
0100
0000
,
1000
0000
0000
0010
0000
0000
0100
0000
0001
0000
0000
0010
0000
0000
0001
0000
,
0010
0100
1000
0010
0100
0001
0010
0100
,
1100
0000
0000
0010
0000
0000
1100
0000
0000
0000
1000
0000
0100
0000
0010
0000
,
0001
0000
0000
0001
0000
0000
0011
0000
0000
0000
0100
0000
1000
0000
0010
0000
,
0100
0000
0000
0101
0000
0000
1000
0000
0000
0000
0100
0000
0010
0000
0001
0000
,
0012
0000
0000
1000
0000
0000
0200
0000
0000
0000
0000
0000
0000
0000
0303
0000
,
0010
0000
0000
1000
0000
0000
0100
0000
0000
0000
0010
0000
0100
0000
0010
0000
,
0001
0010
0100
1000
0010
0000
0101
0000
,
1000
0001
1000
0000
0001
1000
0001
0000
,
0010
0010
1000
1000
0100
0001
0100
1000
,
0020
0000
0230
0000
,
0302
0000
2003
0000
,
3001
0000
0000
0011
0000
0000
0000
0000
1000
0000
0000
1010
0000
0000
0000
0000
,
0100
0000
0000
0101
0000
0000
0001
0000
0100
0000
1000
0000
0100
0000
0001
0000
,
0010
0000
0000
0011
0000
0000
0000
0000
0010
0000
0000
1010
0000
0000
0000
0000
,
0010
0000
0000
0011
0000
0000
0001
0000
0010
0000
1000
0000
0010
0000
0001
0000
,
0100
0000
0000
0101
0000
0000
0000
0000
0100
0000
0000
1100
0000
0000
0000
0000
,
1000
0000
0000
1001
0000
0000
0001
0000
1000
0000
0010
0000
0100
0000
0001
0000
,
1000
0000
0000
0100
0000
0000
0010
0000
0001
0000
0010
0000
0100
0000
1000
0000
,
0000
1010
0000
0011
0000
0101
0000
2200
,
0000
0000
3300
0000
;

//---------------dance-single - Chewphoria~----------------
#NOTES:
     dance-single:
     Chewphoria~:
     Medium:
     7:
     0.333,0.300,0.315,0.079,0.011:
1001
0000
0000
0010
0000
0000
0000
0000
0100
0000
0010
0000
0100
0000
0000
0000
,
1001
0000
0110
0010
0100
0000
1000
1000
,
1000
0000
0001
0001
0001
0000
0100
0000
,
0010
1000
0100
0001
0010
0000
0000
0000
,
1001
0000
0100
0000
0010
1000
0000
0000
,
1000
0000
0100
0010
0001
0000
1000
0000
,
1001
0000
0001
0000
1001
0000
1000
0010
,
0100
0000
0001
0001
0002
0000
0000
0000
,
0003
0000
0000
0000
,
1000
0001
1000
0000
0010
0000
0110
0000
,
0100
0010
0100
0000
0001
0000
0101
0000
,
0001
1000
0001
0000
0010
0000
0011
0000
,
1000
0100
1000
0000
1001
0000
0100
0010
,
2000
0000
0001
0000
0100
0000
0010
0010
,
3002
0000
0000
0000
0100
0000
0000
0000
1000
0000
0000
0000
0010
0000
0010
0003
,
2000
0000
0100
0000
0010
0001
3010
1000
,
1001
1010
1001
0101
,
0010
0100
0010
0000
1000
0000
1010
0000
,
1000
0100
1000
0000
0100
0000
1100
0000
,
0100
0001
0100
0000
0001
0000
0101
0000
,
0001
0000
0000
0010
0000
0000
0100
0000
0000
0000
1000
0000
0100
0000
0000
0000
,
1000
0001
1000
0000
0010
0000
0110
0000
,
0100
0001
0100
0000
0010
0000
1010
0000
,
1000
0001
0010
0000
0100
0100
0100
0000
,
0011
0100
1010
0100
,
1002
0000
1000
0010
,
2003
0000
0100
3001
,
0010
0010
0010
0000
0100
0100
0100
0000
,
0010
0010
0010
0000
1001
0000
1001
0000
,
1000
1000
1000
0000
0001
0001
0001
0000
,
1000
1000
1000
0000
0110
0000
0110
0000
,
0100
0100
0100
0000
0010
0010
0010
0000
,
0100
0100
0100
0000
1001
0000
1001
0000
,
0001
0001
0001
0000
1000
1000
1000
0000
,
0001
0100
0010
0000
1000
0010
0100
0002
,
0000
0000
0000
0000
0000
0000
0000
0000
0000
0000
0000
0000
0000
0000
0000
0000
0000
0000
0000
0000
0000
0000
0000
0000
0000
0000
0000
0000
0000
0000
0000
0000
0000
0000
0000
0000
0000
0000
0000
0000
0000
0000
0000
0000
0000
0000
0000
0000
0000
0000
0000
0000
0000
0000
0000
0000
0000
0000
0000
0000
0000
0000
0000
0000
0000
0000
0000
0000
0000
0000
0000
0000
0000
0000
0000
0000
0000
0000
0000
0000
0000
0000
0000
0000
0000
0000
0000
0000
0000
0000
0000
0000
0000
0000
0000
0000
0000
0003
0000
0000
0000
0000
0000
0000
0000
0000
0000
0000
0000
0000
0000
0000
0000
0000
0000
0000
0000
0000
0000
0000
0000
0000
0000
0000
0000
0000
0000
0000
0000
0000
0000
0000
0000
0000
0000
0000
0000
0000
0000
0000
0000
0000
0000
0000
0000
0000
0000
0000
0000
0000
0000
0000
0000
0000
0000
0000
0000
0000
0000
0000
0000
0000
0000
0000
0000
0000
0000
0000
0000
0000
0000
0000
0000
0000
0000
0000
0000
0000
0000
0000
0000
0000
0000
0000
0000
0000
0000
0000
0000
0000
0000
0000
;

//---------------dance-single - Chewphoria~----------------
#NOTES:
     dance-single:
     Chewphoria~:
     Beginner:
     2:
     0.125,0.158,0.079,0.000,0.000:
1000
0000
0000
0000
,
0100
0000
0000
0000
,
0010
0000
0000
0000
,
0001
0000
0000
0000
,
1001
0000
0000
0000
,
0110
0000
0000
0000
,
1001
0000
0000
0000
,
0110
0000
0000
0000
,
1000
0000
0000
0000
,
1000
1000
0000
0000
,
0010
0010
0000
0000
,
0100
0100
0000
0000
,
0001
0001
0000
0000
,
0001
0001
0000
0000
,
1000
1000
0000
0000
,
0001
0001
0000
0000
,
1000
1000
0000
0000
,
0001
0001
0000
0000
,
0010
0010
0000
0000
,
0100
0100
0000
0000
,
1000
0000
0000
0000
,
0010
0010
0000
0000
,
0100
0100
0000
0000
,
0001
0001
0000
0000
,
1000
1000
0000
0000
,
1001
0000
0000
0000
,
1001
0000
0000
0000
,
1000
1000
1000
1000
,
1000
1000
1000
0000
,
0001
0001
0001
0001
,
0001
0001
0001
0000
,
0010
0010
0010
0010
,
0010
0010
0010
0000
,
0100
0100
0100
0100
,
0100
0100
0100
0000
,
1001
0000
0000
0000
;

//---------------dance-single - Chewphoria~----------------
#NOTES:
     dance-single:
     Chewphoria~:
     Easy:
     5:
     0.191,0.220,0.124,0.079,0.000:
1000
0000
0010
0000
,
0001
0000
0010
0000
,
1000
0000
0100
0000
,
0001
0000
0100
0000
,
2000
0000
3000
0000
,
0002
0000
0003
0100
,
0100
0000
0010
0000
,
0010
0010
0110
0000
,
1001
0000
0000
0000
,
0010
1000
0010
0000
,
0010
0001
0010
0000
,
0100
0001
0100
0000
,
0100
1000
0100
0000
,
0010
0010
0010
0000
,
0100
0100
0100
0000
,
1000
0001
1000
0001
,
0010
0100
0010
0100
,
0100
0100
0100
0000
,
1000
1000
1000
0000
,
0010
0010
0010
0000
,
2002
0000
3003
0000
,
1000
1000
1000
0000
,
0001
0001
0001
0000
,
0010
0010
0010
0000
,
0100
0100
0100
0100
,
0200
0000
0000
0000
,
0320
0000
0000
0000
,
0031
0010
0001
0010
,
0001
0010
1001
1001
,
1000
0010
1000
0010
,
1000
0010
1001
1001
,
0100
0001
0100
0001
,
0100
0001
0110
0110
,
0100
1000
0100
1000
,
0100
1000
0110
0110
,
0002
0000
0003
0000
;
