#TITLE:Gee;
#SUBTITLE:;
#ARTIST:少女時代;
#TITLETRANSLIT:;
#SUBTITLETRANSLIT:;
#ARTISTTRANSLIT:GIRLS' GENERATION;
#GENRE:;
#CREDIT:Chewi☆;
#MENUCOLOR:#FFFFFF;
#METERTYPE:DDR X;
#BANNER:Gee.png;
#BACKGROUND:Gee-bg.png;
#LYRICSPATH:;
#CDTITLE:./CDTITLES/DanceDanceRevolution skyMIX2 -FREEDOM-.png;
#MUSIC:Gee.mp3;
#OFFSET:-1.634;
#SAMPLESTART:68.220;
#SAMPLELENGTH:15.000;
#SELECTABLE:YES;
#LISTSORT:;
#DISPLAYBPM:100.000:200.000;
#BPMS:0.000=100.000,32.000=200.020,224.000=100.000,256.000=200.001;
#STOPS:;
#BGCHANGES:;
#ATTACKS:;

//---------------dance-single - Chewi----------------
#NOTES:
     dance-single:
     Chewi:
     Beginner:
     3:
     0.205,0.258,0.089,0.016,0.000: // measure 1
0000
0000
0000
0000
,  // measure 2
0000
0000
0000
0000
,  // measure 3
0000
0000
0000
0000
,  // measure 4
0000
0000
0000
0000
,  // measure 5
1000
0000
0000
0000
,  // measure 6
0001
0000
0000
0000
,  // measure 7
0001
0000
0000
0000
,  // measure 8
1000
0000
0000
0000
,  // measure 9
0010
0000
0010
0000
,  // measure 10
0100
0000
0100
0000
,  // measure 11
0010
0000
0010
0000
,  // measure 12
0100
0000
0100
0000
,  // measure 13
0001
0001
0001
0001
,  // measure 14
0001
0000
0000
0000
,  // measure 15
1000
1000
1000
1000
,  // measure 16
1000
0000
0000
0000
,  // measure 17
1000
0000
1000
0000
,  // measure 18
0001
0000
0001
0000
,  // measure 19
1000
0000
1000
0000
,  // measure 20
0001
0000
0001
0000
,  // measure 21
0010
0010
0010
0010
,  // measure 22
0010
0000
0000
0000
,  // measure 23
0100
0100
0100
0100
,  // measure 24
0100
0000
0000
0000
,  // measure 25
0110
0000
0000
0000
,  // measure 26
0010
0010
0010
0000
,  // measure 27
1001
0000
0000
0000
,  // measure 28
1000
1000
1000
0000
,  // measure 29
1000
0000
0001
0000
,  // measure 30
0100
0000
0010
0000
,  // measure 31
0100
0000
0010
0000
,  // measure 32
1000
0000
0001
0000
,  // measure 33
1001
0000
1001
0000
,  // measure 34
1000
1000
1000
0000
,  // measure 35
0001
0000
0001
0000
,  // measure 36
0001
0001
0001
0000
,  // measure 37
0110
0000
0110
0000
,  // measure 38
0010
0010
0010
0000
,  // measure 39
0100
0000
0100
0000
,  // measure 40
0100
0100
0100
0100
,  // measure 41
0100
0000
1001
0000
,  // measure 42
1000
0000
0001
0000
,  // measure 43
1000
1000
1000
1000
,  // measure 44
1000
0000
0000
0000
,  // measure 45
0001
0000
0001
0000
,  // measure 46
1000
0000
1000
0000
,  // measure 47
0001
0000
1000
0000
,  // measure 48
0001
0000
0000
0000
,  // measure 49
0100
0000
0110
0000
,  // measure 50
0010
0000
0010
0000
,  // measure 51
0010
0010
0010
0010
,  // measure 52
0010
0000
0000
0000
,  // measure 53
1000
0000
0000
0001
,  // measure 54
0001
0000
0000
0000
,  // measure 55
0100
0000
0000
0010
,  // measure 56
0010
0010
0010
0000
,  // measure 57
0200
0000
0000
0300
,  // measure 58
0100
0000
0000
0000
,  // measure 59
0020
0000
0000
0030
,  // measure 60
0010
0000
0000
0000
,  // measure 61
1000
1000
0000
1000
,  // measure 62
1000
1000
0000
0001
,  // measure 63
0001
0001
0000
0000
,  // measure 64
0001
0001
0001
0001
,  // measure 65
0001
0000
0001
0000
,  // measure 66
1000
0000
1000
0000
,  // measure 67
0010
0010
0010
0010
,  // measure 68
0010
0000
0000
0000
,  // measure 69
0100
0000
0100
0000
,  // measure 70
0010
0000
0010
0000
,  // measure 71
0010
0010
0010
0010
,  // measure 72
0010
0000
1000
0000
,  // measure 73
1000
0000
1001
0000
,  // measure 74
1001
0000
0001
0000
,  // measure 75
0001
0001
0001
0001
,  // measure 76
0001
0000
0000
0000
,  // measure 77
1000
0000
0100
0000
,  // measure 78
1000
1000
1000
0000
,  // measure 79
0001
0000
0010
0000
,  // measure 80
0001
0001
0001
0000
,  // measure 81
1001
0000
0000
0000
;

//---------------dance-single - Chewi----------------
#NOTES:
     dance-single:
     Chewi:
     Easy:
     5:
     0.358,0.420,0.113,0.371,0.000:
0000
0000
0000
0000
,
0000
0000
0000
0000
,
0000
0000
0000
0000
,
0000
0000
0000
0000
,
1000
1000
1000
1000
,
0001
0001
0001
0001
,
1000
1000
1000
1000
,
0001
0001
0001
1001
,
0100
0010
1000
0000
,
0100
0010
0100
0000
,
0100
0010
0001
0000
,
0100
0010
0100
0000
,
0002
2003
3002
2003
,
3001
0000
1001
0000
,
2000
3002
2003
3002
,
1003
0000
1001
0000
,
0010
1000
0100
0000
,
0010
0100
0010
0000
,
0010
0001
0100
0000
,
0010
0100
0010
0000
,
0020
0230
0320
0230
,
0310
0000
0110
0000
,
2000
3002
2003
3002
,
1003
0000
1001
0000
,
1001
0000
0100
0000
,
0010
1000
0100
0010
,
0001
0000
0010
0000
,
1000
0100
0001
0010
,
0002
0000
0023
0000
,
0031
0100
0010
0100
,
0001
0001
1000
1000
,
0001
1000
0010
0100
,
0000
0100
0000
0100
,
0010
1000
0001
0010
,
0100
0000
0000
0100
,
0010
0001
1000
0010
,
0100
0000
0000
0100
,
0100
0100
0000
0010
,
1000
0100
0001
0010
,
1000
0100
0010
0001
,
0100
0000
1001
0000
,
0010
0100
1001
0000
,
2000
3200
0302
0203
,
2300
3000
0010
0010
,
0100
0100
0010
1000
,
0001
0010
0100
0100
,
0020
0032
0203
2300
,
3020
0030
0100
0100
,
0100
0000
0110
0000
,
0010
1000
0010
0001
,
0020
0230
0320
0230
,
0310
0000
1000
0001
,
0010
0000
0110
0000
,
0010
0100
1000
0001
,
0100
0000
0110
0000
,
0100
0010
1000
0001
,
1001
0000
1000
1000
,
0100
0000
0001
0001
,
0010
0000
1000
1000
,
0010
0000
0001
0001
,
0100
0100
0100
0100
,
0010
0010
0010
0010
,
1000
1000
1000
1000
,
0002
0000
0000
0003
,
1000
0100
0010
0001
,
1000
0100
0010
0001
,
2000
3002
2003
3002
,
1003
0000
0001
0100
,
0010
1000
0001
0100
,
0010
1000
0001
1000
,
0002
0023
0230
2300
,
3200
0000
1300
0001
,
0100
0010
1000
0001
,
0010
0100
1000
0010
,
0200
0320
0230
0320
,
0130
0000
0100
0110
,
0100
0000
0100
0000
,
0010
1000
0100
0000
,
0001
0000
1000
0001
,
1000
1001
0001
1000
,
0010
0000
0000
0000
;

//---------------dance-single - Chewi----------------
#NOTES:
     dance-single:
     Chewi:
     Medium:
     8:
     0.450,0.452,0.501,0.057,0.000:
0000
0000
0000
0000
,
0000
0000
0000
0000
,
0000
0000
0000
0000
,
0000
0000
0000
0000
,
0000
1000
0000
1000
0000
2000
3000
1000
,
0000
0001
0000
0001
0000
0002
0003
0001
,
0000
0100
0000
0100
0000
0200
0300
0100
,
0010
0000
0010
0000
0010
0010
0010
0000
,
0010
1000
0100
0010
,
0100
0000
1000
0000
0010
0010
0010
0000
,
0100
0001
0010
0100
,
0010
0000
0001
0000
0100
0100
0100
0000
,
1010
1100
1010
1001
,
0001
0001
1000
1000
,
0101
0011
0101
1001
,
0010
0010
1000
1000
,
0001
1000
0001
0000
0010
0000
0100
0000
,
1000
0100
0001
0010
,
0100
0010
0100
0000
0010
0000
0001
0000
,
0100
1000
0010
1000
,
1010
0101
0011
0110
,
0100
0100
0010
0100
,
0011
1001
0101
1001
,
1000
1000
0010
0010
,
0101
0010
1100
0010
,
0100
0010
0100
0000
0100
0000
0010
0000
,
1010
0100
0011
0100
,
1000
0001
1000
0001
,
1000
1000
1000
0000
0001
0001
0001
0000
,
0100
0010
1000
0001
,
0010
0010
0010
0000
0100
0100
0100
0000
,
0010
0001
0100
1000
,
0010
0000
1000
0000
0100
0000
0010
0001
,
0010
0001
0100
0010
,
1001
0000
0010
0000
0100
0000
1000
0010
,
1000
0100
0010
0001
,
1001
0000
1000
0000
0010
0000
0100
0001
,
0100
0000
0010
0000
1000
0000
0001
0010
,
0100
1000
0100
0010
,
0001
1000
0010
0100
,
0102
0000
0020
0033
,
0100
1000
0010
0100
,
1010
1100
0101
0011
,
1010
0000
0001
1000
,
0010
0000
0100
0000
0001
0000
0100
0010
,
0000
0010
0100
0000
0100
0000
0001
0000
,
0011
1100
0101
1010
,
1001
0000
0000
0000
1000
0010
0000
0100
,
0001
0000
1010
0000
,
0100
0001
0010
0100
,
1100
0011
1010
1001
,
0010
0000
0100
0001
,
0011
0000
0000
0010
0000
0000
0100
0000
,
1000
0010
0100
0001
,
1001
0000
0000
0001
0000
0000
1000
0000
,
0010
0100
0001
0100
,
1010
0000
0000
0001
1000
0010
0100
0001
,
0000
0000
0000
0001
0010
0100
1000
0100
,
0000
0001
0010
1000
0000
0000
0000
0000
,
0110
0100
0110
0010
,
1000
0000
1000
0000
1000
1000
1000
1000
,
0001
0000
0001
0000
0001
0001
0001
0001
,
0010
0010
0010
0010
0100
0100
0100
0100
,
0220
0000
0000
0330
,
0001
0000
0100
0000
0010
0000
1000
0010
,
0000
0010
1000
0000
1000
0000
0010
0000
,
0101
0011
1100
1010
,
1001
0000
1000
0100
,
0010
0000
0001
0000
0100
0000
0010
0100
,
0000
0100
0010
0000
1000
0000
0001
0000
,
1001
0110
1001
0110
,
1001
0000
1000
0010
,
0100
0001
0100
0010
,
1000
0000
0001
0000
0010
0100
0010
0000
,
0011
0101
0011
0101
,
0110
0000
0000
0000
0010
1000
0100
0000
,
1000
0000
0000
1001
0000
0000
0001
0000
,
0010
0000
0100
0000
1000
0010
1000
0000
,
1010
0000
0000
0101
0000
0000
0100
0000
,
0010
0000
1000
0000
0001
0010
0100
1000
,
0010
0000
0000
0000
;

//---------------dance-single - Chewi----------------
#NOTES:
     dance-single:
     Chewi:
     Hard:
     14:
     0.659,0.614,0.485,0.016,0.069:
0000
0000
0000
0000
,
0000
0000
0000
0000
,
0000
0000
0000
0000
,
0000
0000
0000
0000
,
0000
0000
1000
0000
0000
0000
0100
0000
0000
0000
1000
0100
0000
0000
0100
0000
,
0000
0000
0001
0000
0000
0000
0001
0000
0000
0000
0001
0100
0000
0000
0001
0000
,
0000
0000
0100
0000
0000
0000
0100
0000
0000
0000
0100
0010
0000
0000
0100
0000
,
0010
0000
0000
0000
1010
0000
0000
0000
1000
0100
0010
0001
0010
0100
1000
0010
,
1000
0010
0100
0001
0100
0000
0010
1000
,
0000
1000
0100
0010
0001
0010
0100
1000
,
0001
0100
0010
1000
0001
0000
0010
0001
,
0000
0001
0010
0100
1000
0001
0100
0010
,
1010
0101
0011
1100
,
1000
0100
0001
0010
1000
0010
0001
0100
,
0110
0101
0011
0110
,
0010
0100
1000
0010
1000
0100
0010
0001
,
1000
0001
1000
0001
0100
0010
0100
0010
,
1000
0010
1000
0010
1000
0100
0010
0001
,
0100
0001
0100
0001
0010
0001
0010
0001
,
0100
0001
0100
0001
1000
0010
1000
0001
,
0110
1001
0110
1001
,
1000
0100
0010
0100
1000
0010
0100
0001
,
0101
0011
0101
0110
,
1001
0000
0000
1001
0000
0000
1001
0000
,
1000
0010
0100
0001
1000
0100
0010
0001
,
1000
0001
1000
0001
0010
0100
0010
0100
,
0010
0001
0100
0010
1000
0001
0100
0010
,
1000
0100
1000
0100
1000
0010
1000
0010
,
1000
1000
1000
1000
0001
0001
0001
0001
,
0010
0100
1000
0010
0100
0001
0100
0010
,
1000
1000
1000
1000
0010
0010
0010
0010
,
0100
0001
0100
0010
1000
0001
0010
0100
,
0010
0001
0100
0000
0010
0100
0001
0010
,
0100
1000
0001
0100
0010
1000
0001
1000
,
0100
0010
0001
0000
0010
0100
1000
0010
,
0100
0001
0100
0010
1000
0001
0010
0100
,
0010
0001
0100
0000
0100
1000
0010
0000
,
0010
1000
0100
0010
0001
0010
0100
0010
,
0001
0001
1000
1000
0010
0010
0100
0100
,
0001
0100
1000
0100
0001
0010
1000
0010
,
0100
0000
0110
0000
,
0100
0010
1000
0100
0010
0001
0010
0100
,
1100
0101
1100
0101
,
0011
0000
0001
0000
0001
0010
0100
1000
,
0010
0100
0001
0100
0010
1000
0001
0010
,
0100
1000
0010
0100
0001
0100
0010
1000
,
1010
0101
0011
1100
,
1001
0000
0000
0000
0001
0010
0100
1000
,
0010
0000
0110
0100
,
0010
1000
0100
0010
0001
0010
0100
1000
,
1001
1010
1001
0101
,
1001
0000
0000
0000
0001
0010
0100
1000
,
0010
0100
0001
0100
0010
1000
0001
0010
,
0100
0110
1001
0110
,
0100
0001
0100
0010
1000
0001
0010
0100
,
0010
0110
1001
0110
,
1000
0000
0000
0000
0000
0000
0010
0100
0001
0000
0010
0000
0100
0000
1000
0000
,
0010
0000
0000
0000
0000
0000
0100
0010
0100
0000
0001
0000
0010
0000
0100
0000
,
0000
1000
0010
0001
0000
0000
0000
0001
,
0011
0000
0000
1010
0000
0000
0000
0000
1100
0000
0000
0101
0000
0000
0000
0000
,
0100
0000
0010
0000
1000
0000
0001
0000
0010
0000
0100
0010
0000
0010
0100
0000
,
0010
0000
0001
0000
0100
0000
0010
0000
1000
0000
0010
1000
0000
1000
0010
0000
,
1000
1000
0001
0001
0010
0010
0100
0100
,
0220
0000
0000
0000
0000
0000
0000
0000
0330
0000
0000
0000
1000
0001
1000
0001
,
1000
0100
0010
0001
1000
0100
0010
0001
,
1000
0010
0100
0001
1000
0010
0100
0001
,
0101
0011
1100
1010
,
1001
0000
0010
0000
0100
0010
0001
0000
,
0100
0010
1000
0000
1000
0100
0010
0001
,
0100
0010
1000
0001
0100
0010
1000
0001
,
1000
0001
1000
0001
0010
0100
0010
0100
,
0010
0001
0100
1000
0010
1000
0100
0001
,
0010
0100
1000
0001
0100
0010
1000
0001
,
1000
0100
0010
0001
1000
0100
0010
0001
,
0011
0101
1100
1010
,
1001
0000
0110
0000
0010
0001
0100
1000
,
0010
1000
0100
0010
0001
0010
0100
1000
,
0010
0100
0001
0100
0010
1000
0001
0010
,
1000
0100
0001
0010
1000
0100
0001
0010
,
0100
0010
0001
0100
0010
1000
0001
0100
,
0110
0000
0000
0000
;
