#TITLE:Garden;
#SUBTITLE:;
#ARTIST:May J. feat. DJ KAORI, Diggy-MO', クレンチ & ブリスタ;
#TITLETRANSLIT:;
#SUBTITLETRANSLIT:;
#ARTISTTRANSLIT:May J. feat. DJ KAORI, Diggy-MO', CLENCH & BLISTER;
#GENRE:;
#CREDIT:Chewi☆;
#MENUCOLOR:#FFFF00;
#METERTYPE:DDR X;
#BANNER:Garden.png;
#BACKGROUND:Garden-bg.png;
#LYRICSPATH:;
#CDTITLE:./CDTITLES/DanceDanceRevolution skyMIX2 -FREEDOM-.png;
#MUSIC:Garden.mp3;
#OFFSET:-5.167;
#SAMPLESTART:101.201;
#SAMPLELENGTH:15.000;
#SELECTABLE:YES;
#LISTSORT:;
#DISPLAYBPM:100.000;
#BPMS:0.000=100.000;
#STOPS:;
#BGCHANGES:;
#ATTACKS:;

//---------------dance-single - Chewi----------------
#NOTES:
     dance-single:
     Chewi:
     Beginner:
     1:
     0.084,0.119,0.050,0.014,0.000: // measure 1
0000
0000
0000
0000
,  // measure 2
0000
0000
0000
0000
,  // measure 3
0000
0000
0000
0000
,  // measure 4
0000
0000
0000
0000
,  // measure 5
1000
0000
0000
0000
,  // measure 6
0001
0000
0000
0000
,  // measure 7
0010
0000
0000
0000
,  // measure 8
1000
0000
0000
0000
,  // measure 9
0001
0000
0001
0000
,  // measure 10
0010
0000
0010
0000
,  // measure 11
1000
0000
1000
0000
,  // measure 12
0001
0000
0001
0000
,  // measure 13
0100
0000
0100
0000
,  // measure 14
0010
0000
0010
0000
,  // measure 15
0010
0000
0010
0000
,  // measure 16
0010
0000
0010
0000
,  // measure 17
1001
0000
0000
0000
,  // measure 18
0001
0000
0000
0000
,  // measure 19
0110
0000
0000
0000
,  // measure 20
0100
0000
0000
0000
,  // measure 21
2000
0000
0000
3000
,  // measure 22
1000
0000
0000
0000
,  // measure 23
0002
0000
0000
0003
,  // measure 24
0001
0000
0000
0000
,  // measure 25
0010
0000
0000
0000
,  // measure 26
0100
0000
0000
0000
,  // measure 27
0010
0000
0000
0000
,  // measure 28
0100
0000
0000
0000
,  // measure 29
1001
0000
0000
0000
,  // measure 30
0001
0000
0000
0000
,  // measure 31
0110
0000
0000
0000
,  // measure 32
0010
0000
0000
0000
,  // measure 33
0010
0000
0010
0000
,  // measure 34
0100
0000
0100
0000
,  // measure 35
0010
0000
0010
0000
,  // measure 36
0100
0000
0100
0000
,  // measure 37
0110
0000
0000
0000
,  // measure 38
1000
0000
0000
0000
,  // measure 39
0110
0000
0000
0000
,  // measure 40
0010
0000
0000
0000
,  // measure 41
0001
0000
0000
0000
,  // measure 42
0001
0000
0001
0000
,  // measure 43
1000
0000
1000
0000
,  // measure 44
0010
0000
1000
0000
,  // measure 45
0001
0000
0100
0000
,  // measure 46
0001
0000
1000
0000
,  // measure 47
1000
0000
0001
0000
,  // measure 48
0001
0000
1000
0000
,  // measure 49
0010
0000
0000
0000
,  // measure 50
0010
0000
0000
0000
,  // measure 51
1001
0000
0000
0000
,  // measure 52
0100
0000
0000
0000
,  // measure 53
1000
0000
0000
0000
,  // measure 54
0100
0000
0000
0000
,  // measure 55
0010
0000
0000
0000
,  // measure 56
0001
0000
0010
0010
,  // measure 57
0010
0000
0000
0000
;

//---------------dance-single - Chewi----------------
#NOTES:
     dance-single:
     Chewi:
     Easy:
     4:
     0.159,0.179,0.050,0.085,0.000: // measure 1
0000
0000
0000
0000
,  // measure 2
0000
0000
0000
0000
,  // measure 3
0000
0000
0000
0000
,  // measure 4
0000
0000
0000
0000
,  // measure 5
2000
0000
0000
3000
,  // measure 6
0002
0000
0000
0003
,  // measure 7
0020
0000
0000
0030
,  // measure 8
2000
0000
0000
3000
,  // measure 9
0001
0001
0001
0000
,  // measure 10
0010
0100
0010
0000
,  // measure 11
1000
1000
1000
0000
,  // measure 12
0001
1000
0001
0000
,  // measure 13
0100
0100
0100
0000
,  // measure 14
0010
0100
0010
0000
,  // measure 15
0010
0010
0010
0000
,  // measure 16
0010
1000
0010
0000
,  // measure 17
1001
0000
1000
0000
,  // measure 18
0001
0010
1000
0100
,  // measure 19
0110
0000
0010
0000
,  // measure 20
0100
1000
0010
0001
,  // measure 21
2000
0000
0000
3000
,  // measure 22
0001
0001
0001
0000
,  // measure 23
0002
0000
0000
0003
,  // measure 24
1000
1000
1000
0000
,  // measure 25
0010
0000
1000
0000
,  // measure 26
0100
0001
0010
0000
,  // measure 27
0010
0000
0001
0000
,  // measure 28
0100
1000
0010
0000
,  // measure 29
1001
0000
1000
0000
,  // measure 30
0001
1000
0001
0000
,  // measure 31
0110
0000
0010
0000
,  // measure 32
0010
0100
0010
0000
,  // measure 33
0010
1000
0010
0000
,  // measure 34
0100
1000
0100
0000
,  // measure 35
0010
0001
0010
0000
,  // measure 36
0100
0001
0100
0000
,  // measure 37
0110
0000
1000
1000
,  // measure 38
1000
0000
0001
0000
,  // measure 39
0110
0000
0010
0010
,  // measure 40
0010
0000
1000
0000
,  // measure 41
0001
0000
1000
0100
,  // measure 42
0001
0000
0001
0010
,  // measure 43
1000
0000
1000
0100
,  // measure 44
0010
0000
1000
0100
,  // measure 45
0001
0010
0100
0000
,  // measure 46
0001
0010
1000
0000
,  // measure 47
1000
0100
0001
0000
,  // measure 48
0001
0010
1000
0100
,  // measure 49
0010
0000
0010
0000
,  // measure 50
0010
0100
1000
0001
,  // measure 51
1001
0000
0010
0000
,  // measure 52
0100
0010
1000
0001
,  // measure 53
2000
0000
3002
0000
,  // measure 54
0203
0000
0010
0010
,  // measure 55
0320
0000
2030
0000
,  // measure 56
3002
0000
0010
0010
,  // measure 57
0013
0000
0000
0000
;

//---------------dance-single - Chewi----------------
#NOTES:
     dance-single:
     Chewi:
     Medium:
     6:
     0.241,0.259,0.107,0.014,0.000: // measure 1
0000
0000
0000
0000
,  // measure 2
0000
0000
0000
0000
,  // measure 3
0000
0000
0000
0000
,  // measure 4
0000
0000
0000
0000
,  // measure 5
2000
0000
0010
0001
,  // measure 6
3002
0000
0100
1000
,  // measure 7
1003
0001
1000
0001
,  // measure 8
0100
0010
0100
0010
,  // measure 9
1010
0000
0100
0000
0001
0001
0001
0000
,  // measure 10
0001
0010
1000
0100
,  // measure 11
0001
0000
0100
0000
1000
1000
1000
0000
,  // measure 12
0010
0100
1000
0001
,  // measure 13
0101
0000
0100
0000
0010
0010
0010
0000
,  // measure 14
1000
0100
0001
0010
,  // measure 15
1000
0100
0010
0001
,  // measure 16
0010
0010
0010
0000
0100
0000
1001
0000
,  // measure 17
0100
0010
0100
0000
0001
0000
1100
0000
,  // measure 18
0010
0001
0010
1000
,  // measure 19
1000
0101
0001
1100
,  // measure 20
0001
1000
0010
0100
,  // measure 21
0001
0100
1000
0010
,  // measure 22
0100
0100
0100
0000
0010
0000
1001
0000
,  // measure 23
1000
0100
0010
0001
,  // measure 24
1000
0010
0100
0001
,  // measure 25
0100
0100
0100
0000
0010
0000
1000
0000
,  // measure 26
0001
1000
0001
0010
,  // measure 27
0100
0010
0001
0100
,  // measure 28
1000
0010
0100
1001
,  // measure 29
0010
0010
0010
0000
1000
0000
0001
0000
,  // measure 30
1000
0100
1000
0001
,  // measure 31
0100
0100
0100
0000
0010
0000
1000
0000
,  // measure 32
0010
0001
0100
1000
,  // measure 33
1000
1000
1000
0000
1000
0000
0001
0000
,  // measure 34
0010
0100
0010
0001
,  // measure 35
0010
0010
0010
0000
0100
0000
1000
0000
,  // measure 36
0010
1000
0001
1000
,  // measure 37
1001
0100
1000
0100
,  // measure 38
0010
0001
0010
0001
,  // measure 39
0010
0100
1000
0001
,  // measure 40
0010
0100
0010
0100
,  // measure 41
0101
0000
0010
0000
1000
1000
1000
0000
,  // measure 42
1000
0000
1100
0000
0100
0100
0100
0000
,  // measure 43
0010
0000
0011
0000
0010
0010
0010
0000
,  // measure 44
0001
1000
0001
0000
1000
0000
0001
0000
,  // measure 45
1000
1000
1000
0000
0100
0000
0100
0000
,  // measure 46
0010
0010
0010
0000
0001
0000
0001
0000
,  // measure 47
1000
1000
1000
0000
0001
0000
1001
0000
,  // measure 48
0001
0001
0001
0000
1000
0000
1001
0000
,  // measure 49
1000
0010
0001
0100
,  // measure 50
1000
0100
0001
0010
,  // measure 51
1000
0100
0010
1000
,  // measure 52
0100
0000
0010
0100
,  // measure 53
0001
0010
0000
0000
0000
0100
0000
0000
,  // measure 54
0000
1000
0000
0000
0010
0000
0100
0000
,  // measure 55
0000
0010
0000
0000
0000
1000
0000
0000
,  // measure 56
0000
0100
0000
0000
0001
0000
0010
0000
,  // measure 57
0110
0000
0000
0000
;

//---------------dance-single - Chewi----------------
#NOTES:
     dance-single:
     Chewi:
     Hard:
     9:
     0.303,0.338,0.071,0.028,0.050:
0000
0000
0000
0000
,
0000
0000
0000
0000
,
0000
0000
0000
0000
,
0000
0000
0000
0000
,
2000
0000
0000
0000
,
3002
0100
0010
0000
,
2003
0000
0000
0000
,
3002
0000
0100
1003
,
0000
0000
0010
0000
1000
0000
0010
0000
0100
0000
0000
0100
0000
0000
0100
0000
,
0000
0000
0100
0000
0001
0000
0100
0000
0010
0000
0000
0010
0000
0000
0010
0000
,
0000
0000
1000
0000
0001
0000
0010
0000
0100
0000
0000
0100
0000
0000
0100
0000
,
0000
0000
0010
0000
0001
0000
0010
0000
0100
0000
0000
0100
0000
0000
0100
0000
,
0000
0000
1000
0000
0001
0000
0100
0000
0010
0000
0000
0010
0000
0000
0010
0000
,
0000
0000
0010
0000
1000
0000
0001
0000
0010
0000
0000
0010
0000
0000
0010
0000
,
0000
0000
0100
0000
0010
0000
0001
0000
1000
0000
0000
1000
0000
0000
1000
0000
,
0000
1000
0001
0100
0010
1000
0001
0010
,
0110
0000
0010
0000
0010
0010
0010
0000
,
0001
0000
1000
0000
0001
1000
0001
0000
,
0100
0100
0100
0000
1000
1000
1000
0000
,
1000
0100
0001
0010
,
0110
0000
0100
0000
,
0010
0100
0010
1000
0010
0000
1000
0000
,
1001
0000
0001
0000
,
0001
1000
0001
1000
0100
0000
0001
0000
,
0010
0010
0100
0110
,
0100
0100
0010
0110
,
0010
0000
1000
0000
0001
0001
0001
0000
,
0010
0000
0001
0000
1000
1000
1000
0000
,
0001
0100
1000
0100
0001
0010
1000
0000
,
0010
0110
0100
0110
,
0010
0100
1000
0100
0010
0100
0001
0010
,
0100
0001
0010
0000
0100
0000
1001
0000
,
0010
0100
0001
0100
0010
0100
0001
0100
,
0010
1000
0100
0010
0001
1000
0100
0010
,
0001
1000
0100
0000
1000
0000
0100
0000
,
0010
0001
1000
0000
0010
0000
0100
0000
,
0101
1000
0100
0001
,
0010
1000
0010
0001
,
0100
0010
1000
0000
0100
0010
0001
0000
,
1000
0001
1000
0000
0001
1000
0001
0000
,
1000
0000
0100
0000
0010
0000
0001
0000
0010
0000
0000
0010
0000
0000
0010
0000
,
0000
0000
0001
0000
0010
0000
0100
0000
1000
0000
0000
1000
0000
0000
1000
0000
,
0000
0000
0001
0000
1000
0000
0010
0000
0100
0000
0000
0100
0000
0000
0100
0000
,
0000
0000
0010
0000
0100
0000
0010
0000
1000
0000
0000
1000
0000
0000
1000
0000
,
0000
0000
1000
0000
0001
0000
0010
0000
0100
0000
0000
0100
0000
0000
0100
0000
,
0000
0000
0100
0000
0010
0000
0001
0000
1000
0000
0000
1000
0000
0000
1000
0000
,
0000
0000
0001
0000
0100
0000
1000
0000
0010
0000
0000
0010
0000
0000
0010
0000
,
0000
1000
0010
0001
0010
0100
0001
0100
,
0010
1000
0001
1000
0100
0010
1001
0000
,
0100
0010
0100
0000
0010
1000
0010
0000
,
0001
0010
0100
0000
1000
0100
0010
0000
,
0001
1000
0010
0001
0010
1000
0001
0010
,
0000
0100
1000
0010
0000
0100
0001
0010
,
0000
0100
0010
0001
0100
1000
0010
0100
,
0000
1000
0100
0010
0000
0001
0010
0100
,
0000
1000
0010
0001
0100
0010
0001
0100
,
0010
0000
0000
0000
;
