#TITLE:너 아님 안돼;
#SUBTITLE:;
#ARTIST:2NE1;
#TITLETRANSLIT:GOTTA BE YOU;
#SUBTITLETRANSLIT:;
#ARTISTTRANSLIT:;
#GENRE:J-Pop;
#CREDIT:chewi;
#BANNER:GOTTA BE YOU.png;
#BACKGROUND:GOTTA BE YOU-bg.png;
#LYRICSPATH:;
#CDTITLE:cdtitle.png;
#MUSIC:GOTTA BE YOU.ogg;
#OFFSET:-0.167000;
#SAMPLESTART:66.628998;
#SAMPLELENGTH:15.000000;
#SELECTABLE:YES;
#BPMS:0.000000=130.000000
;
#STOPS:
;
#BGCHANGES:-0.334=GOTTA BE YOU.avi=1.000=1=0=0=StretchNoLoop==CrossFade==,
99999=-nosongbg-=1.000=0=0=0 // don't automatically add -songbackground-
;
#KEYSOUNDS:;
#ATTACKS:;

//---------------dance-single - ----------------
#NOTES:
     dance-single:
     :
     Beginner:
     1:
     0.082144,0.131481,0.000000,0.091160,0.000000,69.000000,0.000000,13.000000,0.000000,0.000000,0.000000,0.082144,0.131481,0.000000,0.091160,0.000000,69.000000,0.000000,13.000000,0.000000,0.000000,0.000000:
// measure 0
0000
0000
0000
0000
,  // measure 1
0000
0000
0000
0000
,  // measure 2
0000
0000
0000
0000
,  // measure 3
0000
0000
0000
0000
,  // measure 4
1000
0000
0000
0000
,  // measure 5
0001
0000
0000
0000
,  // measure 6
1000
0000
0000
0000
,  // measure 7
0001
0000
0000
0000
,  // measure 8
0200
0000
0000
0300
,  // measure 9
0100
0000
0000
0000
,  // measure 10
0020
0000
0000
0030
,  // measure 11
0010
0000
0000
0000
,  // measure 12
2000
0000
0000
3000
,  // measure 13
1000
0000
0000
0000
,  // measure 14
0002
0000
0000
0003
,  // measure 15
0001
0000
0000
0000
,  // measure 16
0001
0000
0001
0000
,  // measure 17
0001
0000
0000
0000
,  // measure 18
1000
0000
1000
0000
,  // measure 19
1000
0000
0000
0000
,  // measure 20
0100
0000
0100
0000
,  // measure 21
0100
0000
0000
0000
,  // measure 22
1000
0000
1000
0000
,  // measure 23
1000
0000
0000
0000
,  // measure 24
0002
0000
0000
0000
,  // measure 25
0000
0000
0000
0003
,  // measure 26
2000
0000
0000
0000
,  // measure 27
0000
0000
0000
3000
,  // measure 28
0002
0000
0000
0003
,  // measure 29
2000
0000
0000
3000
,  // measure 30
1000
0000
0000
0000
,  // measure 31
0001
0000
0000
0000
,  // measure 32
0020
0000
0000
0000
,  // measure 33
0000
0000
0000
0030
,  // measure 34
0020
0000
0000
0000
,  // measure 35
0030
0000
0000
0000
,  // measure 36
0100
0000
0000
0000
,  // measure 37
1000
0000
0000
0000
,  // measure 38
0010
0000
0000
0000
,  // measure 39
0001
0000
0000
0000
,  // measure 40
0100
0000
0000
0000
,  // measure 41
1000
0000
0000
0000
,  // measure 42
0010
0000
0000
0000
,  // measure 43
0001
0000
0000
0000
,  // measure 44
0010
0000
0000
0000
,  // measure 45
1000
0000
0000
0000
,  // measure 46
0100
0000
0000
0000
,  // measure 47
0001
0000
0000
0000
,  // measure 48
0010
0000
0000
0000
,  // measure 49
1000
0000
0000
0000
,  // measure 50
0010
0000
0000
0000
,  // measure 51
0001
0000
0000
0000
,  // measure 52
2000
0000
0000
0000
,  // measure 53
0000
0000
0000
3000
,  // measure 54
1000
0000
0000
0000
,  // measure 55
0001
0000
0000
0000
,  // measure 56
0010
0000
0000
0000
,  // measure 57
0010
0000
0000
0000
,  // measure 58
0100
0000
0000
0000
,  // measure 59
0100
0000
0000
0000
,  // measure 60
0002
0000
0000
0000
,  // measure 61
0000
0000
0000
0003
,  // measure 62
0001
0000
0000
0000
,  // measure 63
0001
0000
0000
0000
,  // measure 64
2000
0000
0000
0000
,  // measure 65
0000
0000
0000
3000
,  // measure 66
1000
0000
0000
0000
,  // measure 67
1000
0000
0000
0000
,  // measure 68
0010
0000
0000
0000
,  // measure 69
0001
0000
0000
0000
,  // measure 70
0010
0000
0000
0000
,  // measure 71
1000
0000
0000
0000
,  // measure 72
0100
0000
0000
0000
,  // measure 73
0001
0000
0000
0000
,  // measure 74
0100
0000
0000
0000
,  // measure 75
1000
0000
0000
0000
;

//---------------dance-single - ----------------
#NOTES:
     dance-single:
     :
     Easy:
     4:
     0.162285,0.185914,0.000000,0.189333,0.000000,135.000000,0.000000,27.000000,0.000000,0.000000,0.000000,0.162285,0.185914,0.000000,0.189333,0.000000,135.000000,0.000000,27.000000,0.000000,0.000000,0.000000:
0000
0000
0000
0000
,
0000
0000
0000
0000
,
0000
0000
0000
0000
,
0000
0000
0000
0000
,
2000
0000
0000
3000
,
0100
0100
0100
0000
,
0002
0000
0000
0003
,
0100
0100
0100
0000
,
0100
0000
0100
0000
,
0200
0000
0000
0300
,
0010
0000
0010
0000
,
0020
0000
0000
0030
,
1000
0000
1000
0000
,
2000
0000
0000
3000
,
0001
0000
0001
0000
,
0002
0000
0000
0003
,
1000
0001
1000
0000
,
0001
0000
0001
0000
,
0001
1000
0001
0000
,
1000
0000
1000
0000
,
0010
0100
0001
0000
,
0001
0000
0001
0000
,
0010
0100
1000
0000
,
0100
0000
0100
0000
,
0020
0000
0000
0030
,
0002
0000
0000
0003
,
0020
0000
0000
0030
,
0001
0010
0001
0000
,
2000
0000
0000
3000
,
0200
0000
0000
0300
,
2000
0000
0000
3000
,
0200
0000
0000
0300
,
2000
0000
0000
0000
,
0002
0000
0000
0000
,
0000
0000
0000
0000
,
3003
0000
0000
0000
,
1000
0100
1000
0000
,
0001
0001
0001
0000
,
1000
0001
1000
0000
,
0010
0010
0010
0000
,
0100
0001
0100
0000
,
0001
0100
0001
0000
,
1000
1000
1000
0000
,
0001
0001
0001
0000
,
1000
0100
0010
0001
,
0000
0000
0000
0000
,
0001
0010
0100
1000
,
0000
0000
0000
0000
,
1000
0001
0100
0100
,
0000
0000
0000
0000
,
0010
1000
0001
0001
,
0000
0000
0000
0000
,
0020
0000
0000
0030
,
2000
0000
0000
3000
,
0020
0000
0000
0030
,
0200
0000
0000
0300
,
0001
0000
0001
0000
,
1000
0000
1000
0000
,
0100
0000
0100
0000
,
0010
0000
0010
0000
,
0020
0000
0000
0030
,
0002
0000
0000
0003
,
2000
0000
0000
3000
,
0020
0000
0000
0030
,
0200
0000
0000
0300
,
0002
0000
0000
0003
,
2000
0000
0000
3000
,
0200
0000
0000
0300
,
0100
0100
0100
0000
,
0010
0001
0010
0000
,
0001
0001
0001
0000
,
0010
0001
0010
0000
,
0100
0100
0100
0000
,
0100
1000
0100
0000
,
1000
0000
0001
0000
,
0100
0000
0100
0100
;

//---------------dance-single - ----------------
#NOTES:
     dance-single:
     :
     Medium:
     7:
     0.270475,0.424947,0.021037,0.224394,0.000000,235.000000,3.000000,32.000000,0.000000,0.000000,0.000000,0.270475,0.424947,0.021037,0.224394,0.000000,235.000000,3.000000,32.000000,0.000000,0.000000,0.000000:
0000
0000
0000
0000
,
0000
0000
0000
0000
,
0000
0000
0000
0000
,
0000
0000
0000
0000
,
2000
0000
0010
0000
,
3002
0000
0010
0000
,
2003
0000
0100
0000
,
3002
0000
0100
0000
,
0103
0100
0010
0010
,
1000
0000
1000
1000
1000
0000
0000
0000
,
1000
1000
0001
0001
,
0010
0000
0010
0010
0010
0000
0000
0000
,
0010
0100
1000
0001
,
1000
0000
0001
0001
0001
0000
0000
0000
,
1000
0001
0100
0010
,
0100
0000
0010
0010
0010
0000
0000
0000
,
2000
3010
0002
0013
,
1000
0100
0010
0001
,
2000
3100
0002
0103
,
0100
0010
1000
0001
,
2000
3100
0002
0103
,
2000
3010
0002
0013
,
0010
0100
1000
0001
,
1000
0001
1000
0000
0001
1000
0001
0000
,
1000
0010
0100
0001
,
0100
0100
0100
0100
,
0010
1000
0001
0010
,
0100
1000
0100
0001
,
0100
0000
0010
0000
0100
0010
0100
0000
,
0010
0000
0100
0000
0010
0100
0010
0000
,
0020
0032
0203
0320
,
2030
0002
0000
3003
,
0000
2000
3002
0203
,
0302
0200
0000
0303
,
0000
0200
0320
2030
,
3000
0000
0000
0000
,
1000
1000
1000
0000
0001
0000
0000
0000
,
0001
0001
0001
0000
1000
0000
0000
0000
,
1000
0100
0010
0001
,
1000
0100
1100
0000
,
1000
0001
0101
0000
,
0100
0010
1001
0000
,
0010
0100
1000
0001
,
0010
0100
1000
0001
,
1000
0001
1000
0000
0100
0000
0000
0000
,
0001
1000
0001
0000
0010
0000
0000
0000
,
0010
0100
1000
0000
0100
0000
0000
0000
,
0001
0100
0001
0000
0100
0000
0000
0000
,
0010
1000
0001
0010
,
0100
1000
0001
0100
,
0010
1000
0100
0001
,
0010
1000
0100
0001
,
0020
0000
0000
0030
,
0002
0000
0000
0003
,
0020
0000
0000
0030
,
0200
0000
0000
0300
,
1000
1000
0001
0001
,
1000
0001
1000
0001
,
0200
0000
0010
0010
,
0020
0000
0000
0330
,
0010
0000
0000
0000
,
0100
0000
0000
0000
,
0001
0000
0000
0000
,
1000
0000
0000
0000
,
0100
0000
0000
0000
,
0010
0000
0000
0000
,
0001
0000
0000
0000
,
0010
0000
0000
0000
,
0001
0000
0001
0000
0001
1000
0100
0000
,
1000
0010
0100
0001
,
1000
0000
1000
0000
1000
0001
0010
0000
,
0100
1000
0001
0100
,
0010
0000
0010
0000
0010
0000
0010
0100
,
0001
0001
1000
1000
,
1000
0100
0010
0001
,
1000
0000
0001
0000
0100
0100
0100
0000
;

//---------------dance-single - ----------------
#NOTES:
     dance-single:
     :
     Hard:
     11:
     0.383675,0.451506,0.105185,0.175308,0.210370,343.000000,15.000000,25.000000,0.000000,0.000000,0.000000,0.383675,0.451506,0.105185,0.175308,0.210370,343.000000,15.000000,25.000000,0.000000,0.000000,0.000000:
0000
0000
0000
0000
,
0000
0000
0000
0000
,
0000
0000
0000
0000
,
0000
0000
0000
0000
,
1000
0000
0000
0010
0000
0000
1000
0000
0000
0100
0000
0000
1000
0000
0000
0000
,
0001
0000
0000
0010
0000
0000
0001
0000
0000
0100
0000
0000
0001
0000
0000
0000
,
0100
0000
0000
0010
0000
0000
1000
0000
0000
0001
0000
0000
0010
0000
0000
0000
,
0100
0000
0000
1000
0000
0000
0001
0000
0000
0010
0000
0000
0001
0000
0000
0000
,
1000
0000
0001
0100
0100
0000
0020
0000
,
1030
0000
0000
0100
0100
0000
1001
0000
,
0010
0000
0100
1000
1000
0000
0002
0000
,
0103
0000
0000
0010
0010
0000
0000
0000
,
1000
0000
0001
0010
0010
0000
0200
0000
,
1300
0000
0000
0001
0001
0000
1001
0000
,
0100
0000
0010
1000
1000
0000
0002
0000
,
0013
0000
0000
0100
0100
0000
0000
0000
,
1000
0000
1000
0000
1000
0100
0010
0000
,
0001
0000
0001
0100
0010
1000
0001
0000
,
0100
0000
0100
0000
0100
0010
1000
0000
,
0001
0000
0001
0010
0100
1000
0100
0000
,
1000
0000
0100
0000
0010
0100
1000
0000
,
0001
0000
0010
0100
1000
0001
0100
0000
,
0010
0000
1000
0000
0001
0100
0010
0000
,
1000
0000
1000
0001
0010
0100
1000
0000
,
1000
0000
0000
1000
0001
0000
0000
0001
0010
0000
0000
0010
0100
0000
0000
0100
,
1000
0000
0000
1000
0001
0000
0000
0001
1000
0000
0000
1000
0001
0000
0000
0000
,
0100
0000
0000
0100
0010
0000
0000
0010
1000
0000
0000
1000
0010
0000
0000
0010
,
0100
0000
0000
0100
0001
0000
0000
0001
0100
0000
0000
0100
0001
0000
0000
0000
,
1000
0000
0000
1000
0001
0000
0000
0001
0010
0000
0000
0010
0100
0000
0000
0000
,
1000
0000
0000
1000
0001
0000
0000
0001
0100
0000
0000
0100
0010
0000
0000
0000
,
0000
0000
0000
0100
0010
0000
0000
0000
0010
0000
0000
0010
0100
0000
0000
0100
,
0001
0102
2003
3000
,
0000
0000
0000
0100
0010
0000
0000
0000
0010
0000
0000
0010
0100
0000
0000
0100
,
1000
2100
3002
0003
,
0000
0000
0000
1000
0001
0000
0000
0000
0100
0000
0000
0010
0100
0000
0002
0000
,
0000
0000
0003
0000
,
1000
0100
0010
0100
1000
0100
1000
0000
,
0001
0010
0100
0010
0001
0010
0001
0000
,
0010
0100
1000
0001
0100
0010
0100
0010
,
0000
0000
0100
0100
,
0100
0010
1000
0001
0010
0100
1000
0001
,
0000
0101
0000
0110
0000
1010
0000
0000
,
1000
0010
0100
0001
1000
0100
0010
0001
,
0000
0000
0000
0000
0000
0010
0100
1000
,
0010
0000
0000
1000
0000
0000
0000
0000
0000
0000
0010
0000
0010
0000
0010
0000
,
0000
0000
0000
0000
0000
0100
0001
0010
,
0100
0000
0000
0010
0000
0000
0000
0000
0000
0000
0100
0000
0100
0000
0100
0000
,
0000
0000
0000
0000
0000
0010
0100
1000
,
0001
0000
0000
0010
0000
0000
0000
0000
0000
0000
0001
0000
0001
0000
0001
0000
,
0000
0000
0000
0000
0000
0001
1000
0100
,
1000
0000
0000
0001
0000
0000
0100
0000
0010
0000
0000
1000
0000
0000
0001
0000
,
1000
0000
0000
0001
0000
1000
0001
0000
,
1002
0010
1000
0103
,
2001
0100
0001
3010
,
1020
0130
0102
0103
,
0012
0013
2100
3100
,
0100
0000
0000
0100
0000
0000
0100
0000
0010
0000
0000
0010
0000
0000
0010
0000
,
0001
0000
0000
0001
0000
0000
0001
0000
1000
0000
0000
1000
0000
0000
1000
0000
,
2000
0000
0000
0000
0000
0000
0000
0000
3001
0000
0000
0010
0000
0000
0001
0000
,
0002
0000
1003
0100
,
0220
0000
0000
0300
,
0002
0000
0000
0030
,
0200
0000
0000
0303
,
0010
0000
1000
0000
,
2002
0000
0000
0003
,
0200
0000
0000
3000
,
0020
0000
0000
0330
,
0000
0000
0000
0000
0000
0000
0000
0000
1000
0000
0000
1000
0001
0000
0000
0000
,
0100
0000
0000
0100
0000
0000
0010
0000
0000
0010
0000
0000
1000
0000
0001
0000
,
0010
0000
0000
0010
0000
0000
0100
0000
0000
0100
0000
0000
1000
0000
0001
0000
,
0010
0000
0000
0010
0000
0000
0001
0000
0000
0001
0000
0000
0010
0000
0100
0000
,
1000
0010
1000
0100
1000
0010
0100
0001
,
0100
0000
0000
0100
0000
0000
0010
0000
0000
0010
0000
0000
1000
0000
0001
0000
,
1000
0000
0000
1000
0000
0000
0001
0000
0000
0001
0000
0000
1000
0000
0100
0000
,
0010
0000
0000
0010
0000
0000
0100
0000
0000
0100
0000
0000
1000
0000
0001
0000
,
0010
0000
0001
0000
1000
0000
0100
0000
1000
0000
0000
1000
0001
0000
0000
0000
;
