#TITLE:GOT THE RHYTHM;
#SUBTITLE:;
#ARTIST:Fracus & Darwin feat. Becca Hossany;
#TITLETRANSLIT:;
#SUBTITLETRANSLIT:;
#ARTISTTRANSLIT:;
#GENRE:;
#CREDIT:;
#BANNER:GOT THE RHYTHM.png;
#BACKGROUND:GOT THE RHYTHM-bg.png;
#LYRICSPATH:;
#CDTITLE:cdtitle.png;
#MUSIC:GOT THE RHYTHM.ogg;
#OFFSET:0.011000;
#SAMPLESTART:76.789001;
#SAMPLELENGTH:12.000000;
#SELECTABLE:YES;
#BPMS:0.000000=175.000000
;
#STOPS:
;
#BGCHANGES:;
#KEYSOUNDS:;
#ATTACKS:;

//---------------dance-single - chewi----------------
#NOTES:
     dance-single:
     chewi:
     Beginner:
     4:
     0.186736,0.316058,0.068284,0.097549,0.000000,134.000000,127.000000,7.000000,10.000000,0.000000,0.000000,0.186736,0.316058,0.068284,0.097549,0.000000,134.000000,127.000000,7.000000,10.000000,0.000000,0.000000:
0000
0000
0000
0000
,
0000
0000
0000
0000
,
0000
0000
0000
0000
,
0000
0000
0000
0000
,
2000
0000
0000
0000
,
0000
0000
0000
3000
,
0002
0000
0000
0000
,
0000
0000
0000
0003
,
0200
0000
0000
0300
,
0100
0000
0000
0000
,
0020
0000
0000
0030
,
0010
0000
0000
0000
,
2000
0000
0000
3000
,
1000
0000
0000
0000
,
0002
0000
0000
0003
,
0001
0000
0000
0000
,
1001
0000
0000
0000
,
1000
1000
1000
0000
,
1001
0000
0000
0000
,
0001
0001
0001
0000
,
0110
0000
0000
0000
,
0010
0010
0010
0000
,
0110
0000
0000
0000
,
0100
0100
0100
0000
,
0100
0000
0100
0000
,
0010
0000
0010
0000
,
0100
0000
0001
0000
,
0100
0000
0001
0000
,
1000
0000
1000
0000
,
0001
0000
0001
0000
,
1000
0000
0010
0000
,
1000
0000
0010
0000
,
0110
0000
0010
0000
,
1000
0000
0010
0000
,
1000
0000
0001
0000
,
0010
0000
0100
0000
,
0110
0000
0010
0000
,
0001
0000
0010
0000
,
0001
0001
0001
0001
,
1000
1000
1000
1000
,
0002
0000
0000
0003
,
0001
0000
0000
0000
,
0020
0000
0000
0030
,
0010
0000
0000
0000
,
2000
0000
0000
3000
,
1000
0000
0000
0000
,
0002
0000
0000
0003
,
0001
0000
0000
0000
,
0001
0000
0001
0000
,
0010
0000
0010
0000
,
1000
0000
1000
0000
,
0100
0000
0100
0000
,
0001
0000
0001
0000
,
0010
0000
0010
0000
,
1000
0000
1000
0000
,
0010
0000
0010
0000
,
0010
0010
0010
0010
,
0010
0000
1000
0000
,
0001
0000
1000
0000
,
0100
0000
1000
0000
,
0001
0001
0001
0001
,
0001
0000
1000
0000
,
0001
0000
0100
0000
,
0010
0000
0100
0000
,
0010
0010
0010
0010
,
0010
0000
1000
0000
,
0010
0000
0100
0000
,
0001
0000
1000
0000
,
0001
0001
0001
0001
,
0001
0000
0010
0000
,
0100
0000
0010
0000
,
0001
0000
1000
0000
,
1001
0000
0000
0000
;

//---------------dance-single - chewi----------------
#NOTES:
     dance-single:
     chewi:
     Easy:
     6:
     0.320517,0.351175,0.029265,0.078039,0.000000,230.000000,227.000000,3.000000,8.000000,0.000000,0.000000,0.320517,0.351175,0.029265,0.078039,0.000000,230.000000,227.000000,3.000000,8.000000,0.000000,0.000000:
0000
0000
0000
0000
,
0000
0000
0000
0000
,
0000
0000
0000
0000
,
0000
0000
0000
0000
,
1000
0000
0000
1000
0000
0000
0000
0000
,
0010
0000
0000
0010
0000
0000
0000
0000
,
0100
0000
0000
0100
0000
0000
0000
0000
,
0001
0000
0000
0001
0000
0000
0000
0000
,
1000
0001
1000
0001
,
1000
1000
0001
0001
,
1000
0001
1000
0001
,
1000
1000
0001
0001
,
0100
0100
0010
0010
,
1000
1000
0001
0001
,
0010
0010
0100
0100
,
2002
0000
0000
3003
,
0001
0100
1000
0100
,
0010
0001
0100
0000
,
0010
0010
1000
1000
,
0001
0010
0100
0000
,
1000
0001
0100
0010
,
1000
0100
0010
0000
,
0001
0001
0100
0100
,
0010
0010
1000
1000
,
1000
0010
0001
0010
,
0100
1000
0010
0000
,
0100
0100
0001
0001
,
1000
0100
0010
0000
,
0001
1000
0010
0100
,
0001
0010
0100
0000
,
1000
1000
0010
0010
,
0100
0100
0001
0001
,
0100
0010
0100
0001
,
0200
0300
0020
0030
,
1000
0100
0010
0001
,
0001
0010
0100
1000
,
0100
1000
0010
1000
,
0020
0030
0200
0300
,
0001
0100
0010
1000
,
1000
0010
0100
0001
,
0001
0000
0000
0001
0000
0000
0000
0000
,
0100
0000
0000
0100
0000
0000
0000
0000
,
0010
0000
0000
0010
0000
0000
0000
0000
,
1000
0000
0000
1000
0000
0000
0000
0000
,
0001
0000
0000
0001
0000
0000
0000
0000
,
1000
0000
0000
1000
0000
0000
0000
0000
,
0100
0000
0000
0100
0000
0000
0000
0000
,
0010
0000
0000
0010
0000
0000
0000
0000
,
0010
0100
0010
0100
,
0010
0010
0100
0100
,
0010
0100
0010
0100
,
0100
0100
0010
0010
,
0100
1000
0001
0010
,
0100
1000
0001
0010
,
0100
1000
0010
0100
,
2002
0000
0000
3003
,
0010
0001
0100
0001
,
1000
0010
1000
0000
,
1000
1000
0100
0100
,
0010
0001
1000
0000
,
0100
0010
0100
1000
,
0010
0100
0001
0000
,
0010
0010
0001
0001
,
1000
1000
0100
0100
,
0100
1000
0010
1000
,
0001
0100
0001
0000
,
0001
0001
0010
0010
,
0100
1000
0001
0000
,
0010
0100
1000
0001
,
0010
1000
0010
0000
,
0100
0100
0001
0001
,
0010
0010
0100
0100
,
0110
0000
0000
0000
;

//---------------dance-single - chewi----------------
#NOTES:
     dance-single:
     chewi:
     Medium:
     10:
     0.462659,0.526762,0.029265,0.195097,0.000000,332.000000,329.000000,3.000000,20.000000,0.000000,0.000000,0.462659,0.526762,0.029265,0.195097,0.000000,332.000000,329.000000,3.000000,20.000000,0.000000,0.000000:
0000
0000
0000
0000
,
0000
0000
0000
0000
,
0000
0000
0000
0000
,
0000
0000
0000
0000
,
0010
0000
0000
0010
0000
0000
0000
0000
,
0100
0000
0000
0100
0000
0000
0000
0000
,
0001
0000
0000
0001
0000
0000
0000
0000
,
1000
0000
0000
1000
0000
0000
0000
0000
,
0100
0100
0010
0010
,
0001
1000
0100
0000
1000
0000
0000
0000
,
0010
0010
0100
0100
,
0001
1000
0010
0000
0100
0000
0000
0000
,
0002
0023
0230
2300
,
3002
0203
0320
2030
,
3001
0001
1000
0000
1000
1000
0001
0000
,
2002
0000
0000
3003
,
0001
0100
0001
0000
1000
0010
0100
0000
,
0001
0100
1000
0000
0100
0001
1000
0000
,
0010
1000
0100
0000
0010
0001
0100
0000
,
0001
1000
0010
0000
0100
0001
1000
0000
,
0010
0100
0001
0000
0010
0100
1000
0000
,
0001
0100
1000
0000
0100
0001
0010
0000
,
0001
1000
0100
0000
1000
0001
0100
0000
,
0010
0000
0100
0000
0001
1000
0001
0000
,
1000
0010
1000
0000
0001
0100
0010
0000
,
1000
0010
0001
0000
0010
1000
0001
0000
,
0100
0001
0010
0000
0100
1000
0010
0000
,
1000
0001
0100
0000
0010
1000
0001
0000
,
0100
0010
1000
0000
0100
0010
0001
0000
,
1000
0010
0001
0000
0010
1000
0100
0000
,
1000
0001
0010
0000
0001
1000
0010
0000
,
0100
0000
0010
0000
1000
0000
1000
1000
,
1000
0100
1000
0000
0100
0001
0010
0000
,
0010
1000
0010
0000
0100
0001
0100
0000
,
0001
0010
0001
0000
0010
1000
0100
0000
,
0100
0001
0100
0000
0010
1000
0010
0000
,
1000
0010
1000
0000
0010
0001
0100
0000
,
0010
0001
0010
0000
0100
1000
0100
0000
,
0001
0100
0001
0000
0100
1000
0010
0000
,
0001
0010
0001
0000
1000
0010
1000
0000
,
0010
0000
0000
0010
0000
0000
0000
0000
,
0100
0000
0000
0100
0000
0000
0000
0000
,
0001
0000
0000
0001
0000
0000
0000
0000
,
1000
0000
0000
1000
0000
0000
0000
0000
,
0100
0000
0000
0100
0000
0000
0000
0000
,
0010
0000
0000
0010
0000
0000
0000
0000
,
0001
0000
0000
0001
0000
0000
0000
0000
,
1000
0000
0000
1000
0000
0000
0000
0000
,
0100
0100
0010
0010
,
0001
1000
0010
0000
1000
0001
0010
0000
,
0010
0010
0100
0100
,
1000
0001
0010
0000
0001
1000
0010
0000
,
0200
0320
0230
0302
,
2003
3200
0320
0032
,
1003
1000
0001
0000
0001
0001
1000
0000
,
2002
0000
0000
3003
,
1000
0010
1000
0000
0001
0100
0010
0000
,
1000
0010
0001
0000
0010
1000
0001
0000
,
0100
0001
0010
0000
0100
1000
0010
0000
,
1000
0001
0100
0000
0010
1000
0001
0000
,
0100
0010
1000
0000
0100
0010
0001
0000
,
1000
0010
0001
0000
0010
1000
0100
0000
,
1000
0001
0010
0000
0001
1000
0010
0000
,
0100
0000
0010
0000
1000
0001
1000
0000
,
0001
0100
0001
0000
1000
0010
0100
0000
,
0001
0100
1000
0000
0100
0001
1000
0000
,
0010
1000
0100
0000
0010
0001
0100
0000
,
0001
1000
0010
0000
0100
0001
1000
0000
,
0010
0100
0001
0000
0010
0100
1000
0000
,
0001
0100
1000
0000
0100
0001
0010
0000
,
0001
1000
0100
0000
1000
0001
0100
0000
,
0010
0100
0010
0100
0010
0100
0010
0000
,
0110
0000
0000
0000
;

//---------------dance-single - chewi----------------
#NOTES:
     dance-single:
     chewi:
     Hard:
     14:
     0.721860,0.807702,0.497498,0.039019,0.214607,518.000000,467.000000,51.000000,4.000000,0.000000,0.000000,0.721860,0.807702,0.497498,0.039019,0.214607,518.000000,467.000000,51.000000,4.000000,0.000000,0.000000:
// measure 0
0000
0000
0000
0000
,  // measure 1
0000
0000
0000
0000
,  // measure 2
0000
0000
0000
0000
,  // measure 3
0000
0000
0000
0000
,  // measure 4
1100
0000
0000
1100
0000
0000
0000
0000
,  // measure 5
0011
0000
0000
0011
0000
0000
0000
0000
,  // measure 6
1010
0000
0000
1010
0000
0000
0000
0000
,  // measure 7
0101
0000
0000
0101
0000
0000
0000
0000
,  // measure 8
1000
0010
0100
0010
0000
1000
1100
0000
,  // measure 9
0001
0010
0100
0010
0000
0001
0011
0000
,  // measure 10
1000
0100
0010
0100
0000
1000
1010
0000
,  // measure 11
0001
0100
0010
0100
0000
0001
0101
0000
,  // measure 12
0001
0100
0001
0100
0010
1000
0010
1000
,  // measure 13
0001
0010
0001
0010
0100
1000
0100
1000
,  // measure 14
0001
1000
0001
1000
0010
0100
0010
0100
,  // measure 15
0220
0000
0000
0330
,  // measure 16
0100
0000
0001
0000
0100
0001
0100
0000
0010
0000
1000
0000
0001
0000
0010
0000
,  // measure 17
0010
0001
1000
0010
0100
0001
1000
0000
,  // measure 18
0001
0010
1000
0001
0100
1000
0010
0100
,  // measure 19
0010
1000
0001
1000
0100
1000
1001
0000
,  // measure 20
1000
0000
0100
0000
1000
0100
1000
0000
0001
0000
0010
0000
0100
0000
0001
0000
,  // measure 21
0001
0100
0010
0001
1000
0100
0010
0000
,  // measure 22
0100
1000
0010
0100
0001
0010
0001
1000
,  // measure 23
0001
0010
0100
0010
1000
0010
0110
0000
,  // measure 24
0010
0000
0001
0000
0010
0001
0010
0000
0001
0000
0100
0000
0010
0000
1000
0000
,  // measure 25
0100
1000
0001
0100
0010
1000
0001
0000
,  // measure 26
1000
0100
0001
1000
0010
0001
0100
0010
,  // measure 27
0100
0001
1000
0001
0010
0001
1001
0000
,  // measure 28
0001
0000
0010
0000
0001
0010
0001
0000
1000
0000
0100
0000
0010
0000
1000
0000
,  // measure 29
1000
0010
0100
1000
0001
0010
0100
0000
,  // measure 30
0010
0001
0100
0010
1000
0100
1000
0001
,  // measure 31
1000
0100
0010
0100
0001
0100
0110
0000
,  // measure 32
0100
1000
0010
1000
0100
0000
0000
0000
1000
0100
0010
0000
0001
0000
0000
0000
,  // measure 33
1000
0100
1100
1000
0001
0100
0101
0001
,  // measure 34
0100
0001
0010
0001
0100
0000
0000
0000
0001
0100
0010
0000
1000
0000
0000
0000
,  // measure 35
0001
0100
0101
0001
1000
0100
1100
1000
,  // measure 36
1000
0010
0001
0010
1000
0000
0000
0000
0001
0010
0100
0000
1000
0000
0000
0000
,  // measure 37
1000
0010
1010
1000
0001
0100
0101
0001
,  // measure 38
0001
0100
1000
0100
0001
0000
0000
0000
1000
0100
0010
0000
0001
0000
0000
0000
,  // measure 39
0001
0100
0101
0001
1000
0010
1010
1000
,  // measure 40
1100
0000
0000
1100
0000
0000
0000
0000
,  // measure 41
0011
0000
0000
0011
0000
0000
0000
0000
,  // measure 42
1010
0000
0000
1010
0000
0000
0000
0000
,  // measure 43
0101
0000
0000
0101
0000
0000
0000
0000
,  // measure 44
0110
0000
0000
0110
0000
0000
0000
0000
,  // measure 45
1010
0000
0000
1010
0000
0000
0000
0000
,  // measure 46
1001
0000
0000
1001
0000
0000
0000
0000
,  // measure 47
0011
0000
0000
0011
0000
0000
0000
0000
,  // measure 48
0001
0100
0010
0100
0000
0001
0011
0000
,  // measure 49
1000
0100
0010
0100
0000
1000
1100
0000
,  // measure 50
0001
0010
0100
0010
0000
0001
0101
0000
,  // measure 51
1000
0010
0100
0010
0000
1000
1010
0000
,  // measure 52
1000
0010
1000
0010
0100
0001
0100
0001
,  // measure 53
1000
0100
1000
0100
0010
0001
0010
0001
,  // measure 54
1000
0001
1000
0001
0100
0010
0100
0010
,  // measure 55
0220
0000
0000
0330
,  // measure 56
1000
0010
1000
0000
0010
1000
0010
0000
0100
0000
0001
0000
1000
0000
0100
0000
,  // measure 57
0100
1000
0100
0000
1000
0010
1000
0000
0100
0001
0100
0000
0001
1000
0001
0000
,  // measure 58
1000
0100
0001
1000
0010
0001
0100
0010
,  // measure 59
0100
0000
0001
0000
1000
0000
0001
0000
0010
0001
0010
0000
0011
0000
0000
0000
,  // measure 60
0010
0001
0010
0000
0001
0010
0001
0000
1000
0000
0100
0000
0010
0000
1000
0000
,  // measure 61
1000
0010
0100
0000
1000
0001
0100
0000
0001
0100
0010
0000
1000
0100
0001
0000
,  // measure 62
0010
0001
0100
0010
1000
0100
1000
0001
,  // measure 63
1000
0000
0100
0000
0010
0000
0100
0000
1000
0010
0100
0000
1010
0000
0000
0000
,  // measure 64
0001
0100
0001
0000
0100
0001
0100
0000
0010
0000
1000
0000
0001
0000
0010
0000
,  // measure 65
0010
0001
0010
0000
0001
0100
0001
0000
0010
1000
0010
0000
1000
0001
1000
0000
,  // measure 66
0001
0010
1000
0001
0100
1000
0010
0100
,  // measure 67
0010
0000
1000
0000
0001
0000
1000
0000
0100
1000
0100
0000
1100
0000
0000
0000
,  // measure 68
0100
1000
0100
0000
1000
0100
1000
0000
0001
0000
0010
0000
0100
0000
0001
0000
,  // measure 69
0001
0100
0010
0000
0001
1000
0010
0000
1000
0010
0100
0000
0001
0010
0100
0000
,  // measure 70
0100
1000
0010
0100
0001
0010
0001
1000
,  // measure 71
0001
0000
0010
0000
0100
0000
0010
0000
0001
0100
0010
0000
0101
0000
0000
0000
,  // measure 72
1001
0000
0000
0000
;
