#TITLE:GOLDEN TOUCH;
#SUBTITLE:;
#ARTIST:安室奈美恵;
#TITLETRANSLIT:;
#SUBTITLETRANSLIT:;
#ARTISTTRANSLIT:Namie Amuro;
#GENRE:;
#CREDIT:Tiffany West;
#BANNER:GOLDEN TOUCH.png;
#BACKGROUND:GOLDEN TOUCH-bg.png;
#LYRICSPATH:;
#CDTITLE:cdtitle.png;
#MUSIC:GOLDEN TOUCH.ogg;
#OFFSET:0.000000;
#SAMPLESTART:47.400002;
#SAMPLELENGTH:12.000000;
#SELECTABLE:YES;
#BPMS:0.000000=100.000000
;
#STOPS:
;
#BGCHANGES:;
#KEYSOUNDS:;
#ATTACKS:;

//---------------dance-single - Tiffany West----------------
#NOTES:
     dance-single:
     Tiffany West:
     Beginner:
     1:
     0.073266,0.130886,0.064107,0.064107,0.000000,48.000000,42.000000,6.000000,6.000000,0.000000,0.000000,0.073266,0.130886,0.064107,0.064107,0.000000,48.000000,42.000000,6.000000,6.000000,0.000000,0.000000:
0000
0000
0000
0000
,
0000
0000
0000
0000
,
0000
0000
0000
0000
,
0000
0000
0000
0000
,
1001
0000
0000
0000
,
0110
0000
0000
0000
,
1001
0000
0000
0000
,
0110
0000
0000
0000
,
1000
0000
0000
0000
,
0100
0000
0000
0000
,
0001
0000
0000
0000
,
0010
0000
0000
0000
,
1000
0000
0000
0000
,
0010
0000
0000
0000
,
0001
0000
0000
0000
,
0100
0000
0000
0000
,
2000
0000
0000
3000
,
1000
0000
0000
0000
,
0002
0000
0000
0003
,
0001
0000
0000
0000
,
0110
0000
0100
0000
,
0100
0100
0100
0000
,
0010
0000
0010
0000
,
0001
0000
0001
0000
,
1001
0000
0001
0000
,
1000
1000
1000
0000
,
1000
0000
1000
0000
,
0010
0000
0010
0000
,
0020
0000
0000
0030
,
0010
0000
0000
0000
,
0200
0000
0000
0300
,
0100
0000
0000
0000
,
0002
0000
0000
0003
,
0001
0000
0000
0000
,
2000
0000
0000
3000
,
1000
0000
0000
0000
;

//---------------dance-single - Tiffany West----------------
#NOTES:
     dance-single:
     Tiffany West:
     Easy:
     5:
     0.102266,0.153858,0.021369,0.128215,0.000000,67.000000,65.000000,2.000000,12.000000,0.000000,0.000000,0.102266,0.153858,0.021369,0.128215,0.000000,67.000000,65.000000,2.000000,12.000000,0.000000,0.000000:
0000
0000
0000
0000
,
0000
0000
0000
0000
,
0000
0000
0000
0000
,
0000
0000
0000
0000
,
1000
0100
0001
0000
,
0001
0100
1000
0000
,
1000
0010
0001
0000
,
0001
0010
1000
0000
,
1001
0000
1000
0000
,
0001
1000
0001
0000
,
0110
0000
0100
0000
,
0010
0100
0010
0000
,
0010
0000
1000
0000
,
0100
0000
0100
0100
,
0010
0000
0001
0000
,
0100
0000
0100
0100
,
0200
0000
0000
0300
,
0020
0000
0000
0030
,
2000
0000
0000
3000
,
0002
0000
0000
0003
,
1000
0000
0001
0000
,
1000
0001
1000
0000
,
0001
0000
1000
0000
,
0001
1000
0001
0000
,
0100
0000
0010
0000
,
0100
0010
0100
0000
,
0010
0000
0100
0000
,
0010
0100
0010
0000
,
2000
0000
0000
3000
,
0200
0000
0000
0300
,
0020
0000
0000
0030
,
0002
0000
0000
0003
,
0002
0000
0000
0003
,
0200
0000
0000
0300
,
0020
0000
0000
0030
,
2000
0000
0000
3000
,
0001
0000
0000
0000
;

//---------------dance-single - Tiffany West----------------
#NOTES:
     dance-single:
     Tiffany West:
     Medium:
     8:
     0.282378,0.315195,0.021369,0.106846,0.069450,185.000000,183.000000,2.000000,10.000000,0.000000,0.000000,0.282378,0.315195,0.021369,0.106846,0.069450,185.000000,183.000000,2.000000,10.000000,0.000000,0.000000:
0000
0000
0000
0000
,
0000
0000
0000
0000
,
0000
0000
0000
0000
,
0000
0000
0000
0000
,
0000
0000
0000
0000
1000
0000
0001
0000
0010
0000
0000
0010
0000
0000
0010
0000
,
0100
0000
0000
0000
1000
0000
0001
0000
0100
0000
0000
0100
0000
0000
0100
0000
,
0010
0000
0000
0000
0100
0000
0001
0000
0010
0000
0000
0010
0000
0000
0010
0000
,
0100
1000
0010
0100
0010
0100
0010
0100
,
0001
0000
0010
0000
1000
0001
0100
0000
,
1000
1000
1000
0000
0001
0001
0001
0000
,
1000
0000
0100
0000
0001
1000
0010
0000
,
0001
0001
0001
0000
1000
1000
1000
0000
,
0100
0000
1000
0000
0010
0100
0001
0000
,
0010
0010
0010
0000
0100
0100
0100
0000
,
0010
0000
0001
0000
0100
0010
1000
0000
,
0100
0100
0100
0000
0010
0010
0010
0000
,
0200
1300
2000
3010
,
0100
0000
0000
0100
0000
0000
0100
0000
0000
0000
0001
0000
1000
0000
0001
0000
,
0020
0031
0002
0103
,
0010
0000
0000
0010
0000
0000
0010
0000
0000
0000
0000
0000
1000
0000
0001
0000
,
1000
0000
0001
1000
0001
0000
1000
1000
,
0100
0000
0000
0100
0000
0000
0100
0000
0100
0000
0000
0000
0000
0000
0000
0000
,
0020
0000
0031
0000
0010
0001
0100
0000
,
0002
0000
0103
0000
0010
1000
0010
1000
,
0010
0000
1000
0010
1000
0000
0001
0001
,
0010
0000
0000
0010
0000
0000
0010
0000
0010
0000
0000
0000
0000
0000
0000
0000
,
0200
0000
1300
0000
0100
1000
0010
0000
,
2000
0000
3010
0000
0100
0001
0100
0001
,
0101
0000
0000
0000
1000
0000
0001
0000
0010
0000
0000
0010
0000
0000
0010
0000
,
0100
0000
0000
0000
1000
0000
0001
0000
0100
0000
0000
0100
0000
0000
0100
0000
,
0010
0000
0000
0000
0100
0000
0001
0000
0010
0000
0000
0010
0000
0000
0010
0000
,
0100
1000
0010
0100
0010
0100
0010
0100
,
1001
0000
0000
0000
0001
0000
1000
0000
0100
0000
0000
0100
0000
0000
0100
0000
,
0010
0000
0000
0000
0001
0000
1000
0000
0010
0000
0000
0010
0000
0000
0010
0000
,
0100
0000
0000
0000
0010
0000
1000
0000
0100
0000
0000
0100
0000
0000
0100
0000
,
0010
0001
0100
0010
0100
0010
0100
0020
,
2000
0000
0000
0000
0000
0000
0000
3030
;

//---------------dance-single - Tiffany West----------------
#NOTES:
     dance-single:
     Tiffany West:
     Hard:
     10:
     0.427382,0.433392,0.277799,0.117530,0.400671,280.000000,254.000000,26.000000,11.000000,0.000000,0.000000,0.427382,0.433392,0.277799,0.117530,0.400671,280.000000,254.000000,26.000000,11.000000,0.000000,0.000000:
// measure 0
0000
0000
0000
0000
,  // measure 1
0000
0000
0000
0000
,  // measure 2
0000
0000
0000
0000
,  // measure 3
0000
0000
0000
0000
,  // measure 4
1001
0000
0000
0000
0100
0010
0000
0010
0002
0000
0000
0100
0000
0000
0013
0000
,  // measure 5
0100
0000
0010
0000
0100
1000
0000
1000
0020
0000
0000
0100
0000
0000
1030
0000
,  // measure 6
0100
0000
0010
0000
0001
1000
0000
1000
0002
0000
0000
0010
0000
0000
0103
0000
,  // measure 7
0100
0000
0010
0000
0100
0010
0000
1000
0010
1000
0000
0010
1000
0010
0000
1000
,  // measure 8
0100
0000
0010
0000
0100
0000
1000
0000
0001
0000
1001
0000
0000
1001
0000
0000
,  // measure 9
1000
0000
0010
0000
0100
0000
0001
0000
0100
0000
0101
0000
0000
0101
0000
0000
,  // measure 10
0011
0000
0001
0000
0010
0000
0100
0000
1000
0000
1100
0000
0000
1100
0000
0000
,  // measure 11
1000
0001
0100
0100
0010
1000
0001
0001
,  // measure 12
0010
0000
0100
0000
0010
0000
0001
0000
1000
0000
1001
0000
0000
1001
0000
0000
,  // measure 13
0001
0000
0100
0000
0010
0000
1000
0000
0010
0000
1010
0000
0000
1010
0000
0000
,  // measure 14
1100
0000
1000
0000
0100
0000
0010
0000
0001
0000
0011
0000
0000
0011
0000
0000
,  // measure 15
0001
1000
0010
0010
0100
0001
1000
1000
,  // measure 16
0001
0010
0001
0100
0001
1000
0001
0010
,  // measure 17
0001
0000
0000
1000
0000
0000
1001
0000
0000
0000
0100
0000
0100
0000
0100
0000
,  // measure 18
1000
0100
1000
0010
1000
0001
1000
0100
,  // measure 19
1000
0000
0000
0001
0000
0000
1001
0000
0000
0000
0000
0000
0010
0000
0100
0000
,  // measure 20
0110
0000
0100
0010
0110
0000
0100
0001
,  // measure 21
1000
0000
0100
0010
0000
0100
1000
0000
1001
0000
0000
0000
1000
0000
0001
0000
,  // measure 22
0100
0010
0100
0010
0000
0100
0000
0001
0000
1000
0100
0000
0010
0000
0001
0010
,  // measure 23
0000
0100
1000
0000
0001
0000
1000
0001
0000
0001
1000
0000
0100
0000
0010
0000
,  // measure 24
0110
0000
0010
0100
0110
0000
0010
0001
,  // measure 25
1000
0000
0010
0100
0000
0010
1000
0000
1001
0000
0000
0000
0001
0000
1000
0000
,  // measure 26
0010
0100
0010
0100
0000
0010
0000
1000
0000
0001
0010
0000
0100
0000
1000
0100
,  // measure 27
0000
0010
0001
0000
1000
0000
0001
1000
0000
1000
0001
0000
0101
0000
0000
0000
,  // measure 28
0110
0000
0000
0000
1000
0001
0000
0001
0200
0000
0000
1000
0000
0000
0310
0000
,  // measure 29
1000
0000
0001
0000
1000
0100
0000
0100
0020
0000
0000
1000
0000
0000
0130
0000
,  // measure 30
1000
0000
0001
0000
0010
0100
0000
0100
0020
0000
0000
0001
0000
0000
0130
0000
,  // measure 31
1000
0000
0001
0000
1000
0001
0000
0100
0001
0100
0000
0001
0100
0001
0000
0100
,  // measure 32
0110
0000
0000
0000
0001
1000
0000
1000
0020
0000
0000
0001
0000
0000
0130
0000
,  // measure 33
0001
0000
1000
0000
0001
0010
0000
0010
0200
0000
0000
0001
0000
0000
0310
0000
,  // measure 34
0001
0000
1000
0000
0100
0010
0000
0010
0200
0000
0000
1000
0000
0000
0310
0000
,  // measure 35
0001
0000
1000
0000
0001
1000
0000
0010
1000
0010
0000
1000
0010
2000
0000
0020
,  // measure 36
0000
0000
0000
0000
0000
0000
0000
3030
;
