#TITLE:GOLD RUSH (pop'n GOLD MOUNTAIN rush);
#SUBTITLE:;
#ARTIST:DJ YOSHITAKA-G feat.Michael a la mode;
#TITLETRANSLIT:;
#SUBTITLETRANSLIT:;
#ARTISTTRANSLIT:;
#GENRE:;
#CREDIT:Chewi☆ & KONAMI;
#MENUCOLOR:;
#METERTYPE:DDR X;
#BANNER:GOLD RUSH (pop'n GOLD MOUNTAIN rush).png;
#BACKGROUND:GOLD RUSH (pop'n GOLD MOUNTAIN rush)-bg.png;
#LYRICSPATH:;
#CDTITLE:./CDTITLES/pop'n music.png;
#MUSIC:GOLD RUSH (pop'n GOLD MOUNTAIN rush).mp3;
#OFFSET:-0.593;
#SAMPLESTART:68.660;
#SAMPLELENGTH:15.000;
#SELECTABLE:YES;
#LISTSORT:;
#BPMS:0.000=162.000;
#STOPS:;
#BGCHANGES:;
#ATTACKS:;

//---------------dance-single - KONAMI step data----------------
#NOTES:
     dance-single:
     KONAMI step data:
     Beginner:
     2:
     0.115,0.184,0.030,0.000,0.000:
0000
0000
0000
0000
,
0000
0000
0000
0000
,
0000
0000
0000
0000
,
0000
0000
0000
0000
,
0001
0000
0000
0000
,
1000
0000
0000
0000
,
0001
0000
0001
0000
,
1000
0000
1000
0000
,
1001
0000
0000
0000
,
0010
0000
0000
0000
,
0000
0000
0000
0000
,
0001
0000
0001
0000
,
0001
0000
0000
0000
,
1000
0000
1000
0000
,
1000
0000
0000
0000
,
0001
0000
0001
0000
,
0001
0000
0000
0000
,
1000
0000
1000
0000
,
1000
0000
0000
0000
,
0100
0000
0100
0000
,
0100
0000
0000
0000
,
0010
0000
0010
0000
,
0010
0000
0000
0000
,
0100
0000
0100
0000
,
0100
0000
0000
0000
,
0010
0000
0010
0000
,
0010
0000
0000
0000
,
0001
0000
0000
0000
,
1000
0000
0000
0000
,
0001
0000
0000
0000
,
1000
0000
0000
0000
,
0010
0000
0000
0000
,
0010
0000
0000
0000
,
0100
0000
0000
0000
,
0100
0000
0000
0000
,
0001
0000
0000
0000
,
0001
0000
0000
0000
,
1000
0000
0000
0000
,
1000
0000
0000
0000
,
0010
0000
0000
0000
,
0100
0000
0000
0000
,
0001
0000
0001
0000
,
1000
0000
1000
0000
,
1001
0000
0000
0000
,
0000
0000
0000
0000
,
0000
0000
0000
0000
,
0010
0000
0010
0000
,
0010
0000
0000
0000
,
0100
0000
0100
0000
,
0100
0000
0000
0000
,
0001
0000
0001
0000
,
0001
0000
0000
0000
,
1000
0000
1000
0000
,
1000
0000
0000
0000
,
0001
0000
0001
0000
,
1000
0000
1000
0000
,
0001
0000
0001
0000
,
0100
0000
0000
0000
,
1000
0000
1000
0000
,
0001
0000
0001
0000
,
1000
0000
1000
0000
,
0100
0000
0000
0000
,
1001
0000
0000
0000
;

//---------------dance-single - KONAMI step data----------------
#NOTES:
     dance-single:
     KONAMI step data:
     Easy:
     5:
     0.270,0.444,0.208,0.327,0.000:
0000
0000
0000
0000
,
0000
0000
0000
0000
,
0000
0000
0000
0000
,
0000
0000
0000
0000
,
0001
0000
0000
0000
,
1000
0000
0000
0000
,
0001
0000
1000
0000
,
0001
1000
0001
1000
,
1001
0000
0000
0000
,
0020
0000
0000
0000
,
0000
0000
0000
0030
,
1000
1000
0100
0000
,
0001
0001
0100
0000
,
1000
1000
0100
0000
,
0001
0001
0010
0100
,
1000
1000
0100
0000
,
0001
0001
0100
0000
,
1000
1000
0100
0000
,
1001
0000
1001
0000
,
0010
0010
0100
0000
,
0010
1000
0001
0000
,
0010
0010
0100
0000
,
0010
0001
1000
0000
,
0001
0001
1000
1000
,
0010
0100
0010
0000
,
1000
1000
0001
0001
,
0100
0010
0100
0000
,
0100
0000
0000
0000
,
1000
0000
0000
0000
,
0001
0000
0000
0000
,
0100
0000
0000
0000
,
2002
3003
0000
0000
,
0220
0330
0000
0000
,
2002
3003
0000
0000
,
0220
0330
0000
0000
,
2002
3003
0000
0000
,
0220
0330
0000
0000
,
2002
3003
0000
0000
,
0220
0330
0000
0000
,
2002
3003
0000
0000
,
0220
0330
0000
0000
,
2002
3003
0220
0330
,
2002
3003
0220
0330
,
2002
0000
0000
0000
,
0000
0000
0000
0000
,
0000
0000
0000
3003
,
0001
0001
0010
0000
,
1000
1000
0010
0100
,
0001
0010
0010
0000
,
1000
0100
0100
0010
,
0001
0001
1000
0000
,
1000
1000
0001
0100
,
0001
0001
0100
0000
,
0110
0000
1001
0000
,
0100
0100
0010
0010
,
0100
0001
1000
0001
,
0100
0100
0010
0010
,
0100
0001
1000
0000
,
1000
1000
0001
0001
,
0100
0010
0100
0010
,
1000
1000
0001
0001
,
0010
0100
1000
0001
,
2002
0000
0000
0000
,
0000
0000
0000
0000
,
3003
0000
0000
0000
;

//---------------dance-single - KONAMI step data----------------
#NOTES:
     dance-single:
     KONAMI step data:
     Medium:
     8:
     0.453,0.634,0.486,0.456,0.000:
0000
0000
0000
0000
,
0000
0000
0000
0000
,
0000
0000
0000
0000
,
0000
0000
0000
0000
,
1001
0000
0000
1100
0000
0000
0000
0000
,
1001
0000
0000
0011
0000
0000
0000
0000
,
1000
0100
0001
0100
,
1001
1100
1001
0101
,
0110
0000
0000
0000
,
2002
0000
0000
0000
,
0000
0000
0000
3003
,
0110
0000
1000
0000
0001
0010
0001
0000
,
0200
0010
0010
0310
,
0001
1000
0001
0000
1000
0000
1000
0000
,
0002
0100
0100
0103
,
1010
0000
0100
0000
0010
0001
0010
0000
,
2000
0100
0100
3100
,
1000
0001
1000
0000
0001
0000
0100
0000
,
0100
1000
0010
0001
,
0100
0000
0011
0000
1000
0001
0100
0000
,
0002
0100
1000
0103
,
0010
0000
1100
0000
0001
1000
0010
0000
,
1000
0000
0100
0000
0001
1000
1001
0000
,
0010
0000
1001
0000
0100
0001
0010
0000
,
2000
0001
0010
3001
,
0100
0100
0010
0010
,
0010
1000
0100
0000
0010
0001
0100
0000
,
0011
0000
0000
1000
0000
0000
1000
0000
,
1100
0000
0000
0001
0000
0000
0001
0000
,
1010
0000
0000
0010
0000
0000
0010
0000
,
0101
0000
0000
0100
0000
0000
0100
0000
,
2002
0000
0000
3003
0000
0000
1000
0000
0000
0000
0000
0000
0001
0000
0000
0000
,
0022
0000
0000
0033
0000
0000
0001
0000
0000
0000
0000
0000
0010
0000
0000
0000
,
2200
0000
0000
3300
0000
0000
0100
0000
0000
0000
0000
0000
1000
0000
0000
0000
,
0202
0000
0000
0303
0000
0000
0100
0000
0000
0000
0000
0000
0001
0000
0000
0000
,
2020
3030
0001
0000
1000
0000
0010
0000
,
0220
0330
1000
0001
1000
0000
0010
0000
,
0202
0000
0000
0303
0000
0000
1000
0000
0000
0000
0000
0000
0010
0000
0000
0000
,
2002
0000
0000
3003
0000
0000
0100
0000
0000
0000
0000
0000
0010
0000
0000
0000
,
2200
3300
0001
0000
0010
0000
1000
0000
,
0022
0033
1000
0001
1000
0000
1000
0000
,
0202
0303
0001
0000
2200
3300
1000
0000
,
0022
0033
1100
0000
2020
3030
0101
0000
,
2002
0000
0000
0000
,
0000
0000
0000
0000
,
0000
0000
0000
3003
,
0110
0000
1000
0000
0010
1000
0001
0000
,
0200
1000
0010
0301
,
1000
0100
1000
0000
0001
0100
0001
0000
,
2000
0010
0001
3100
,
0011
0000
0100
0000
1000
0100
0001
0000
,
0020
1000
0100
0031
,
1001
0000
0010
0000
0001
0010
0100
0000
,
0010
0100
0010
0000
0001
1000
0001
0000
,
0010
0000
1100
0000
0001
0100
0010
0000
,
2100
3010
0210
0301
,
0100
0000
0011
0000
1000
0100
0001
0000
,
1000
0010
0001
1001
,
0100
0000
1001
0000
0010
1000
0100
0000
,
0012
1003
2100
3001
,
0010
1000
0010
0000
0100
0001
0100
0000
,
0010
1000
0100
0010
0001
0100
0010
0000
,
2002
0000
0000
0000
,
0000
0000
0000
0000
,
3003
0000
0000
0000
;

//---------------dance-single - KONAMI step data----------------
#NOTES:
     dance-single:
     KONAMI step data:
     Hard:
     12:
     0.599,0.761,0.367,0.337,0.332:
0000
0000
0000
0000
,
0000
0000
0000
0000
,
0000
0000
0000
0000
,
0000
0000
0000
0000
,
0001
0000
0000
0001
0000
0000
0010
0000
0000
0000
0100
0000
0010
0000
0100
0000
,
1000
0000
0000
1000
0000
0000
0010
0000
0000
0000
0100
0000
0010
0000
0100
0000
,
0001
0000
0000
0010
0000
0000
0100
0000
1000
0000
0000
0010
0000
0000
0100
0000
,
0001
0000
0010
0001
0000
0100
0001
0000
1000
0001
0000
0010
,
0100
0000
0000
0000
,
2002
0000
0000
0000
,
0000
0000
0000
3003
,
0010
0000
0001
0000
0010
0000
0000
0100
0000
0000
0010
0000
0001
0000
0000
0000
,
0100
0000
0001
0000
0100
0000
0000
0010
0000
0000
1000
0000
0010
0000
0100
0000
,
0001
0000
1000
0000
0010
0000
0000
0100
0000
0000
0010
0000
1000
0000
0000
0000
,
0001
1000
0100
0010
0001
0010
0110
0000
,
0100
0000
1000
0000
0100
0000
0000
0010
0000
0000
0100
0000
1000
0000
0000
0000
,
0001
0000
0010
0000
0001
0000
0000
1000
0000
0000
0100
0000
0010
0000
0001
0000
,
0100
0000
0001
0000
0100
0000
0000
0010
0000
0000
1000
0000
0100
0000
0000
0000
,
0100
0010
0001
0100
0010
1000
1001
0000
,
0010
0000
0001
0000
1000
0100
0000
0100
0000
0000
1000
0000
0010
0000
0000
0000
,
1000
0000
0001
0000
1000
0100
0000
0100
0000
0000
0010
0000
0100
0000
0001
0000
,
0100
0000
0010
0000
0100
1000
0000
1000
0000
0000
0010
0000
0100
0000
0000
0000
,
0001
0000
1000
0000
0100
0000
0010
0100
0000
0100
0010
0000
0100
0000
0001
0000
,
0100
0000
1000
0000
0100
1000
0000
0001
0000
0000
0010
0000
0100
0000
0000
0000
,
0010
0000
0001
0000
0010
0100
0000
1000
0000
0000
0001
0000
1000
0000
0010
0000
,
0100
0000
0001
0000
1000
0100
0000
0010
0000
0000
0001
0000
1000
0000
0000
0000
,
0110
0000
1001
0000
0100
0010
1001
0000
,
0100
0000
0000
1000
0000
0000
1000
0000
0000
0000
0010
0000
0001
0000
0100
0000
,
0010
0000
0000
1000
0000
0000
1000
0000
0000
0000
0001
0000
1000
0000
0100
0000
,
0010
0000
0000
0001
0000
0000
0001
0000
0000
0000
0100
0000
0001
0000
1000
0000
,
0100
0000
0000
0010
0000
0000
0010
0000
0000
0000
0001
0000
1000
0000
0001
0000
,
2002
3003
0000
0001
0000
0000
1000
0000
0000
0000
0010
0000
0001
0000
0100
0000
,
0202
0303
0000
0001
0000
0000
0100
0000
0000
0000
0010
0000
0100
0000
0010
0000
,
2020
3030
0000
1000
0000
0000
0010
0000
0000
0000
0100
0000
0001
0000
0010
0000
,
0022
0033
0000
0001
0000
0000
1000
0000
0000
0000
0010
0000
1000
0000
0100
0000
,
2200
3300
0000
0000
0010
0000
0010
0000
0000
0000
0001
0000
0000
0000
0010
0000
,
0022
0033
0000
0000
0100
0000
0100
0000
0000
0000
1000
0000
0000
0000
0010
0000
,
0220
0330
0000
0110
0000
0000
1100
0000
0000
0000
0010
0000
0100
0000
0001
0000
,
0022
0033
0000
0011
0000
0000
1001
0000
0000
0000
0100
0000
0010
0000
1000
0000
,
2020
3030
0000
0000
0100
0000
0110
0000
0000
0000
0100
0000
0001
0000
0100
0000
,
0202
0303
0000
0000
0010
0000
0110
0000
0000
0000
0100
0000
1000
0000
0100
0000
,
2200
3300
0000
0000
0011
0000
0000
0000
0202
0303
0000
0000
1010
0000
0000
0000
,
2002
3003
0100
0000
0010
0000
0000
0000
0220
0330
0001
0000
1000
0000
0000
0000
,
2002
0000
0000
0000
,
0000
0000
0000
0000
,
0000
0000
0000
3003
,
1000
0000
0100
0000
0001
0000
0000
0100
0000
0000
0010
0000
0110
0000
0000
0000
,
0001
0000
0100
0000
1000
0000
0000
0010
0000
0000
0001
0000
0010
0000
0100
0000
,
0001
0000
1000
0000
0100
0000
0000
0010
0000
0000
0100
0000
1001
0000
0000
0000
,
0001
0000
1000
0000
0010
0000
0100
0001
0000
1000
0100
0000
0110
0000
0000
0000
,
0010
0000
1000
0000
0010
0100
0000
0100
0000
0000
0001
0000
0011
0000
0000
0000
,
1000
0000
0100
0000
1000
0001
0000
0001
0000
0000
0100
0000
0010
0000
1000
0000
,
0001
0000
0010
0000
0100
0010
0000
0100
0000
0000
1000
0000
1100
0000
0000
0000
,
0010
0100
0010
0100
0010
0100
1001
0000
,
1000
0000
0001
0000
1000
0100
0000
1000
0000
0000
0001
0000
0010
0100
0000
0010
,
0000
0000
0001
0000
0100
0010
0000
0100
0000
0000
0001
0000
1000
0000
0100
0000
,
0010
0000
0100
0000
0010
0001
0000
0010
0000
0000
0100
0000
1000
0100
0000
1000
,
0000
0000
0010
0000
0100
0000
0001
1000
0000
1000
0001
0000
1001
0000
0000
0000
,
0010
0000
0100
0000
0010
1000
0000
0010
0000
0000
0100
0000
0001
1000
0000
0001
,
0000
0000
0100
0000
0001
0010
0000
0001
0000
0000
0100
0000
0010
0000
1000
0000
,
0001
0010
0001
0010
1000
0010
1000
0010
,
0100
0010
0001
0100
1000
0010
0001
1000
,
2002
0000
0000
0000
,
0000
0000
0000
0000
,
3003
0000
0000
0000
;

//---------------dance-double - KONAMI step data----------------
#NOTES:
     dance-double:
     KONAMI step data:
     Easy:
     6:
     0.255,0.317,0.050,0.198,0.000:
00000000
00000000
00000000
00000000
,
00000000
00000000
00000000
00000000
,
00000000
00000000
00000000
00000000
,
00000000
00000000
00000000
00000000
,
01000000
00000000
00000000
00000000
,
00010000
00000000
00000000
00000000
,
00000010
00000000
00000001
00000000
,
00001000
00000010
00000001
00000100
,
00001000
00000000
00000000
00000000
,
00022000
00000000
00000000
00000000
,
00000000
00000000
00000000
00033000
,
00010000
00001000
00000100
00000100
,
00001000
00010000
01000000
01000000
,
00010000
00001000
00000100
00000100
,
00000001
00000010
00001000
00000100
,
00000001
00000100
00001000
00001000
,
00010000
01000000
10000000
10000000
,
00100000
00010000
00001000
00001000
,
00010000
00001000
00011000
00000000
,
00000010
00000001
00000100
00001000
,
00000010
00000001
00000100
00001000
,
00010000
01000000
10000000
00100000
,
00010000
01000000
10000000
00100000
,
01000000
00010000
00100000
10000000
,
01000000
00010000
00100000
10000000
,
01000000
00010000
00001000
00000100
,
00000001
00001000
00001001
00000000
,
00000001
00000000
00000000
00000000
,
00010000
00000000
00000000
00000000
,
00001000
00000000
00000000
00000000
,
10000000
00000000
00000000
00000000
,
20000000
00000000
30000000
00000000
,
02000000
00000000
03000000
00000000
,
00200000
00000000
00300000
00000000
,
00020000
00000000
00030000
00000000
,
00002000
00000000
00003000
00000000
,
00000200
00000000
00000300
00000000
,
00000020
00000000
00000030
00000000
,
00000002
00000000
00000003
00000000
,
00002000
00000000
00003000
00000000
,
00020000
00000000
00030000
00000000
,
20000000
30000000
02000000
03000000
,
00200000
00300000
00020000
00030000
,
00022000
00000000
00000000
00000000
,
00000000
00000000
00000000
00000000
,
00000000
00000000
00000000
00033000
,
00001000
00010000
00100000
00100000
,
00010000
00001000
00000010
00000010
,
00001000
00010000
00100000
00100000
,
10000000
01000000
00010000
00100000
,
10000000
00100000
00010000
00010000
,
00001000
00000010
00000001
00000001
,
00000100
00001000
00010000
00010000
,
00001000
00100000
01000000
00000000
,
00100000
00001000
00010000
00100000
,
10000000
00010000
01000000
00100000
,
10000000
00010000
10000000
01000000
,
00010000
00001000
00010000
00010000
,
00001000
00010000
00001000
00000010
,
00000001
00001000
00000100
00000010
,
00000001
00001000
00000001
00000100
,
00001000
00010000
00001000
00010000
,
00022000
00000000
00000000
00000000
,
00000000
00000000
00000000
00000000
,
00033000
00000000
00000000
00000000
;

//---------------dance-double - KONAMI step data----------------
#NOTES:
     dance-double:
     KONAMI step data:
     Medium:
     7:
     0.367,0.444,0.268,0.426,0.010:
00000000
00000000
00000000
00000000
,
00000000
00000000
00000000
00000000
,
00000000
00000000
00000000
00000000
,
00000000
00000000
00000000
00000000
,
00001000
00000000
00000000
00001000
00000000
00000000
00000100
00000000
00000000
00000000
00000000
00000000
00000000
00000000
00000000
00000000
,
00010000
00000000
00000000
00010000
00000000
00000000
01000000
00000000
00000000
00000000
00000000
00000000
00000000
00000000
00000000
00000000
,
00001000
00000100
00010000
01000000
,
11000000
00100000
00011000
00000100
,
00000011
00000000
00000000
00000000
,
00022000
00000000
00000000
00000000
,
00000000
00000000
00000000
00033000
,
00100000
00010000
01000000
00000000
00100000
00000000
10000000
00000000
,
01000000
00010000
00001000
00010000
,
00000010
00001000
00000100
00000000
00000010
00000000
00000001
00000000
,
00000100
00001000
00010000
00001000
,
01000000
00100000
10000000
00000000
00010000
00000000
00100000
00000000
,
01000000
10000000
00100000
00010000
,
00000010
00010000
00001000
00000000
00000100
00000000
00000001
00000000
,
00000100
00000010
00001001
00000000
,
00010000
00000000
00001000
00000000
00100000
00010000
01000000
00000000
,
00020000
01000000
10000000
00130000
,
00001000
00000000
00010000
00000000
00000010
00001000
00000100
00000000
,
00002000
00000100
00000001
00003010
,
00010000
00001000
00010000
00000000
00001000
00100000
00010000
00000000
,
00020000
01000000
10000000
00130000
,
00001000
00010000
00001000
00000000
00010000
00000100
00001000
00000000
,
00000100
00000010
00000110
00000000
,
00000002
00000000
00000000
00000103
00000000
00000000
00000000
00000000
,
00002000
00000000
00000000
00003100
00000000
00000000
00000000
00000000
,
00020000
00000000
00000000
01030000
00000000
00000000
00000000
00000000
,
20000000
00000000
00000000
31000000
00000000
00000000
00000000
00000000
,
00022000
00033000
00000000
00000000
,
00000202
00000303
00000000
00000000
,
00020020
00030030
00000000
00000000
,
20200000
30300000
00000000
00000000
,
02002000
03003000
00000000
00000000
,
00000220
00000330
00000000
00000000
,
00220000
00330000
00000000
00000000
,
22000000
33000000
00000000
00000000
,
02002000
03003000
00000000
00000000
,
00020020
00030030
00000000
00000000
,
00002002
00003003
00020020
00030030
,
02002000
03003000
20020000
30030000
,
02200000
00000000
00000000
00000000
,
00000000
00000000
00000000
00000000
,
00000000
00000000
00000000
03300000
,
01000000
00010000
00100000
00000000
01000000
00000000
10000000
00000000
,
00100000
00010000
00001000
00010000
,
00000100
00001000
00000010
00000000
00000100
00000000
00000001
00000000
,
00000010
00001000
00010000
00001000
,
00100000
01000000
10000000
00000000
00010000
00000000
01000000
00000000
,
00100000
10000000
01000000
00010000
,
00000010
00000100
00000001
00000000
00001000
00000000
00000100
00000000
,
00000010
00000100
00000110
00001001
,
00000001
00000100
00000010
00000000
00010000
00000000
00001000
00000000
,
00100000
01000000
20000000
00000000
01000000
00000000
30010000
00000000
,
00100000
01000000
00010000
00000000
01000000
00000000
00001000
00000000
,
00010000
00000010
00002000
00000000
00000100
00000000
00003001
00000000
,
00000101
00000000
00001000
00000000
00000010
00010000
00001000
00000000
,
00011000
00000000
00001000
00000000
01000000
00010000
00100000
00000000
,
11000000
00000000
00010000
00000000
00100000
00010000
00001000
00000000
,
00010000
00001000
00000100
00000000
00001000
00000100
00000010
00000000
,
00000220
00000000
00000000
00000000
,
00000000
00000000
00000000
00000000
,
00000330
00000000
00000000
00000000
;

//---------------dance-double - KONAMI step data----------------
#NOTES:
     dance-double:
     KONAMI step data:
     Hard:
     13:
     0.599,0.666,0.238,0.337,0.426:
00000000
00000000
00000000
00000000
,
00000000
00000000
00000000
00000000
,
00000000
00000000
00000000
00000000
,
00000000
00000000
00000000
00000000
,
00010000
00000000
00000000
00001000
00000000
00000000
00010000
00000000
00000000
00000000
01000000
00000000
10000000
00000000
01000000
00000000
,
00010000
00000000
00000000
00001000
00000000
00000000
00010000
00000000
00000000
00000000
00001000
00000000
00000100
00000000
00000001
00000000
,
00000100
00000000
00000000
00001000
00000000
00000000
00010000
00000000
00100000
00000000
00000000
00010000
00000000
00000000
00001000
00000000
,
00000010
00000000
00000001
00000010
00000000
00000100
00001000
00000000
00010000
00100000
00000000
01000000
,
10000000
00000000
00000000
00000000
,
00022000
00000000
00000000
00000000
,
00000000
00000000
00000000
00033000
,
00001000
00000000
00010000
00000000
00001000
00000000
00000000
00000100
00000000
00000000
00000001
00000000
00000010
00000000
00000100
00000000
,
00001000
00000000
00000001
00000000
00001000
00000000
00000000
00000100
00000000
00000000
00010000
00000000
00001000
00000000
00100000
00000000
,
00001000
00000000
00010000
00000000
00001000
00000000
00000000
00100000
00000000
00000000
00010000
00000000
01000000
00000000
10000000
00000000
,
01000000
00000000
00100000
00000000
01000000
00000000
00000000
00001000
00000000
00000000
00010000
00000000
00011000
00000000
00000000
00000000
,
01000000
00000000
10000000
00000000
01000000
00000000
00000000
00010000
00000000
00000000
00001000
00000000
00010000
00000000
00001000
00000000
,
00000100
00000000
00000001
00000000
00000100
00000000
00000000
00001000
00000000
00000000
00100000
00000000
00001000
00000000
00010000
00000000
,
00100000
00000000
10000000
00000000
00100000
00000000
00000000
00010000
00000000
00000000
00001000
00000000
00010000
00000000
00001000
00000000
,
00000010
00000001
00000010
00000100
00010000
00001000
00011000
00000000
,
00100000
00000000
00010000
00000000
00100000
00010000
00000000
00100000
00000000
00000000
01000000
00000000
10000000
01000000
00000000
00000000
,
10000000
00000000
00100000
00000000
10000000
00010000
00000000
00010000
00000000
00000000
00100000
00000000
00001000
00000000
00010000
00000000
,
00000010
00000000
00001000
00000000
00000010
00001000
00000000
00000010
00000000
00000000
00000100
00000000
00000001
00000100
00000000
00000000
,
00000001
00000000
00000010
00000000
00000001
00001000
00000000
00001000
00000000
00000000
00000010
00000000
00010000
00000000
00001000
00000000
,
01000000
00000000
00100000
00000000
01000000
00100000
00000000
10000000
00000000
00000000
01000000
00000000
00100000
01000000
00000000
00000000
,
00100000
00000000
00010000
00000000
00100000
00001000
00000000
00010000
00000000
00000000
00001000
00000000
00000100
00000000
00000001
00000000
,
00000010
00000000
00000100
00000000
00000010
00000100
00000000
00001000
00000000
00000000
00000010
00000000
00000100
00000010
00000000
00000000
,
00000110
00000000
00001001
00000000
00000100
00001000
00010000
00100000
,
01000000
00000000
00000000
10000000
00000000
00000000
10000000
00000000
00000000
00000000
00010000
00000000
00100000
00000000
10000000
00000000
,
00010000
00000000
00000000
00100000
00000000
00000000
00100000
00000000
00000000
00000000
00001000
00000000
00000100
00000000
00000001
00000000
,
00000010
00000000
00000000
00000001
00000000
00000000
00000001
00000000
00000000
00000000
00001000
00000000
00000100
00000000
00000001
00000000
,
00000100
00000000
00000000
00001000
00000000
00000000
00001000
00000000
00000000
00000000
00000100
00000000
00010000
00000000
00001000
00000000
,
00022000
00033000
00000000
00010000
00000000
00000000
00100000
00000000
00000000
00000000
00100000
00000000
10000000
00000000
01000000
00000000
,
22000000
33000000
00000000
00100000
00000000
00000000
00010000
00000000
00000000
00000000
00100000
00000000
00001000
00000000
00010000
00000000
,
00022000
00033000
00000000
00001000
00000000
00000000
00000010
00000000
00000000
00000000
00000010
00000000
00000001
00000000
00000100
00000000
,
00000202
00000303
00000000
00000010
00000000
00000000
00001000
00000000
00000000
00000000
00000010
00000000
00010000
00000000
00001000
00000000
,
00202000
00303000
00000000
00000000
01000000
00000000
01000000
00000000
00000000
00000000
00001000
00000000
00000000
00000000
00010000
00000000
,
00020200
00030300
00000000
00000000
00000010
00000000
00000010
00000000
00000000
00000000
00010000
00000000
00000000
00000000
00001000
00000000
,
00022000
00033000
00000000
00000100
00000000
00000000
00000001
00000000
00000000
00000000
00000100
00000000
00001000
00000000
00010000
00000000
,
00022000
00033000
00000000
00100000
00000000
00000000
10000000
00000000
00000000
00000000
00100000
00000000
00010000
00000000
00100000
00000000
,
02200000
03300000
00000000
00000000
00100000
00000000
00001000
00000000
00000000
00000000
00000100
00000000
00000010
00000000
00000100
00000000
,
00000220
00000330
00000000
00000000
00000100
00000000
00010000
00000000
00000000
00000000
01000000
00000000
00100000
00000000
01000000
00000000
,
20020000
30030000
00000000
00000000
00100000
00000000
00000000
00000000
02002000
03003000
00000000
00000000
00001000
00000000
00000000
00000000
,
00020020
00030030
00000000
00000000
00000100
00000000
00000000
00000000
00002002
00003003
00000000
00000000
00001000
00000000
00000000
00000000
,
00022000
00000000
00000000
00000000
,
00000000
00000000
00000000
00000000
,
00000000
00000000
00000000
00033000
,
00010000
00000000
00001000
00000000
00000100
00001000
00000000
00000100
00000000
00000000
00000010
00000000
00000001
00000010
00000000
00000000
,
00000001
00000000
00000100
00000000
00000001
00001000
00000000
00001000
00000000
00000000
00000100
00000000
00010000
00000000
00001000
00000000
,
00100000
00000000
00010000
00000000
01000000
00010000
00000000
01000000
00000000
00000000
00100000
00000000
10000000
00100000
00000000
00000000
,
10000000
00000000
01000000
00000000
10000000
00010000
00000000
00010000
00000000
00000000
01000000
00000000
00001000
00000000
00010000
00000000
,
00000010
00000000
00001000
00000000
00000010
00000100
00000000
00000001
00000000
00000000
00000010
00000000
00000100
00000010
00000000
00000000
,
00000100
00000000
00001000
00000000
00000100
00010000
00000000
00001000
00000000
00000000
00010000
00000000
00100000
00000000
10000000
00000000
,
01000000
00000000
00100000
00000000
01000000
10000000
00000000
00010000
00000000
00000000
01000000
00000000
00100000
01000000
00000000
00000000
,
01100000
00000000
10010000
00000000
00100000
00010000
00001000
00000100
,
00000010
00000000
00000001
00000000
00001000
00000100
00000000
00010000
00000000
00000000
00001000
00000000
00100000
00010000
00000000
01000000
,
00000000
00000000
00010000
00000000
10000000
00100000
00000000
01000000
00000000
00000000
00001000
00000000
00010000
00000000
00000100
00000000
,
00000010
00000000
00000001
00000000
00001000
00000100
00000000
00010000
00000000
00000000
00001000
00000000
00100000
00010000
00000000
01000000
,
00000000
00000000
00100000
00000000
10000000
00000000
00010000
10000000
00000000
10000000
00010000
00000000
10000000
00000000
00010000
00000000
,
10010000
00000000
01000000
00000000
00010000
00001000
00000000
00010000
00000000
00000000
00001000
00000000
00000010
00000001
00000000
00001000
,
00000000
00000000
00000001
00000000
00000100
00001000
00000000
00010000
00000000
00000000
00001000
00000000
00010000
00000000
01000000
00000000
,
10000000
00000000
01000000
00000000
00010000
00001000
00000000
00000100
00000000
00000000
00000001
00000000
00000010
00000001
00000000
00000100
,
00000000
00000000
00001000
00000000
00010000
01000000
00000000
10000000
00000000
01000000
00010000
00000000
00001000
00000000
00010000
00000000
,
00022000
00000000
00000000
00000000
,
00000000
00000000
00000000
00000000
,
00033000
00000000
00000000
00000000
;

//---------------dance-single - Chewi----------------
#NOTES:
     dance-single:
     Chewi:
     Challenge:
     10:
     0.503,0.571,0.188,0.079,0.203:
0000
0000
0000
0000
,
0000
0000
0000
0000
,
0000
0000
0000
0000
,
0000
0000
0000
0000
,
1000
0000
0000
1000
0000
0000
0001
0000
0000
0000
0010
0000
0100
0000
0010
0000
,
0100
0000
0000
0100
0000
0000
0010
0000
0000
0000
0001
0000
1000
0000
0010
0000
,
0100
0000
0001
0000
,
0011
1010
1100
0101
,
0220
0000
0000
0000
,
0000
0000
0000
0000
,
0000
0000
0000
0330
,
0010
0000
1000
0000
0001
0000
0000
0100
0000
0000
0010
0000
1000
0000
0000
0001
,
0000
0000
0010
0000
0100
0000
0000
1000
0000
0000
0100
0000
0010
0000
0001
0000
,
0010
0000
0100
0000
1000
0000
0000
0010
0000
0000
0100
0000
0001
0000
0000
0010
,
0000
0000
0001
0000
0100
0000
0000
0010
0000
0000
1000
0000
0001
0000
0010
0000
,
0100
0000
1000
0000
0010
0000
0000
1000
0000
0000
0100
0000
0010
0000
0000
0001
,
0000
0000
0010
0000
0100
0000
0000
1000
0000
0000
0010
0000
0100
0000
0001
0000
,
0100
0010
0100
0010
1000
0001
1000
0001
,
1000
0100
1000
0100
0010
0001
0010
0001
,
0010
0000
0001
0000
0010
0000
0100
1000
0000
0000
0010
0000
0100
0000
0001
0100
,
0000
0000
0010
0000
1000
0000
0001
0010
0000
0000
0100
0000
1000
0000
0010
0000
,
0100
0000
0001
0000
0100
0000
0010
1000
0000
0000
0001
0000
0010
0000
0100
0010
,
0000
0001
0010
0100
1000
0010
0100
0001
,
0100
0000
0010
0000
1000
0000
0001
0010
0000
0000
0100
0000
1000
0000
0001
0010
,
0000
0000
0100
0000
1000
0000
0010
0100
0000
0000
0001
0000
0100
0000
0010
0000
,
1001
1001
0000
0000
0110
0110
0000
0000
,
0010
0001
0100
1000
0010
1000
0100
0001
,
0100
0000
0000
0100
0000
0000
0100
0000
0000
0000
0100
0000
1000
0000
0010
0000
,
0100
0000
0000
0100
0000
0000
0100
0000
0000
0000
0100
0000
0001
0000
1000
0000
,
0010
0000
0000
0010
0000
0000
0010
0000
0000
0000
0010
0000
0001
0000
1000
0000
,
0010
0000
0000
0010
0000
0000
0010
0000
0000
0000
0010
0000
0100
0000
0001
0000
,
0001
0001
0001
0000
0000
0000
0000
0000
,
1000
1000
1000
0000
0000
0000
0000
0000
,
0100
0100
0100
0000
0000
0000
0000
0000
,
0010
0010
0010
0000
0000
0000
0000
0000
,
0001
0010
0100
1000
0000
0000
0000
0000
,
1000
0100
0010
0001
0000
0000
0000
0000
,
0010
0001
0100
1000
0000
0000
0000
0000
,
0010
1000
0100
0001
0000
0000
0000
0000
,
0010
0100
1000
0010
0000
0000
0000
0000
,
0010
0100
0001
0010
0110
0000
0000
0000
,
1001
1000
0001
0000
1001
0001
1000
0000
,
1000
0010
0001
0100
1000
1000
0010
0001
,
2002
0000
0000
0000
,
0000
0000
0000
0000
,
0000
0000
0000
0000
3003
0000
0220
0330
,
0010
0000
1000
0000
0001
0000
0000
0100
0000
0000
0010
0000
1000
0000
0000
0001
,
0000
0000
0010
0000
0100
0000
0000
1000
0000
0000
0100
0000
0010
0000
0001
0000
,
0010
0000
0100
0000
1000
0000
0000
0010
0000
0000
0100
0000
0001
0000
0000
0010
,
0000
0000
0001
0000
0100
0000
0000
0010
0000
0000
1000
0000
0001
0000
0010
0000
,
0100
0000
1000
0000
0010
0000
0000
1000
0000
0000
0100
0000
0010
0000
0000
0001
,
0000
0000
0010
0000
0100
0000
0000
1000
0000
0000
0010
0000
0100
0000
0001
0000
,
0100
0010
0100
0010
1000
0001
1000
0001
,
1000
0000
0100
0000
1000
0000
0100
0000
0010
0000
0001
0000
0010
0001
0010
0000
,
0010
0000
0001
0000
0010
0000
0100
1000
0000
0000
0010
0000
0100
0000
0001
0100
,
0000
0000
0010
0000
1000
0000
0001
0010
0000
0000
0100
0000
1000
0000
0010
0000
,
0100
0000
0001
0000
0100
0000
0010
1000
0000
0000
0001
0000
0010
0000
0100
0010
,
0000
0001
0010
0100
1000
0010
0100
0001
,
0100
0000
0010
0000
1000
0000
0001
0010
0000
0000
0100
0000
1000
0000
0001
0010
,
0000
0000
0100
0000
1000
0000
0010
0100
0000
0000
0001
0000
0100
0000
0010
0000
,
1001
1001
0000
0000
0110
0110
0000
0000
,
1000
0100
0001
0010
0010
0001
0100
1000
,
0220
0000
0000
0000
,
0000
0000
0000
0000
,
0330
0000
0000
0000
;

//---------------dance-double - Chewi----------------
#NOTES:
     dance-double:
     Chewi:
     Challenge:
     10:
     0.495,0.571,0.059,0.079,0.203: // measure 1
00000000
00000000
00000000
00000000
,  // measure 2
00000000
00000000
00000000
00000000
,  // measure 3
00000000
00000000
00000000
00000000
,  // measure 4
00000000
00000000
00000000
00000000
,  // measure 5
00010000
00000000
00000000
00001000
00000000
00000000
00010000
00000000
00000000
00000000
00010000
00000000
01000000
00000000
00010000
00000000
,  // measure 6
00000000
01000000
00000000
00000000
00100000
00000000
01000000
00000000
00000000
00000000
00100000
00000000
10000000
00000000
01000000
00000000
,  // measure 7
00100000
00000000
00010000
00000000
,  // measure 8
00100000
00011000
00001000
00000010
,  // measure 9
00000220
00000000
00000000
00000000
,  // measure 10
00000000
00000000
00000000
00000000
,  // measure 11
00000000
00000000
00000000
00000330
,  // measure 12
00000010
00000000
00001000
00000000
00000001
00000000
00000000
00000010
00000000
00000000
00000100
00000000
00001000
00000000
00000000
00000010
,  // measure 13
00000000
00000000
00001000
00000000
00000100
00000000
00000000
00010000
00000000
00000000
00001000
00000000
00100000
00000000
10000000
00000000
,  // measure 14
01000000
00000000
00010000
00000000
00100000
00000000
00000000
01000000
00000000
00000000
00100000
00000000
00010000
00000000
00000000
01000000
,  // measure 15
00000000
00000000
00100000
00000000
01000000
00000000
00000000
00010000
00000000
00000000
00100000
00000000
01000000
00000000
10000000
00000000
,  // measure 16
01000000
00000000
00100000
00000000
00010000
00000000
00000000
01000000
00000000
00000000
00010000
00000000
00100000
00000000
00000000
00001000
,  // measure 17
00000000
00000000
00010000
00000000
00000100
00000000
00000000
00001000
00000000
00000000
00000001
00000000
00000100
00000000
00000010
00000000
,  // measure 18
00001000
00000001
00001000
00000001
00000010
00000100
00000010
00000100
,  // measure 19
00000010
00000001
00000010
00000001
00000100
00000001
00000100
00000001
,  // measure 20
00000100
00000000
00000010
00000000
00001000
00000000
00000001
00000010
00000000
00000000
00000100
00000000
00001000
00000000
00000010
00001000
,  // measure 21
00000000
00000000
00000100
00000000
00010000
00000000
00001000
00010000
00000000
00000000
01000000
00000000
00100000
00000000
10000000
00000000
,  // measure 22
00010000
00000000
00100000
00000000
01000000
00000000
10000000
01000000
00000000
00000000
00100000
00000000
00010000
00000000
01000000
00100000
,  // measure 23
00000000
01000000
00010000
00100000
01000000
10000000
01000000
00100000
,  // measure 24
00010000
00000000
01000000
00000000
00010000
00000000
00100000
00001000
00000000
00000000
00010000
00000000
00001000
00000000
00000010
00001000
,  // measure 25
00000000
00000000
00000001
00000000
00000010
00000000
00000100
00001000
00000000
00000000
00000001
00000000
00000100
00000000
00000010
00000000
,  // measure 26
00000100
00000100
00000010
00000010
00001000
00001000
00000001
00000001
,  // measure 27
00000001
00000010
00000100
00001000
00000001
00000010
00000100
00001000
,  // measure 28
00001000
00000000
00000000
00000010
00000000
00000000
00000100
00000000
00000000
00000000
00000001
00000000
00000100
00000000
00000010
00000000
,  // measure 29
00001000
00000000
00000000
00000100
00000000
00000000
00010000
00000000
00000000
00000000
00001000
00000000
00100000
00000000
00010000
00000000
,  // measure 30
01000000
00000000
00000000
10000000
00000000
00000000
00100000
00000000
00000000
00000000
00010000
00000000
00100000
00000000
10000000
00000000
,  // measure 31
01000000
00000000
00000000
00100000
00000000
00000000
00010000
00000000
00000000
00000000
01000000
00000000
00010000
00000000
00100000
00000000
,  // measure 32
00001000
00001000
00001000
00000000
00000000
00000000
00000000
00000000
,  // measure 33
00000010
00000010
00000010
00000000
00000000
00000000
00000000
00000000
,  // measure 34
00000100
00000100
00000100
00000000
00000000
00000000
00000000
00000000
,  // measure 35
00000001
00000001
00000001
00000000
00000000
00000000
00000000
00000000
,  // measure 36
00000001
00001000
00000100
00010000
00000000
00000000
00000000
00000000
,  // measure 37
00000100
00010000
00001000
00100000
00000000
00000000
00000000
00000000
,  // measure 38
00100000
00010000
01000000
10000000
00000000
00000000
00000000
00000000
,  // measure 39
00100000
10000000
01000000
00010000
00000000
00000000
00000000
00000000
,  // measure 40
00100000
00010000
01000000
00010000
00000000
00000000
00000000
00000000
,  // measure 41
00100000
00001000
00010000
00001000
00001010
00000000
00000000
00000000
,  // measure 42
00010000
00001000
00000010
00000000
00001000
00000001
00000010
00000000
,  // measure 43
00000100
00000100
00000010
00000010
00000001
00001000
00000010
00000100
,  // measure 44
00000220
00000000
00000000
00000000
,  // measure 45
00000000
00000000
00000000
00000000
,  // measure 46
00000000
00000000
00000000
00000000
00000330
00000000
00002020
00003030
,  // measure 47
00000010
00000000
00001000
00000000
00000001
00000000
00000000
00000010
00000000
00000000
00000100
00000000
00001000
00000000
00000000
00000010
,  // measure 48
00000000
00000000
00001000
00000000
00000100
00000000
00000000
00010000
00000000
00000000
00001000
00000000
00100000
00000000
10000000
00000000
,  // measure 49
01000000
00000000
00010000
00000000
00100000
00000000
00000000
01000000
00000000
00000000
00100000
00000000
00010000
00000000
00000000
01000000
,  // measure 50
00000000
00000000
00100000
00000000
01000000
00000000
00000000
00010000
00000000
00000000
00100000
00000000
01000000
00000000
10000000
00000000
,  // measure 51
01000000
00000000
00100000
00000000
00010000
00000000
00000000
01000000
00000000
00000000
00010000
00000000
00100000
00000000
00000000
00001000
,  // measure 52
00000000
00000000
00010000
00000000
00000100
00000000
00000000
00001000
00000000
00000000
00000001
00000000
00000100
00000000
00000010
00000000
,  // measure 53
00001000
00000001
00001000
00000001
00000010
00000100
00000010
00000100
,  // measure 54
00000010
00000000
00000001
00000000
00000010
00000000
00000001
00000000
00000100
00000000
00000001
00000000
00000100
00000001
00000100
00000000
,  // measure 55
00000100
00000000
00000010
00000000
00001000
00000000
00000001
00000010
00000000
00000000
00000100
00000000
00001000
00000000
00000010
00001000
,  // measure 56
00000000
00000000
00000100
00000000
00010000
00000000
00001000
00010000
00000000
00000000
01000000
00000000
00100000
00000000
10000000
00000000
,  // measure 57
00010000
00000000
00100000
00000000
01000000
00000000
10000000
01000000
00000000
00000000
00100000
00000000
00010000
00000000
01000000
00100000
,  // measure 58
00000000
01000000
00010000
00100000
01000000
10000000
01000000
00100000
,  // measure 59
00010000
00000000
01000000
00000000
00010000
00000000
00100000
00001000
00000000
00000000
00010000
00000000
00001000
00000000
00000010
00001000
,  // measure 60
00000000
00000000
00000001
00000000
00000010
00000000
00000100
00001000
00000000
00000000
00000001
00000000
00000100
00000000
00000010
00000000
,  // measure 61
00000100
00000100
00000010
00000010
00001000
00001000
00000001
00000001
,  // measure 62
00000001
00000010
00000100
00001000
00000001
00000010
00000100
00001000
,  // measure 63
00002002
00000000
00000000
00000000
,  // measure 64
00000000
00000000
00000000
00000000
,  // measure 65
00003003
00000000
00000000
00000000
;
