#TITLE:ロマンスの神様(2010 X-edit);
#SUBTITLE:;
#ARTIST:JUDY CRYSTAL;
#TITLETRANSLIT:GOD OF ROMANCE(2010 X-edit);
#SUBTITLETRANSLIT:;
#ARTISTTRANSLIT:;
#CREDIT:Chewphoria~;
#BANNER:GOD OF ROMANCE(2010 X-edit).PNG;
#BACKGROUND:GOD OF ROMANCE(2010 X-edit)-bg.PNG;
#LYRICSPATH:;
#CDTITLE:./CDTITLES/Licensed Music.PNG;
#MUSIC:GOD OF ROMANCE(2010 X-edit).mp3;
#OFFSET:-7.673;
#SAMPLESTART:51.979;
#SAMPLELENGTH:15.000;
#SELECTABLE:YES;
#DISPLAYBPM:157.000;
#BPMS:0.000=156.980;
#STOPS:48.000=0.764
,50.000=1.147
;
#BGCHANGES:;

//---------------dance-single - ----------------
#NOTES:
     dance-single:
     :
     Hard:
     7:
     0.519,0.494,0.351,0.202,0.000:
0010
1000
0100
0001
0100
0000
0101
0000
,
0010
0001
0100
1000
0100
0000
1100
0000
,
1000
1000
0010
0010
0001
0010
1000
0001
,
2000
0000
0000
3000
,
0001
0100
0010
1000
0000
0100
0000
0001
,
1000
0001
0010
0100
0000
1000
0100
0010
,
0001
0010
0100
1000
0010
0100
0001
1000
,
0010
0010
0100
0100
0000
0010
1000
0100
,
0010
0010
0001
0001
0000
0001
0010
0100
,
1000
1000
0010
0010
0000
1000
0010
0100
,
0001
0100
1000
0100
0001
0010
1000
0010
,
0002
0000
0000
0000
,
1003
0000
0000
0001
1001
0000
0001
0100
,
0010
0000
1000
0000
1100
0000
1000
0100
,
0010
0000
0001
0000
0011
0000
0001
1000
,
0001
2000
0000
3000
0010
0100
0010
0100
,
0001
0200
0000
0300
0010
1000
0100
0010
,
0001
0100
0010
1000
0001
1000
2002
0000
,
0000
3003
1000
0010
0100
0001
0101
0000
,
0000
0000
1100
0000
0000
0000
1000
0010
,
0001
0100
1000
0000
0000
0000
1100
0000
,
0000
0000
0101
0000
0000
0000
0001
0010
,
1000
0100
0010
0001
0100
0000
0102
0000
,
1000
0100
0013
2100
,
0001
0000
0010
0000
3001
0000
0100
0100
,
0000
0000
0100
0100
0000
0000
0010
1000
,
0010
0000
0100
0001
0100
0000
0000
1000
,
0100
0010
0001
0000
1001
0000
1000
0100
,
0010
0001
0200
0000
0310
1000
0000
0001
,
0001
0001
0100
0000
1010
0000
1000
0100
,
0010
0001
1000
0100
0010
0001
0101
0000
,
0011
0000
1100
0000
1010
0000
1000
0100
,
0010
0001
1000
0000
0100
2000
0000
3001
,
1000
0010
0100
0000
0001
0000
0100
0010
,
1000
0001
0010
0100
1000
2000
0000
0000
,
0000
0000
0000
0000
3000
0000
0000
0001
,
0100
0010
1000
0001
1000
0100
1000
0001
,
1000
0010
0200
0000
0000
0000
0301
0010
,
0100
1000
1000
0001
0100
0000
0101
0000
,
1010
0000
1001
0000
1000
1000
0100
0010
,
0001
0010
0100
1000
0010
0100
0101
0000
,
1100
0000
0101
0000
1000
0010
1000
0000
,
0001
0000
1001
0000
1000
0100
0010
0000
,
0001
0010
0100
0000
1000
0001
2000
0000
,
0000
0000
0000
3020
,
0000
0000
0000
0000
0000
0030
0100
0010
,
1000
0100
0010
0000
0011
0000
0100
0010
,
0001
0100
0010
0000
0110
0000
0010
1000
,
0010
0000
0010
0001
0010
0000
0011
0000
,
0110
0000
1100
0000
0110
0000
1000
0100
,
0001
0100
1000
0000
1001
0000
1000
0010
,
0001
0010
1000
0000
1001
0000
1000
0010
,
0100
0001
1000
0010
0100
0001
2000
0000
,
3200
0320
0032
2003
,
0000
0000
0000
3000
;

//---------------dance-single - ----------------
#NOTES:
     dance-single:
     :
     Beginner:
     1:
     0.179,0.171,0.053,0.032,0.000:
1000
1000
1000
0000
,
0100
0000
0100
0000
,
0001
0001
0001
0000
,
0001
0000
0000
0000
,
1000
0000
1000
0000
,
0001
0000
0001
0000
,
0010
0000
0010
0000
,
0100
0000
0100
0000
,
1000
0000
1000
0000
,
0001
0000
0001
0000
,
1000
0000
1000
0000
,
0010
0000
0010
0000
,
0010
0000
0100
0000
,
1000
0000
1000
0000
,
0001
0000
0001
0000
,
0100
0000
0100
0000
,
0010
0000
0010
0000
,
1000
0000
1000
1000
,
0000
0000
0000
1001
,
0000
0000
0000
1000
,
1000
1000
0000
0110
,
0000
0000
0000
0010
,
0010
0010
0000
0010
,
0000
1000
0000
0010
,
0000
0001
0000
0002
,
0000
0000
0003
0001
,
0000
0001
0000
0000
,
0100
0100
0000
1000
,
1000
1000
0000
0100
,
0000
1000
0000
0010
,
0000
0100
0000
0010
,
0010
0010
0000
1000
,
0000
0001
0000
2000
,
0000
0000
3000
1000
,
0000
1000
0000
1001
,
0000
0000
0000
0001
,
0000
0100
0000
0001
,
0000
0100
0000
1000
,
0000
0100
0000
1000
,
1000
1000
0000
1000
,
0000
0010
0000
1000
,
0000
0010
0000
0001
,
0000
0010
0000
0001
,
0000
0001
0000
1001
,
0000
0000
0000
2000
,
0000
0000
3000
1000
,
1000
1000
0000
0100
,
0000
0100
0000
0001
,
0001
0001
0000
0010
,
0000
0010
0000
0010
,
0010
0010
0000
0100
,
0000
0100
0000
0100
,
0100
0100
0000
1001
,
0000
0000
0000
1000
;

//---------------dance-single - ----------------
#NOTES:
     dance-single:
     :
     Easy:
     3:
     0.243,0.257,0.127,0.117,0.000:
0010
0010
0010
0000
,
0100
0100
0100
0000
,
1000
0001
1000
0001
,
2002
0000
0000
3003
,
1000
0100
1000
0000
,
0001
0100
0001
0000
,
1000
1000
0001
0001
,
1000
0001
1000
0000
,
0010
1000
0010
0000
,
0010
0001
0010
0000
,
0001
0001
1000
1000
,
2002
0000
0000
3003
,
1000
0000
0001
0001
,
0000
1000
0000
0010
,
0010
0010
0000
0100
,
0100
0100
0000
0010
,
0010
0010
0000
1000
,
0100
0001
0010
1000
,
0000
0100
0010
0200
,
0000
0000
0000
0320
,
0000
0000
0000
2030
,
0000
0000
0000
3002
,
0000
0000
0000
1003
,
1000
1000
0000
0001
,
0001
0001
0000
1001
,
0000
0110
0000
1001
,
0000
0100
0000
0000
,
0100
0100
0100
0010
,
0100
0001
0000
1000
,
0001
1000
0000
1000
,
0000
1000
0000
1001
,
0100
1000
0100
0001
,
0010
1000
0000
1000
,
0001
1000
0000
0010
,
0100
0001
1000
2000
,
0000
0000
3000
0000
,
0001
0000
0001
1000
,
0000
1001
0000
0000
,
1000
0000
1000
0001
,
0000
1001
0000
0100
,
0000
0100
0010
0100
,
0000
0110
0000
1000
,
0000
0010
0000
0100
,
0000
0001
1000
0002
,
0000
0000
0000
2003
,
0000
0000
3000
0001
,
0001
0001
0000
1000
,
1000
1000
0000
0110
,
0000
0110
0000
0100
,
0010
0100
0000
0010
,
0010
0010
0000
0100
,
0100
0100
0000
1001
,
0000
1000
0001
1000
,
0000
0000
0000
0010
;

//---------------dance-single - ----------------
#NOTES:
     dance-single:
     :
     Medium:
     5:
     0.375,0.428,0.467,0.096,0.000: // measure 1
1000
0000
0001
1000
0001
0000
0000
0000
,  // measure 2
0001
0000
1000
0001
1000
0000
0000
0000
,  // measure 3
0010
1000
0100
0001
,  // measure 4
0010
0000
0000
0000
,  // measure 5
1000
1100
0001
0000
,  // measure 6
0001
0101
1000
0000
,  // measure 7
0010
0010
0010
0000
0100
0000
0010
0000
,  // measure 8
0100
0100
0100
0000
0100
0000
0010
0000
,  // measure 9
1000
0100
1100
0000
,  // measure 10
0001
0100
0101
0000
,  // measure 11
1010
0100
0011
0100
,  // measure 12
2002
0000
0000
3003
,  // measure 13
0101
0000
0000
1000
1000
0000
1000
0000
,  // measure 14
1100
0000
0001
0000
1001
0000
1000
0001
,  // measure 15
1000
0001
0000
0000
0000
0000
0010
0000
,  // measure 16
1000
1010
0000
0100
,  // measure 17
0001
0101
0000
1000
,  // measure 18
0100
0001
0010
1000
,  // measure 19
0000
1000
0010
0101
,  // measure 20
0000
0100
0000
0100
,  // measure 21
1000
0010
0000
1010
,  // measure 22
0000
0010
0000
0010
,  // measure 23
0001
0000
0100
0000
1000
0000
0100
0100
,  // measure 24
0100
0000
1000
0000
1100
0000
0001
0001
,  // measure 25
0001
0100
0101
0110
,  // measure 26
0000
1010
0000
1000
,  // measure 27
0010
0000
0100
0000
0001
0000
0000
1000
,  // measure 28
0001
1000
0001
0000
1000
0000
0100
0000
,  // measure 29
0100
0200
0300
1000
,  // measure 30
0010
0001
0100
1000
,  // measure 31
1100
0001
0101
1001
,  // measure 32
0110
1001
0110
1000
,  // measure 33
0010
0100
0001
0100
,  // measure 34
1000
0000
1001
0000
1000
0000
0001
0001
,  // measure 35
0001
1000
1100
1100
,  // measure 36
0000
0000
0000
0000
,  // measure 37
1000
0010
0100
0001
,  // measure 38
0101
0000
2200
0000
0000
3300
0000
0000
,  // measure 39
1000
0010
0001
0101
,  // measure 40
0110
1010
1001
0000
,  // measure 41
1000
0100
1000
0000
0001
0000
0101
0000
,  // measure 42
0010
1010
0000
1000
,  // measure 43
1100
0000
0001
0000
0101
0000
0010
0100
,  // measure 44
0010
0000
0100
0010
0100
0000
2002
0000
,  // measure 45
0000
0000
3000
0020
,  // measure 46
0000
0000
0000
0000
0033
0000
1000
0100
,  // measure 47
1000
0000
0100
0000
0000
0000
0001
0100
,  // measure 48
0001
0100
0000
0010
,  // measure 49
0010
0100
0100
0110
,  // measure 50
1001
0000
0110
0000
1001
0000
1000
0100
,  // measure 51
1000
0000
0100
0000
1100
0000
0001
0100
,  // measure 52
0001
0000
0100
0000
0101
0000
1000
0001
,  // measure 53
1000
0000
0001
1000
0001
0000
0200
0000
,  // measure 54
0010
0010
0010
0310
;
