#TITLE:Glasses;
#SUBTITLE:;
#ARTIST:Spy47;
#TITLETRANSLIT:;
#SUBTITLETRANSLIT:;
#ARTISTTRANSLIT:;
#GENRE:;
#CREDIT:xRGTMx;
#MENUCOLOR:;
#METERTYPE:DDR;
#BANNER:Glasses.png;
#BACKGROUND:Glasses-bg.png;
#LYRICSPATH:;
#CDTITLE:;
#MUSIC:GLASSES.mp3;
#OFFSET:-0.020;
#SAMPLESTART:79.740;
#SAMPLELENGTH:12.000;
#SELECTABLE:YES;
#LISTSORT:;
#BPMS:0.000=216.000;
#STOPS:;
#BGCHANGES:;
#ATTACKS:;

//---------------dance-single - xRGTMx----------------
#NOTES:
     dance-single:
     xRGTMx:
     Challenge:
     17:
     0.908,0.962,0.109,0.084,0.188: // measure 1
0000
0000
0000
0000
,  // measure 2
0000
0000
0000
0000
,  // measure 3
0000
0000
0000
0000
,  // measure 4
0000
0000
0000
0000
,  // measure 5
0000
0000
0000
0000
,  // measure 6
0000
0000
0000
0000
,  // measure 7
0000
0000
0000
0000
,  // measure 8
0000
0000
0000
0000
,  // measure 9
1000
0000
0100
0000
0001
0100
1000
0000
,  // measure 10
0001
0100
1000
0001
0010
1000
0001
0100
,  // measure 11
1000
0000
0100
0000
0001
1000
0100
0000
,  // measure 12
0001
0100
1000
0001
0010
1000
0001
0100
,  // measure 13
1000
0000
0100
0000
0010
0100
1000
0000
,  // measure 14
0010
0100
0001
0010
0100
1000
0001
0000
,  // measure 15
1001
0000
0100
0000
,  // measure 16
0020
0000
0000
1030
0000
1000
0001
0000
,  // measure 17
0011
0000
0010
0100
0000
0100
1000
0001
,  // measure 18
1000
0000
0000
0000
0010
0000
0000
0000
0100
0000
0000
0000
0001
1000
0001
1000
,  // measure 19
0001
0000
0001
1000
0000
1000
0001
1000
,  // measure 20
0001
0000
0010
0000
1000
0000
0001
0000
0100
0000
1000
0000
0001
0000
1000
0001
,  // measure 21
1000
0000
0010
0100
0000
0100
0001
1000
,  // measure 22
0100
0000
0001
0000
0100
0000
1000
0000
0001
0000
0100
0000
0010
1000
0010
1000
,  // measure 23
0010
0000
0100
0001
0000
0001
1000
0100
,  // measure 24
0001
0000
0100
0000
1000
0000
0001
0000
0100
0000
0010
0100
0010
0000
1000
0010
,  // measure 25
1000
0100
0001
0100
1000
0010
0001
0010
,  // measure 26
1000
0000
0100
0000
0010
0000
0001
0000
0100
0000
0010
0000
1000
0001
1000
0000
,  // measure 27
0001
0100
0010
0001
1000
0100
0010
1000
,  // measure 28
0001
0000
0010
0000
1000
0000
0001
0000
1000
0000
0010
0000
0001
0000
1000
0001
,  // measure 29
1000
0100
0010
0001
0100
0010
1000
0001
,  // measure 30
0100
1000
0100
0001
0010
1000
0010
0001
,  // measure 31
1000
0000
0101
0000
1100
0000
0001
0200
,  // measure 32
0000
0310
0100
0000
0010
1000
0100
0010
,  // measure 33
0001
0000
1000
0100
0001
0100
1000
0100
,  // measure 34
0001
0100
1000
0010
0001
0010
1000
0010
,  // measure 35
0001
0010
1000
0100
0010
0001
1000
0010
,  // measure 36
0100
0001
1000
0100
0001
0100
1000
0010
,  // measure 37
0001
0010
1000
0100
0001
1000
0001
0100
,  // measure 38
1000
0001
1000
0010
0001
1000
0001
0010
,  // measure 39
1000
0001
1000
0100
0010
1000
0010
0100
,  // measure 40
1000
0000
0001
0000
0001
0000
0100
0000
0010
0000
0001
0000
0010
0000
0000
0100
,  // measure 41
0001
1000
1000
0010
0100
1000
0001
0010
,  // measure 42
0100
0001
1000
0100
0010
1000
0001
0100
,  // measure 43
0010
0001
1000
0100
0001
1000
0001
0100
,  // measure 44
1000
0001
1000
0010
0001
1000
0001
0010
,  // measure 45
1000
1000
0001
0100
0010
1000
0001
0010
,  // measure 46
0100
1000
0001
0100
0010
1000
0001
0010
,  // measure 47
0100
1000
0001
0010
0100
0010
0001
1000
,  // measure 48
0010
0100
0020
2000
0000
0000
0030
3010
,  // measure 49
1000
0100
0010
0000
0000
0010
0200
0000
,  // measure 50
0310
0100
0000
1000
0000
1000
0001
0010
,  // measure 51
0100
1000
0002
0000
0000
0203
0010
0000
,  // measure 52
0000
0310
0100
0001
1000
0100
0001
0100
,  // measure 53
1000
0001
2001
0000
0000
0000
3001
0000
,  // measure 54
0100
0010
0000
1000
0000
1000
0100
0001
,  // measure 55
0100
1000
0001
0100
0000
0100
0010
0000
,  // measure 56
0000
0000
1100
0000
0110
0000
0010
0001
,  // measure 57
1000
0001
1000
0100
0010
0100
1000
0010
,  // measure 58
0100
0010
1000
0100
0001
0100
1000
0010
,  // measure 59
0001
0010
0100
0001
0010
0100
0010
0001
,  // measure 60
0100
0010
1000
0100
0010
0100
1000
0010
,  // measure 61
0100
0010
1000
0001
0100
1000
0100
0001
,  // measure 62
1000
0100
0001
0100
1000
0100
0001
0100
,  // measure 63
1000
0100
1000
0100
2000
0000
0000
0000
0000
0000
3100
0000
0020
0000
0000
0000
,  // measure 64
0000
0000
0031
0000
1000
0000
0000
0010
1000
0000
0100
0000
0011
0000
0001
0000
,  // measure 65
1001
1000
0001
0100
1000
0100
0001
0010
,  // measure 66
1000
0010
0001
0100
1000
0100
0001
0010
,  // measure 67
1000
0010
0001
0100
0010
1000
0100
0010
,  // measure 68
0001
1000
0010
0100
0001
1000
0100
0001
,  // measure 69
0100
1000
0010
0100
0001
1000
0100
0010
,  // measure 70
0100
1000
0001
0100
1000
0100
0001
1000
,  // measure 71
0100
0010
1000
0000
0010
0000
0001
0000
,  // measure 72
0100
0010
0000
0010
1000
0000
0100
0010
,  // measure 73
0001
1000
0001
0000
0001
0010
0100
1000
,  // measure 74
0001
0100
0001
0100
0010
1000
0100
0010
,  // measure 75
0100
1000
0001
0001
1000
0010
0100
1000
,  // measure 76
0001
0010
1000
0001
1000
0100
0001
0100
,  // measure 77
1000
0000
0001
0000
0100
0000
0010
0100
0010
0000
1000
0000
0100
0000
0001
0000
,  // measure 78
1000
0010
0001
0100
1000
0001
0010
1000
,  // measure 79
0100
0010
0100
1000
0100
0001
1000
0001
,  // measure 80
0100
1000
0001
1000
0100
0010
0001
0000
,  // measure 81
0011
0000
0000
0010
0100
0000
1000
0100
1000
0000
0100
0000
0001
0000
0100
0000
,  // measure 82
1000
0010
0001
0010
0100
1000
0100
0001
,  // measure 83
0100
1000
0100
0001
0010
0100
1000
0001
,  // measure 84
0100
0000
1000
0000
0100
0000
0001
0000
1000
0000
0100
0000
0010
0000
0100
1000
,  // measure 85
0100
0000
1001
0000
1000
1000
0001
0001
,  // measure 86
1000
1000
0001
0001
0100
0100
0010
0010
,  // measure 87
0100
0100
0010
0010
1000
0100
0010
0001
,  // measure 88
0010
0100
1000
0001
1000
0000
0101
0000
,  // measure 89
1000
0100
1000
0100
0010
0100
0010
0100
1000
0000
0100
0000
0010
0000
0100
0000
,  // measure 90
1000
0000
0001
0000
0100
0000
0010
0100
0010
0000
0100
0000
0001
0000
1000
0000
,  // measure 91
0100
0000
0010
0000
0100
1000
0100
1000
0100
0000
1000
0000
0001
0000
0100
0000
,  // measure 92
1000
0000
0100
0000
0001
0010
0000
0010
0100
0000
1000
0000
0100
0000
0001
0000
,  // measure 93
0100
0000
1000
0100
1000
0000
0001
0100
0001
0000
0100
0000
1000
0000
0100
0000
,  // measure 94
0001
0000
1000
0000
0100
0000
0001
0100
1000
0000
0100
0000
0010
0000
0100
0000
,  // measure 95
1000
0000
0010
0000
0100
0001
0100
0001
0100
0000
0010
0000
0100
0000
1000
0000
,  // measure 96
0100
0000
0010
0000
0100
0000
0001
0000
0100
0000
1000
0000
0001
0000
0010
1000
,  // measure 97
0100
0000
0100
0010
0001
0000
0100
0010
1000
0000
0010
0000
0100
0000
0010
0000
,  // measure 98
1000
0000
0001
0000
0010
0000
0100
0010
0100
0000
0010
0000
0001
0000
1000
0000
,  // measure 99
0010
0000
0100
0000
0010
1000
0010
1000
0010
0000
1000
0000
0001
0000
0010
0000
,  // measure 100
1000
0000
0010
0000
0001
0100
0000
0100
0010
0000
1000
0000
0010
0000
0001
0000
,  // measure 101
0010
0000
1000
0010
1000
0000
0001
0010
0001
0000
0010
0000
1000
0000
0010
0000
,  // measure 102
0001
0000
1000
0000
0010
0000
0001
0010
1000
0000
0010
0000
0100
0000
0010
0000
,  // measure 103
1000
0000
0100
0000
0010
0001
0010
0001
0010
0000
0100
0000
0010
0000
1000
0000
,  // measure 104
0010
0000
0100
0000
0010
0000
0001
0000
0010
0000
0001
0010
0001
0000
0010
0000
,  // measure 105
0100
1000
0100
0010
0011
0000
0000
0000
;

//---------------dance-single - xRGTMx----------------
#NOTES:
     dance-single:
     xRGTMx:
     Hard:
     15:
     0.843,0.787,0.276,0.151,0.008: // measure 1
0000
0000
0000
0000
,  // measure 2
0000
0000
0000
0000
,  // measure 3
0000
0000
0000
0000
,  // measure 4
0000
0000
0000
0000
,  // measure 5
0000
0000
0000
0000
,  // measure 6
0000
0000
0000
0000
,  // measure 7
0000
0000
0000
0000
,  // measure 8
0000
0000
0000
0000
,  // measure 9
1000
0000
0100
0000
0010
0100
1000
0000
,  // measure 10
0010
1000
0010
1000
0001
0100
0001
0100
,  // measure 11
1000
0000
0100
0000
0001
1000
0100
0000
,  // measure 12
0010
0100
0010
0100
1000
0100
1000
0100
,  // measure 13
0010
0000
0100
0000
1000
0100
0010
0000
,  // measure 14
0001
0010
0100
1000
0001
0100
1000
0000
,  // measure 15
0100
0000
0001
0000
,  // measure 16
2100
0000
0000
0010
3000
0010
0100
0000
,  // measure 17
0110
0000
0100
0001
0000
0001
1000
0100
,  // measure 18
0001
0000
0100
0000
1000
0001
0100
1000
,  // measure 19
0001
0000
1000
0100
0000
0001
1000
0100
,  // measure 20
0010
0100
1000
0001
0100
1000
0100
0001
,  // measure 21
1000
0000
0100
0010
0000
0010
0100
1000
,  // measure 22
0001
0100
1000
0100
0001
0010
0100
1000
,  // measure 23
0001
0000
0001
0100
0000
0100
0010
1000
,  // measure 24
0100
0000
0000
0000
0011
0000
0000
0000
1000
0000
0000
0000
0001
1000
0001
1000
,  // measure 25
0001
0000
0100
0010
1000
0000
0100
0010
,  // measure 26
0001
0100
0010
1000
0100
0000
0010
0100
,  // measure 27
1000
0000
0001
0100
1000
0000
0100
0001
,  // measure 28
1000
0100
0010
0100
1000
0010
0100
0010
,  // measure 29
1000
0000
0010
0100
0001
0010
1000
0001
,  // measure 30
0100
1000
0001
0010
1000
0001
0100
1000
,  // measure 31
0001
1100
0012
0000
,  // measure 32
0103
0110
2001
0001
,  // measure 33
0001
0000
3001
0010
0100
1000
0010
0100
,  // measure 34
0001
1000
0100
0010
0001
0100
0010
1000
,  // measure 35
0001
1000
0100
0001
0100
1000
0010
0001
,  // measure 36
0010
1000
0100
0010
0100
1000
0100
0000
,  // measure 37
1001
0000
1000
0010
0001
0010
1000
0100
,  // measure 38
0001
0100
1000
0010
0100
0001
1000
0100
,  // measure 39
0010
0100
1000
0100
0001
1000
0001
0100
,  // measure 40
1000
0001
1000
0010
0001
1000
0001
0010
,  // measure 41
1000
0000
0001
0010
0100
0001
0100
0010
,  // measure 42
0001
0100
1000
0100
0010
1000
0010
0100
,  // measure 43
1000
0100
0001
1000
0100
0001
0100
1000
,  // measure 44
0001
0100
1000
0100
0001
1000
0100
0010
,  // measure 45
0110
0000
0010
0100
1000
0100
0010
0100
,  // measure 46
1000
0100
0010
0001
0010
0100
0010
0001
,  // measure 47
0010
0100
0010
0001
0100
0010
1000
0100
,  // measure 48
0010
0001
2000
0002
0000
3000
0000
1003
,  // measure 49
0010
1000
0001
0000
0000
0001
1000
0000
,  // measure 50
1000
0010
0000
0110
0000
0010
0100
0001
,  // measure 51
1000
0100
0020
0000
0000
0130
2000
0000
,  // measure 52
0000
3010
0100
0001
1000
0100
0001
0100
,  // measure 53
1000
0001
1002
0000
0000
0000
1003
0000
,  // measure 54
0010
0100
0000
0100
0001
0100
1000
0100
,  // measure 55
0001
0010
0200
0000
0000
1000
2000
0000
,  // measure 56
0000
3300
1100
0000
0110
0000
0011
0010
,  // measure 57
0001
0001
1000
0100
1000
0100
0010
0100
,  // measure 58
0010
0100
0010
0001
0010
0001
1000
0001
,  // measure 59
1000
0001
1000
0010
1000
0010
0100
0010
,  // measure 60
0100
0010
0100
0001
0100
0001
1000
0001
,  // measure 61
1000
0001
1000
0100
0010
0001
0100
0010
,  // measure 62
1000
0001
1000
0010
0100
0001
0010
0100
,  // measure 63
1000
0001
0200
0000
0000
0000
0320
0000
,  // measure 64
0000
0000
2030
0000
3002
0000
2003
3002
,  // measure 65
2003
3002
1003
0000
1100
0000
0100
0010
,  // measure 66
0110
0000
0001
0000
0101
0000
0100
0010
,  // measure 67
0110
0000
1000
0000
1010
0000
0010
0100
,  // measure 68
0110
0000
0001
0000
0011
0000
0010
0100
,  // measure 69
0110
0000
1000
0100
0010
0100
1000
0100
,  // measure 70
0110
0000
0001
0100
0010
0100
0001
0100
,  // measure 71
0110
1000
0110
1001
,  // measure 72
0110
0000
1000
0001
0000
0001
1000
0000
,  // measure 73
0110
0000
1001
0000
1000
0010
0100
0001
,  // measure 74
0100
1000
0100
1000
0100
0001
0100
0001
,  // measure 75
0100
0001
0010
0100
1000
0010
0100
0001
,  // measure 76
1000
0010
1000
0010
0001
0010
0001
0010
,  // measure 77
1000
0100
0010
0001
1000
0100
0001
0100
,  // measure 78
1000
0100
0001
0100
1000
0010
0001
0010
,  // measure 79
1000
0010
0001
0010
1000
0100
0010
0100
,  // measure 80
1000
0010
0100
0010
1000
0100
0010
0001
,  // measure 81
0100
0010
1000
0001
0100
0010
0100
0001
,  // measure 82
0100
1000
0100
0010
0100
0001
0100
1000
,  // measure 83
0100
0010
0100
0001
0010
0100
0010
1000
,  // measure 84
0010
0100
0010
0001
0010
0100
0010
1000
,  // measure 85
0010
0100
0010
0001
1000
0100
0001
0100
,  // measure 86
1000
0010
0100
0001
1000
0010
0001
0010
,  // measure 87
1000
0100
0010
0100
1000
0001
0100
1000
,  // measure 88
0100
0001
1000
0100
0010
0000
0100
0000
,  // measure 89
0110
0000
1001
0000
1000
0100
0010
0100
,  // measure 90
1000
0000
1000
0100
0001
0100
1000
0010
,  // measure 91
0001
0010
1000
0000
0001
0100
0010
0100
,  // measure 92
0001
0000
0001
0100
1000
0100
0001
0010
,  // measure 93
1000
0010
0001
0000
1000
0100
0010
0100
,  // measure 94
1000
0000
0001
0100
1000
0100
0001
1000
,  // measure 95
0100
0010
0001
0000
1000
0010
0100
0010
,  // measure 96
1000
0000
1000
0010
0001
0010
1000
0100
,  // measure 97
0001
0100
1000
0000
0010
0100
0010
1000
,  // measure 98
0100
0010
0100
1000
0010
0100
0010
1000
,  // measure 99
0100
0010
0001
0100
0010
0100
0001
0010
,  // measure 100
0100
0010
0001
0100
0010
1000
0100
0001
,  // measure 101
0100
1000
0010
0001
0010
0100
0001
0010
,  // measure 102
0100
0001
1000
0010
0100
1000
0001
0010
,  // measure 103
0100
0001
1000
0100
0010
0001
1000
0010
,  // measure 104
0100
0001
1000
0100
0010
0000
1001
0000
,  // measure 105
0100
0100
0010
0010
1001
0000
0000
0000
;

//---------------dance-single - xRGTMx----------------
#NOTES:
     dance-single:
     xRGTMx:
     Medium:
     12:
     0.653,0.656,0.586,0.335,0.000: // measure 1
0000
0000
0000
0000
,  // measure 2
0000
0000
0000
0000
,  // measure 3
0000
0000
0000
0000
,  // measure 4
0000
0000
0000
0000
,  // measure 5
0000
0000
0000
0000
,  // measure 6
0000
0000
0000
0000
,  // measure 7
0000
0000
0000
0000
,  // measure 8
0000
0000
0000
0000
,  // measure 9
0001
0100
0010
0110
,  // measure 10
0010
0000
1000
0000
0100
0010
0100
0000
,  // measure 11
0010
0001
1000
1001
,  // measure 12
1000
0000
0100
0000
0010
0100
1000
0000
,  // measure 13
1001
1000
0001
0100
,  // measure 14
0010
0100
0010
0100
0001
1000
0001
0000
,  // measure 15
1002
0000
1000
0000
,  // measure 16
0203
0000
0000
0010
0000
0000
0310
0000
,  // measure 17
1010
0000
0000
1000
0000
0100
0010
0000
,  // measure 18
0011
0110
1100
1002
,  // measure 19
1003
0000
0000
0100
0000
0001
0100
0000
,  // measure 20
1010
0000
0110
0000
0100
0000
0010
0200
,  // measure 21
0301
0000
0000
0011
0000
0000
0010
0100
,  // measure 22
0010
0100
1000
0002
,  // measure 23
1003
0000
0000
0110
0000
0000
1001
0000
,  // measure 24
1000
0000
0100
0000
0010
0200
0310
0002
,  // measure 25
0013
0000
0100
1000
0010
0000
0100
0000
,  // measure 26
0010
0100
1001
2000
,  // measure 27
3001
0000
0100
0010
1000
0000
0100
0000
,  // measure 28
0010
0100
1000
0100
1000
0000
1001
0000
,  // measure 29
1000
0000
0100
0000
0010
0000
0100
1000
,  // measure 30
0000
0010
0100
0000
0001
0000
1000
0001
,  // measure 31
1000
0100
0012
0000
,  // measure 32
0103
0010
2002
0000
,  // measure 33
0003
0000
3001
0000
0010
0100
0000
1000
,  // measure 34
0100
0010
0001
0101
,  // measure 35
0110
0000
0010
0000
1000
0100
0000
0001
,  // measure 36
0100
1000
1010
0101
,  // measure 37
0001
0000
1000
0000
0100
0010
0000
0100
,  // measure 38
1000
0001
0100
1100
,  // measure 39
0101
0000
1000
0000
0001
0010
0000
1000
,  // measure 40
0010
0002
0203
2300
,  // measure 41
3200
0000
0301
0000
0010
0100
1000
0000
,  // measure 42
0010
0100
0110
1001
,  // measure 43
1000
0000
0001
0000
0010
0100
1000
0000
,  // measure 44
0010
0000
0100
0010
1000
0100
0010
0000
,  // measure 45
0110
0100
1000
1001
,  // measure 46
1000
0001
0000
0100
0000
0100
0010
0000
,  // measure 47
0100
0001
0000
0000
1000
0001
1000
0000
,  // measure 48
0001
0000
0200
0020
0000
0000
0300
0000
,  // measure 49
1030
2001
0000
0001
,  // measure 50
0000
3200
0000
0000
0010
0000
0320
0000
,  // measure 51
0032
2003
0000
3002
,  // measure 52
0000
0103
0010
1000
,  // measure 53
0001
1002
0000
0013
,  // measure 54
0100
1000
0000
0010
0000
0100
0001
0000
,  // measure 55
1000
0000
1001
0000
0000
1000
0001
0000
,  // measure 56
0000
0110
0110
1001
,  // measure 57
1001
0000
1000
0000
0000
0100
0010
0000
,  // measure 58
0000
0011
0100
1000
,  // measure 59
0001
0000
0100
0000
0010
0100
0001
0000
,  // measure 60
0010
0000
0100
0000
0010
0000
0000
0001
,  // measure 61
0010
0100
1000
0000
1000
0000
0001
0000
,  // measure 62
0001
0100
0100
0010
,  // measure 63
0020
0130
0000
0010
,  // measure 64
0000
0000
0110
0000
1001
0000
2000
3002
,  // measure 65
2003
3002
1003
0000
0100
0000
0110
0000
,  // measure 66
0010
0001
0100
0110
,  // measure 67
0010
1000
1100
0011
,  // measure 68
2100
0000
0000
0000
0000
3001
0000
0001
,  // measure 69
1000
0000
1001
0000
0000
1000
0000
0001
,  // measure 70
0100
0000
0110
0000
0000
0010
0000
1000
,  // measure 71
0100
0012
0103
2010
,  // measure 72
0000
3100
0110
2002
,  // measure 73
0000
0000
3000
0000
1003
0000
0100
0010
,  // measure 74
0000
0001
0010
0000
0100
0000
1000
0000
,  // measure 75
1010
0000
0110
0000
0100
0000
0001
0010
,  // measure 76
0000
1000
0010
0000
0001
0000
0101
0000
,  // measure 77
1010
0000
1000
0000
0001
0000
0010
0100
,  // measure 78
0000
0010
0001
0000
1000
0000
0010
0000
,  // measure 79
0011
0000
1010
0000
0001
0000
1000
0100
,  // measure 80
0000
0001
0100
0000
2000
0000
3020
0000
,  // measure 81
0032
0000
0023
0000
1030
0000
0100
0010
,  // measure 82
0001
0100
0010
0110
,  // measure 83
1001
0000
0001
0000
1000
0000
0100
0010
,  // measure 84
0001
0000
0100
0000
0010
0100
0001
0010
,  // measure 85
0100
0110
0010
0001
,  // measure 86
1001
0000
0001
1000
0000
0010
0000
0010
,  // measure 87
0100
0000
0010
1000
0000
0000
0001
1000
,  // measure 88
0001
0000
1000
0000
0010
1000
0001
0100
,  // measure 89
0010
1000
0100
0000
0010
0000
1100
0000
,  // measure 90
1001
0000
1000
0001
0100
0001
0010
0001
,  // measure 91
0100
0001
0011
1100
,  // measure 92
0010
0000
0100
0010
1000
0001
0100
0010
,  // measure 93
0100
0001
1000
0001
1000
0000
0001
0000
,  // measure 94
0101
0000
0001
0000
2000
0100
3100
0000
,  // measure 95
0012
0000
0103
0000
0010
0000
0100
0001
,  // measure 96
0010
0001
0100
0000
0010
1000
0100
0001
,  // measure 97
1000
0000
0011
0000
0001
0100
1000
0100
,  // measure 98
0001
0000
0100
1000
0001
0000
0010
1000
,  // measure 99
0100
0000
0010
0100
0010
0100
1000
0100
,  // measure 100
1000
0001
0110
0110
,  // measure 101
1001
0000
1001
0000
1000
0001
0100
0000
,  // measure 102
0010
0001
0100
1000
0000
0100
0001
0000
,  // measure 103
1000
0000
0010
0100
0000
0001
0010
0000
,  // measure 104
0100
1000
0100
0000
0010
0000
0001
0100
,  // measure 105
0010
1000
0100
0010
0001
0000
0000
0000
;

//---------------dance-single - xRGTMx----------------
#NOTES:
     dance-single:
     xRGTMx:
     Easy:
     9:
     0.428,0.481,0.192,0.109,0.000: // measure 1
0000
0000
0000
0000
,  // measure 2
0000
0000
0000
0000
,  // measure 3
0000
0000
0000
0000
,  // measure 4
0000
0000
0000
0000
,  // measure 5
0000
0000
0000
0000
,  // measure 6
0000
0000
0000
0000
,  // measure 7
0000
0000
0000
0000
,  // measure 8
0000
0000
0000
0000
,  // measure 9
1000
1000
0001
0001
,  // measure 10
0100
0100
0010
0010
,  // measure 11
0100
0100
0001
0001
,  // measure 12
1000
1000
0100
0100
,  // measure 13
0010
0001
0100
1000
,  // measure 14
0001
0010
1000
0100
,  // measure 15
0020
0000
0031
0000
,  // measure 16
0012
0000
0000
0100
0000
0000
0103
0000
,  // measure 17
0110
0000
0000
0010
0000
0000
1000
0000
,  // measure 18
0001
0010
0100
1000
,  // measure 19
1001
0000
0000
1000
0000
0000
0001
0000
,  // measure 20
0100
0100
0010
0010
,  // measure 21
0110
0000
0000
0100
0000
0000
0001
0000
,  // measure 22
0010
1000
0001
0100
,  // measure 23
1000
0000
0000
0001
0000
0000
1000
0000
,  // measure 24
0100
0010
0011
1100
,  // measure 25
0001
0100
0010
1000
,  // measure 26
0001
0010
0100
1000
,  // measure 27
0001
0001
0100
0100
,  // measure 28
1000
0100
0001
1001
,  // measure 29
1000
1000
0100
0100
,  // measure 30
0010
0010
0001
0001
,  // measure 31
1000
0000
0110
0000
,  // measure 32
1001
0000
0220
0000
,  // measure 33
0330
0010
0010
1000
,  // measure 34
1000
0100
0100
0010
,  // measure 35
0100
1000
1000
0001
,  // measure 36
0001
0100
0010
1000
,  // measure 37
0001
1000
1000
0100
,  // measure 38
0100
0010
0010
0100
,  // measure 39
0100
0010
0010
0100
,  // measure 40
0100
1000
0100
0010
,  // measure 41
0001
0001
0001
0100
,  // measure 42
0100
1000
1000
0100
,  // measure 43
0100
0001
0010
0100
,  // measure 44
1000
0001
1000
0001
,  // measure 45
0001
0010
0010
0001
,  // measure 46
0001
0100
0100
0010
,  // measure 47
0010
0100
0001
1000
,  // measure 48
0100
0020
0000
0030
,  // measure 49
0000
1000
0000
1000
,  // measure 50
0000
0001
0000
0001
,  // measure 51
0000
0100
0000
0100
,  // measure 52
0000
0010
0000
0010
,  // measure 53
0000
2002
0000
0000
,  // measure 54
0000
3003
0000
0100
,  // measure 55
0000
0200
0000
0310
,  // measure 56
0000
0010
0010
0010
,  // measure 57
0010
1000
0000
1001
,  // measure 58
0000
0001
1000
0001
,  // measure 59
1000
0100
0000
0110
,  // measure 60
0000
0100
1000
0010
,  // measure 61
0100
0001
0000
1000
,  // measure 62
0000
0001
0010
0100
,  // measure 63
1000
0002
0000
1003
,  // measure 64
0000
0010
0000
2000
,  // measure 65
3002
1003
0000
0100
,  // measure 66
0000
0001
0000
0010
,  // measure 67
0000
1000
0000
0100
,  // measure 68
0000
0001
0000
0010
,  // measure 69
0000
1000
1000
1000
,  // measure 70
0000
0100
0010
0001
,  // measure 71
0000
0100
0000
0110
,  // measure 72
0000
1001
0000
0220
,  // measure 73
0000
0330
0100
0100
,  // measure 74
0001
0001
0010
0010
,  // measure 75
0100
0010
0001
0001
,  // measure 76
1000
1000
0010
0100
,  // measure 77
0001
1000
0001
0001
,  // measure 78
0010
0010
0100
0100
,  // measure 79
0010
0010
0100
0100
,  // measure 80
0010
0010
0001
0010
,  // measure 81
0100
1000
1000
1000
,  // measure 82
0010
0010
0001
0001
,  // measure 83
0010
0010
1000
0100
,  // measure 84
0010
0001
1000
0001
,  // measure 85
1000
1000
0100
0100
,  // measure 86
1000
1000
0010
0010
,  // measure 87
0100
0100
0010
1000
,  // measure 88
0001
0010
0100
0000
,  // measure 89
1001
0000
0000
0000
1000
0000
0000
1000
,  // measure 90
0000
1000
0001
0010
,  // measure 91
0100
0000
1000
0000
0100
0000
0000
0010
,  // measure 92
0000
0100
0010
0001
,  // measure 93
0010
0000
1000
0000
0100
0000
0000
0001
,  // measure 94
0000
0001
1000
0001
,  // measure 95
0010
0000
0100
0000
1000
0000
0000
0001
,  // measure 96
0000
1000
0010
0100
,  // measure 97
0110
0000
0000
0000
0100
0000
0000
0001
,  // measure 98
0000
0000
1000
0000
0001
0000
0000
0100
,  // measure 99
0000
0010
1000
0001
,  // measure 100
1000
0001
0100
0010
,  // measure 101
0110
0000
0010
1000
,  // measure 102
0001
0010
0100
1000
,  // measure 103
0001
0001
0010
0100
,  // measure 104
0110
0100
1000
0001
,  // measure 105
1001
1001
0110
0000
;

//---------------dance-single - xRGTMx----------------
#NOTES:
     dance-single:
     xRGTMx:
     Beginner:
     4:
     0.271,0.393,0.109,0.084,0.000: // measure 1
0000
0000
0000
0000
,  // measure 2
0000
0000
0000
0000
,  // measure 3
0000
0000
0000
0000
,  // measure 4
0000
0000
0000
0000
,  // measure 5
0000
0000
0000
0000
,  // measure 6
0000
0000
0000
0000
,  // measure 7
0000
0000
0000
0000
,  // measure 8
0000
0000
0000
0000
,  // measure 9
1000
0000
0000
0000
,  // measure 10
0001
0000
0001
0000
,  // measure 11
0100
0000
0000
0000
,  // measure 12
0010
0000
0010
0000
,  // measure 13
0010
0000
0000
0000
,  // measure 14
0100
0000
0100
0000
,  // measure 15
0001
0000
0000
0000
,  // measure 16
2002
0000
3003
0000
,  // measure 17
1000
0000
0000
1000
,  // measure 18
1000
0000
0001
0000
,  // measure 19
0100
0000
0000
0100
,  // measure 20
0100
0000
0010
0000
,  // measure 21
1000
0000
0000
0100
,  // measure 22
0100
0000
0010
0000
,  // measure 23
0001
0000
0000
0001
,  // measure 24
0001
0000
0010
0000
,  // measure 25
0100
0000
1000
0000
,  // measure 26
0001
0000
1000
0000
,  // measure 27
0010
0010
0010
0000
,  // measure 28
0010
0010
0010
0000
,  // measure 29
0100
0000
0001
0000
,  // measure 30
1000
0000
0100
0000
,  // measure 31
0010
0000
0000
0000
,  // measure 32
2002
0000
3003
0000
,  // measure 33
0000
1000
0000
1000
,  // measure 34
0000
0001
0000
0001
,  // measure 35
0000
0100
0000
0100
,  // measure 36
0000
0010
0000
0010
,  // measure 37
0000
1000
0000
1000
,  // measure 38
0000
0100
0000
0100
,  // measure 39
0000
0010
0000
0010
,  // measure 40
0000
0001
0000
0001
,  // measure 41
0000
1000
1000
1000
,  // measure 42
0000
0001
0000
0001
,  // measure 43
0000
0100
0100
0100
,  // measure 44
0000
0010
0000
0010
,  // measure 45
0000
1000
1000
1000
,  // measure 46
0000
0100
0000
0100
,  // measure 47
0000
0010
0010
0010
,  // measure 48
0000
0002
0000
0003
,  // measure 49
0000
1000
0000
1000
,  // measure 50
0000
0100
0000
0000
,  // measure 51
0000
0010
0000
0010
,  // measure 52
0000
0001
0000
0000
,  // measure 53
0000
2002
3003
0000
,  // measure 54
0000
0010
0000
0010
,  // measure 55
0000
0010
0000
0000
,  // measure 56
0000
0110
0000
1001
,  // measure 57
0000
1000
0000
1000
,  // measure 58
0000
0001
0001
0001
,  // measure 59
0000
0100
0000
0100
,  // measure 60
0000
0010
0010
0010
,  // measure 61
0000
1000
0000
0100
,  // measure 62
0000
0010
0010
0010
,  // measure 63
0000
0001
0000
1000
,  // measure 64
0000
0010
0000
0020
,  // measure 65
0000
0130
0000
0100
,  // measure 66
0000
0001
0000
0001
,  // measure 67
0000
0010
0000
0010
,  // measure 68
0000
0100
0000
0100
,  // measure 69
0000
1000
0000
0001
,  // measure 70
0000
1000
0000
0001
,  // measure 71
0000
0100
0000
0000
,  // measure 72
0000
2002
0000
3003
,  // measure 73
0000
0000
1000
0000
,  // measure 74
1000
0000
0001
0000
,  // measure 75
0001
0000
0100
0000
,  // measure 76
0100
0000
0010
0000
,  // measure 77
0010
0000
1000
0000
,  // measure 78
1000
0000
0100
0000
,  // measure 79
0100
0000
0010
0000
,  // measure 80
0010
0000
0001
0000
,  // measure 81
0001
0000
1000
1000
,  // measure 82
1000
0000
0001
0000
,  // measure 83
0001
0000
0100
0100
,  // measure 84
0100
0000
0010
0000
,  // measure 85
0010
0000
1000
1000
,  // measure 86
1000
0000
0100
0000
,  // measure 87
0100
0000
0010
0010
,  // measure 88
0010
0000
0001
0000
,  // measure 89
1000
0000
0001
0001
,  // measure 90
0001
0000
0100
0100
,  // measure 91
0100
0000
0010
0010
,  // measure 92
0010
0000
1000
1000
,  // measure 93
1000
0000
0001
0001
,  // measure 94
0001
0000
0010
0010
,  // measure 95
0010
0000
0100
0100
,  // measure 96
0100
0000
1000
1000
,  // measure 97
1000
0000
0010
0010
,  // measure 98
0010
0010
0010
0000
,  // measure 99
0110
0000
0100
0100
,  // measure 100
0100
0100
0100
0000
,  // measure 101
0110
0000
1000
0000
,  // measure 102
0001
0000
0100
0000
,  // measure 103
0010
0000
1001
0000
,  // measure 104
0110
0000
1001
0000
,  // measure 105
0110
0000
1001
0000
;
