#TITLE:GIVE ME EVERYTHING;
#SUBTITLE:;
#ARTIST:PITBULL feat. NE-YO, AFROJACK & NAYER;
#TITLETRANSLIT:;
#SUBTITLETRANSLIT:;
#ARTISTTRANSLIT:;
#CREDIT:Chewi☆;
#BANNER:GIVE ME EVERYTHING.png;
#BACKGROUND:GIVE ME EVERYTHING-bg.png;
#LYRICSPATH:;
#CDTITLE:cdtitle.png;
#MUSIC:GIVE ME EVERYTHING.mp3;
#OFFSET:-0.061;
#SAMPLESTART:44.731;
#SAMPLELENGTH:15.000;
#SELECTABLE:YES;
#DISPLAYBPM:129.000;
#BPMS:0.000=129.000;
#STOPS:;
#BGCHANGES:;

//---------------dance-single - Chewi----------------
#NOTES:
     dance-single:
     Chewi:
     Beginner:
     1:
     0.105,0.150,0.042,0.050,0.000:
0000
0000
0000
0000
,
0000
0000
0000
0000
,
0000
0000
0000
0000
,
0000
0000
0000
0000
,
1000
0000
0000
0000
,
1000
0000
0000
0000
,
0001
0000
0000
0000
,
0001
0000
0000
0000
,
0020
0000
0000
0030
,
0010
0000
0000
0000
,
0002
0000
0000
0003
,
0001
0000
0000
0000
,
0200
0000
0000
0300
,
0100
0000
0000
0000
,
0002
0000
0000
0003
,
0001
0000
0000
0000
,
1000
0000
0000
0000
,
0001
0000
0000
0000
,
0100
0000
0000
0000
,
0010
0000
0000
0000
,
1000
0000
0000
0000
,
0001
0000
0000
0000
,
0010
0000
0000
0000
,
1001
0000
0000
0000
,
1000
0000
0000
0000
,
1000
0000
0001
0000
,
0100
0000
0000
0000
,
0010
0000
0100
0000
,
0010
0000
0000
0000
,
1000
0000
0010
0000
,
0100
0000
0000
0000
,
0001
0000
0100
0000
,
0002
0000
0000
0003
,
0001
0000
0001
0000
,
0200
0000
0000
0300
,
0100
0000
0100
0000
,
1000
0000
0000
0000
,
1000
0000
0001
0000
,
0010
0000
0000
0000
,
0001
0000
0010
0000
,
0110
0000
0000
0000
,
1001
0000
0000
0000
,
0110
0000
0000
0000
,
1001
0000
0000
0000
,
0010
0000
0010
0000
,
0010
0000
0000
0000
,
0001
0000
0001
0000
,
0001
0000
0000
0000
,
0100
0000
0100
0000
,
0100
0000
0000
0000
,
1000
0000
1000
0000
,
1000
0000
0000
0000
,
0001
0000
0100
0000
,
1000
0000
1000
0000
,
0100
0000
0100
0000
,
0010
0000
0010
0000
,
0010
0000
0010
0000
,
1000
0000
1000
0000
,
1000
0000
0100
0000
,
0001
0000
0100
0000
,
0010
0000
0000
0000
;

//---------------dance-single - Chewi----------------
#NOTES:
     dance-single:
     Chewi:
     Easy:
     3:
     0.194,0.225,0.058,0.133,0.000:
0000
0000
0000
0000
,
0000
0000
0000
0000
,
0000
0000
0000
0000
,
0000
0000
0000
0000
,
1000
0000
0100
0000
,
1000
0000
0100
0000
,
0001
0000
0100
0000
,
0001
0000
0100
0000
,
0020
0000
0000
0030
,
0200
0000
0000
0300
,
0002
0000
0000
0003
,
2000
0000
0000
3000
,
0200
0000
0000
0300
,
0020
0000
0000
0030
,
0002
0000
0000
0003
,
0200
0000
0000
0300
,
1000
1000
1000
0000
,
0001
0001
0001
0000
,
0100
0100
0100
0000
,
0010
0010
0010
0000
,
1000
1000
0100
0000
,
0001
0001
0100
0000
,
0010
0100
0010
0000
,
1001
0000
0000
0000
,
1000
1000
1000
0000
,
2000
0000
3002
0000
,
0103
0100
0100
0000
,
0020
0000
0230
0000
,
0310
0010
0010
0000
,
2000
0000
3020
0000
,
0130
0100
0100
0000
,
0001
0010
0100
1000
,
0002
0000
0000
0003
,
0001
1000
0010
0100
,
0200
0000
0000
0300
,
0110
0000
0000
0000
,
1000
1000
1000
0000
,
1000
0100
0001
0000
,
0010
0010
0010
0000
,
0001
1000
0010
0000
,
0110
0000
1000
0000
,
0001
1000
0001
0000
,
1000
0000
0100
0000
,
1001
0000
0000
0000
,
0110
0000
0010
0000
,
0010
0001
0100
0010
,
1001
0000
0001
0000
,
0001
1000
0010
0100
,
0110
0000
0100
0000
,
0010
1000
0100
0010
,
0001
0000
0001
0000
,
0001
1000
0010
0100
,
0001
1000
0001
0000
,
1000
0010
1000
0010
,
0100
0001
0010
0000
,
0010
0100
0010
0100
,
0010
0001
1000
0000
,
1000
0100
0010
0100
,
1000
0010
0100
0000
,
0001
0001
0100
0100
,
0010
0000
0000
0000
;

//---------------dance-single - ----------------
#NOTES:
     dance-single:
     :
     Medium:
     7:
     0.284,0.324,0.125,0.150,0.000: // measure 1
0000
0000
0000
0000
,  // measure 2
0000
0000
0000
0000
,  // measure 3
0000
0000
0000
0000
,  // measure 4
0000
0000
0000
0000
,  // measure 5
1000
1000
1000
1000
,  // measure 6
0001
0001
0001
0001
,  // measure 7
0100
0100
0100
0100
,  // measure 8
0010
0010
0010
0010
,  // measure 9
0020
0000
0000
0000
,  // measure 10
2030
0000
0000
0000
,  // measure 11
3200
0000
0000
0000
,  // measure 12
0302
0000
0000
0000
,  // measure 13
0203
0000
0000
0000
,  // measure 14
2300
0000
0000
0000
,  // measure 15
3020
0000
0000
0000
,  // measure 16
0230
0000
0000
0000
,  // measure 17
0301
0000
0000
0001
0000
0000
0001
0000
,  // measure 18
1000
0000
0000
1000
0000
0000
1000
0000
,  // measure 19
0100
0000
0000
0100
0000
0000
0100
0000
,  // measure 20
0010
0000
0000
0010
0000
0000
0010
0000
,  // measure 21
0001
0010
0100
1100
,  // measure 22
1000
0100
0010
0001
,  // measure 23
1000
0001
1000
1001
,  // measure 24
0100
0000
0000
0000
0000
0100
0100
0000
,  // measure 25
0010
0100
0010
0100
,  // measure 26
0002
0023
0230
2300
,  // measure 27
3100
1000
0010
1000
,  // measure 28
2000
3002
0203
0320
,  // measure 29
0000
0130
0000
0001
0000
0100
0000
0010
,  // measure 30
0000
1000
0000
0100
0000
0010
0000
0001
,  // measure 31
0000
1000
0000
1100
0000
0001
0000
0101
,  // measure 32
0100
0100
0010
0010
,  // measure 33
1000
0000
0010
0000
1000
0010
1000
0000
,  // measure 34
0001
0010
0100
1000
,  // measure 35
0001
0000
0010
0000
0001
0010
0001
0000
,  // measure 36
1001
0000
0000
0101
,  // measure 37
0100
0000
0100
0000
0100
0010
0100
0000
,  // measure 38
0010
1000
0100
1100
,  // measure 39
1000
0000
0100
0000
0010
0001
0010
0000
,  // measure 40
0001
0100
0010
0110
,  // measure 41
0020
0100
0100
0130
,  // measure 42
0100
0010
0100
0000
0010
0100
0010
0000
,  // measure 43
0020
1000
0100
1030
,  // measure 44
1000
0000
0000
0001
,  // measure 45
0001
0011
1000
1010
,  // measure 46
0001
1000
0001
0000
1000
0001
1000
0000
,  // measure 47
0001
0100
0010
1000
,  // measure 48
0001
0010
0100
1000
,  // measure 49
0001
0101
1000
1100
,  // measure 50
0010
0000
0010
0000
0100
0010
0100
0000
,  // measure 51
0100
0010
0001
0100
,  // measure 52
1000
0100
0001
0100
,  // measure 53
0010
0010
0010
0000
1000
1000
1000
0000
,  // measure 54
0010
0001
0010
1000
,  // measure 55
0100
1100
0100
0101
,  // measure 56
0100
0000
0100
0000
0100
0100
0100
0000
,  // measure 57
0010
0000
1000
0000
0010
0001
0100
0000
,  // measure 58
0010
0001
0100
1000
,  // measure 59
0010
0000
1000
0000
0100
0001
0100
0000
,  // measure 60
1000
1000
0001
0001
,  // measure 61
1001
0000
0000
0000
;

//---------------dance-single - ----------------
#NOTES:
     dance-single:
     :
     Hard:
     9:
     0.370,0.424,0.083,0.083,0.008:
0000
0000
0000
0000
,
0000
0000
0000
0000
,
0000
0000
0000
0000
,
0000
0000
0000
0000
,
1000
0100
1000
0100
,
0001
0010
0001
0010
,
0001
0100
0001
0100
,
1000
0010
1000
0010
,
0100
0000
0100
0000
0100
0010
0100
0000
,
0010
0000
0010
0000
0010
0100
0010
0000
,
1000
0000
0010
0000
0100
0001
0010
0000
,
0001
0000
0010
0000
0100
1000
0010
0000
,
1000
0100
0010
0001
,
1000
0100
0010
0001
,
0001
0100
0010
1000
,
0001
0100
0010
1000
,
0002
0000
0010
0000
0100
0100
0103
0000
,
0100
0010
1000
1001
,
2000
0000
0100
0000
0010
0010
3010
0000
,
0010
0100
0001
1001
,
0001
0010
0001
0000
1000
0100
1000
0000
,
0001
1000
0001
1001
,
1000
0010
1000
0000
0001
0100
0001
0000
,
1000
0000
0000
0000
0000
0000
0000
0000
0001
1000
0001
1000
0001
0000
0000
0000
,
0101
0100
0101
0001
,
0020
0230
2300
3020
,
1030
1010
0001
0011
,
0020
0230
2300
3002
,
1003
0100
1000
0100
0001
0100
0001
0100
,
1000
0100
1000
0100
0001
0100
0001
0100
,
1000
0001
1000
0001
0100
0010
0100
0010
,
0010
0100
0010
0100
0010
1000
0010
1000
,
0010
0000
1000
0000
0100
1000
0010
0000
,
0100
0001
0010
1000
,
0100
0000
0001
0000
0010
0001
0100
0000
,
0110
0000
0000
0010
,
0100
0010
0100
0000
0001
0100
0010
0000
,
1000
0100
0010
0001
,
0010
0001
0010
0000
0010
0100
0010
0000
,
0001
0100
1000
0010
,
0100
0000
0100
0000
1000
0100
0010
0000
,
0001
1000
0001
0101
,
0001
0000
0100
0000
0010
1000
0001
0000
,
1000
0100
0010
0011
,
0001
1000
0001
0000
1000
0001
1000
0000
,
0010
0010
0100
0100
,
0001
0100
0010
0000
1000
0010
0100
0000
,
0001
0001
1000
1000
,
1000
0100
1000
0000
0001
0010
0001
0000
,
0010
0100
1000
0001
,
1000
0100
0010
0000
0001
0010
0100
0000
,
0010
0001
0100
1000
,
0010
0100
0010
0000
0100
0010
0100
0000
,
0010
0001
0100
0001
0010
0001
0100
0001
,
0100
0010
0100
0000
0010
0100
0010
0000
,
0010
1000
0100
1000
0010
1000
0100
1000
,
0010
1000
0100
0000
0010
0001
0100
0000
,
0010
0100
0001
0100
0010
0100
1000
0100
,
0010
1000
0100
0000
0010
0001
0100
0000
,
0010
0100
0001
1000
0100
0010
0001
1000
,
0001
0000
0000
0000
;
