#TITLE:Friday;
#SUBTITLE:;
#ARTIST:Rebecca Black;
#TITLETRANSLIT:;
#SUBTITLETRANSLIT:;
#ARTISTTRANSLIT:;
#GENRE:;
#CREDIT:Chewi☆;
#MENUCOLOR:#FFFF00;
#METERTYPE:DDR X;
#BANNER:Friday.png;
#BACKGROUND:Friday-bg.png;
#LYRICSPATH:;
#CDTITLE:./CDTITLES/DanceDanceRevolution skyMIX2 -FREEDOM-.png;
#MUSIC:Friday.mp3;
#OFFSET:-0.280;
#SAMPLESTART:45.271;
#SAMPLELENGTH:15.000;
#SELECTABLE:YES;
#LISTSORT:;
#DISPLAYBPM:112.000;
#BPMS:0.000=112.010;
#STOPS:;
#BGCHANGES:0.000=Friday.avi=1.000=1=0=0,
180.000=Friday-bg.png=1.000=1=0=1,
99999=-nosongbg-=1.000=0=0=0 // don't automatically add -songbackground-
;
#ATTACKS:;

//---------------dance-single - Chewi----------------
#NOTES:
     dance-single:
     Chewi:
     Easy:
     4:
     0.209,0.264,0.136,0.184,0.000:
0000
0000
0000
0000
,
0000
0000
0000
0000
,
0000
0000
0000
0000
,
0000
0000
0000
0000
,
2000
0000
0000
3000
,
0100
0010
0100
0000
,
0002
0000
0000
0003
,
0010
0100
0010
0000
,
1000
0000
0100
0000
,
0010
0000
1000
0000
,
0100
0000
0001
0000
,
1000
0000
1001
0000
,
0001
0000
0100
0000
,
0010
0000
0001
0000
,
0100
0000
1000
0000
,
0001
0000
1001
0000
,
0010
0100
0020
0030
,
0100
0010
0200
0300
,
0001
0000
1000
0000
,
0001
0100
1000
0010
,
0020
0000
0000
0030
,
0010
0110
0010
0110
,
1000
0100
0001
0100
,
0000
1000
0001
1000
,
1001
0000
1001
0000
,
1000
1001
0001
1001
,
0010
0100
0100
0010
,
0000
0001
1000
0001
,
2000
3020
2030
3020
,
0230
0000
0000
0310
,
0020
0000
0000
0130
,
1000
0001
1000
0001
,
1000
0100
0001
0010
,
1000
1001
1000
1001
,
0100
0001
0010
0001
,
0000
0100
0010
0100
,
0110
0000
0110
0000
,
0100
0110
0010
0110
,
1000
0001
0001
1000
,
0000
0010
0100
0010
,
0200
2300
3200
2300
,
3002
0000
0000
1003
,
2000
0000
0000
3001
,
0100
0010
0100
0010
,
0100
0001
0010
2000
,
0002
3003
0000
0000
;

//---------------dance-single - Chewi----------------
#NOTES:
     dance-single:
     Chewi:
     Medium:
     6:
     0.297,0.329,0.223,0.233,0.000:
0000
0000
0000
0000
,
0000
0000
0000
0000
,
0000
0000
0000
0000
,
0000
0000
0000
0000
,
1000
0010
0100
0001
,
1000
0100
0001
0010
,
1000
0010
0100
0001
,
0010
1000
0100
0001
,
0010
0010
0010
0000
0100
0000
0110
0000
,
0001
1000
0001
0000
0100
0010
0100
0000
,
0010
0000
1100
0000
1000
0100
0001
0000
,
0010
0000
0101
0000
0001
0100
1000
0000
,
0001
1000
0001
0000
0010
0000
0010
0000
,
0100
0001
0010
0100
,
1000
0000
0001
1000
,
0010
0100
0020
0030
,
0010
1000
1010
0011
,
0001
0100
0101
1100
,
0001
1000
0001
1000
,
0010
0000
0000
0100
0000
0001
0000
2000
,
0000
0000
0000
3000
,
1001
1001
0010
0010
,
0100
0100
0100
0000
0100
0000
0100
0000
,
0000
1000
0010
0001
,
0020
0032
0023
0032
,
0013
0010
1001
1001
,
0100
0010
1000
0000
0100
0100
0100
0000
,
0000
0001
0010
1000
,
0200
2300
3020
0230
,
0302
0000
0000
1000
0000
0000
1003
0000
,
2000
0000
0000
0001
0000
0000
3001
0000
,
0110
0110
1001
1001
,
0001
0010
0100
1000
0010
0000
0100
0000
,
1001
1001
0100
0100
,
0010
0010
0010
0000
0010
0000
0010
0000
,
0000
0001
0100
1000
,
0200
2300
3200
2300
,
3100
0100
1001
1001
,
0010
0100
0001
0000
0010
0010
0010
0000
,
0000
1000
0100
0001
,
0020
0032
0203
0320
,
2030
0000
0000
0001
0000
0000
3001
0000
,
0002
0000
0000
1000
0000
0000
1003
0000
,
0110
0110
1001
1001
,
1000
0100
0010
0001
0100
0000
0020
0000
,
0200
0330
0000
0000
;

//---------------dance-single - Chewi----------------
#NOTES:
     dance-single:
     Chewi:
     Hard:
     9:
     0.413,0.373,0.311,0.136,0.000:
0000
0000
0000
0000
,
0000
0000
0000
0000
,
0000
0000
0000
0000
,
0000
0000
0000
0000
,
1000
0010
0100
0001
0000
0010
0001
0100
,
0000
0010
1000
0100
0000
1000
0001
1000
,
0000
0002
0000
0000
0000
0000
0000
0000
,
2000
0000
0000
3003
,
0010
0100
0001
0010
0100
1000
0010
0100
,
0010
1000
0100
0010
1000
0100
0010
0000
,
0001
0010
0100
1000
0001
0100
0010
1000
,
0001
1000
0100
0010
0001
1000
0010
0100
,
0001
0010
0001
0100
0001
0010
0001
0100
,
0010
1000
0100
1000
0010
1000
0100
1000
,
0010
0100
0001
1000
0100
0010
0001
1000
,
0010
0010
0010
0020
0000
0000
0030
0000
,
0010
1000
0100
0010
0011
0000
1010
0000
,
0010
0001
0100
1000
1100
0000
0101
0000
,
1000
0001
0100
0010
1000
0001
0010
0000
,
0100
0001
0100
1000
0010
0001
0010
1000
,
0020
0000
0000
0130
,
2010
3100
0012
0103
,
0010
0100
0001
1000
0100
0010
0100
0000
,
0010
0001
0100
0000
0010
1000
0100
0000
,
0001
1000
0001
1000
1000
0001
1000
0001
,
0102
0013
2100
3010
,
1000
0100
0001
0010
0100
0010
0001
0000
,
0100
0010
1000
0001
0010
0100
1000
0001
,
1001
0101
1001
1010
,
0010
1000
0100
1000
0010
0100
0101
0000
,
0010
0001
0100
0001
0010
0100
1100
0000
,
1001
0110
1001
0110
,
0010
1000
0100
0001
0010
0001
0100
1000
,
0102
0013
2100
3010
,
0100
0010
1000
0001
0010
0100
0010
0000
,
0100
1000
0010
0000
0100
0001
0010
0000
,
1000
0001
1000
0001
0001
1000
0001
1000
,
2010
3100
0012
0103
,
0001
0010
1000
0100
0010
0100
1000
0000
,
0010
0100
0001
1000
0100
0010
0001
1000
,
1001
1010
1001
0101
,
0100
0001
0010
0001
0100
0010
1010
0000
,
0100
1000
0010
1000
0100
0010
0011
0000
,
1001
0110
1001
0110
,
0100
0001
0010
1000
0100
1000
0010
0002
,
0200
0303
0000
0000
;

//---------------dance-single - Chewi----------------
#NOTES:
     dance-single:
     Chewi:
     Beginner:
     2:
     0.112,0.132,0.000,0.146,0.000:
0000
0000
0000
0000
,
0000
0000
0000
0000
,
0000
0000
0000
0000
,
0000
0000
0000
0000
,
2000
0000
0000
3000
,
1000
0000
0000
0000
,
0002
0000
0000
0003
,
0001
0000
0000
0000
,
0010
0000
0000
0000
,
0100
0000
0000
0000
,
0010
0000
0000
0000
,
0100
0000
0000
0000
,
1000
0000
0000
0000
,
0001
0000
0000
0000
,
1000
0000
0000
0000
,
0001
0000
0000
0000
,
0020
0000
0000
0030
,
0200
0000
0000
0300
,
2000
0000
0000
3000
,
0002
0000
0000
0003
,
0001
0000
0000
0000
,
0010
0000
0010
0000
,
0100
0100
0100
0000
,
1000
0000
0001
0000
,
0010
0000
0100
0000
,
0010
0000
0010
0000
,
0100
0100
0100
0000
,
0001
0000
0001
0000
,
1000
0000
1000
0000
,
2000
0000
0000
3000
,
0002
0000
0000
0003
,
0100
0100
0100
0000
,
0010
0000
1000
0000
,
0002
0000
0000
0003
,
2000
0000
0000
3000
,
0001
0001
0001
0000
,
0100
0000
0010
0000
,
0020
0000
0000
0030
,
0200
0000
0000
0300
,
0100
0000
0010
0000
,
1000
1000
1000
0000
,
2000
0000
0000
3000
,
0200
0000
0000
0300
,
0010
0010
0010
0000
,
0001
0001
0001
0001
,
0002
0003
0000
0000
;
