#TITLE:フレッシュでクールでキュートでクラッシュなジーパンでデジャヴュ;
#SUBTITLE:;
#ARTIST:高井俊輔;
#TITLETRANSLIT:Fresh De Cool De Cute De Crash Na Zi-pan De Dejavu;
#SUBTITLETRANSLIT:;
#ARTISTTRANSLIT:Shunsuke Takai;
#GENRE:;
#CREDIT:Chewi☆;
#MENUCOLOR:;
#METERTYPE:DDR X;
#BANNER:Fresh De Cool De Cute De Crash Na Zi-pan De Dejavu.png;
#BACKGROUND:Fresh De Cool De Cute De Crash Na Zi-pan De Dejavu-bg.png;
#LYRICSPATH:;
#CDTITLE:;
#MUSIC:Fresh De Cool De Cute De Crash Na Zi-pan De Dejavu.mp3;
#OFFSET:-0.526;
#SAMPLESTART:56.776;
#SAMPLELENGTH:15.000;
#SELECTABLE:YES;
#LISTSORT:;
#DISPLAYBPM:128.000;
#BPMS:0.000=128.000;
#STOPS:;
#BGCHANGES:;
#ATTACKS:;

//---------------dance-single - Chewi----------------
#NOTES:
     dance-single:
     Chewi:
     Beginner:
     2:
     0.110,0.154,0.010,0.114,0.000:
0000
0000
0000
0000
,
0000
0000
0000
0000
,
0000
0000
0000
0000
,
0000
0000
0000
0000
,
2000
0000
0000
3000
,
1000
0000
1000
0000
,
0002
0000
0000
0000
,
0000
0003
0001
0000
,
0200
0000
0000
0000
,
0000
0300
0100
0000
,
0020
0000
0000
0000
,
0000
0030
0010
0000
,
1000
0000
1000
0000
,
0001
0000
0001
0000
,
1000
0000
1000
0000
,
0001
0000
0001
0000
,
0100
0000
0100
0000
,
0010
0000
0010
0000
,
0100
0000
0100
0000
,
0010
0000
0010
0000
,
1000
0000
1000
1000
,
0000
0000
0000
0000
,
0001
0000
0000
0001
,
0001
0000
0000
0000
,
0010
0000
0010
0000
,
0100
0000
0100
0000
,
0010
0000
0001
0000
,
0010
0000
0100
0000
,
1000
0000
0000
0000
,
0000
0000
1001
0000
,
2000
0000
0000
0000
,
0000
0000
3000
0000
,
0002
0000
0000
0000
,
0000
0000
0003
0000
,
0200
0000
0000
0000
,
0000
0000
0300
0000
,
0020
0000
0000
0000
,
0000
0000
0030
0000
,
0010
0000
0010
0000
,
0010
0010
0010
0000
,
1000
0000
0001
0000
,
1000
0000
0001
0000
,
0100
0000
0100
0000
,
0100
0100
0100
0000
,
0010
0000
0100
0000
,
0010
0000
0100
0000
,
0200
0000
0000
0000
,
0000
0000
0000
0300
,
0020
0000
0000
0000
,
0000
0000
0000
0030
,
2000
0000
0000
0000
,
0000
0000
0000
3000
,
0002
0000
0000
0000
,
0000
0000
0000
0003
,
0001
0000
0000
0000
;

//---------------dance-single - Chewi----------------
#NOTES:
     dance-single:
     Chewi:
     Easy:
     4:
     0.218,0.265,0.095,0.057,0.000:
0000
0000
0000
0000
,
0000
0000
0000
0000
,
0000
0000
0000
0000
,
0000
0000
0000
0000
,
2000
0000
3100
0000
,
0100
0010
0100
0000
,
0020
0000
0031
0000
,
0001
1000
0001
0000
,
0100
0000
0100
0000
,
0010
0000
0010
0000
,
1000
0000
1000
0000
,
0001
0000
0001
0000
,
0020
0000
0130
0000
,
0100
0010
0100
0000
,
0200
0000
1300
0000
,
1000
0100
1000
0000
,
1000
0000
0001
0000
,
0100
0000
0010
0000
,
1000
0000
1000
0000
,
0001
0000
0001
0000
,
0001
0010
0100
1000
,
0100
0000
0000
0000
,
1000
0100
0001
0100
,
1000
0000
0000
0000
,
1000
0100
0010
0001
,
1000
0000
0001
0000
,
0001
1000
0010
0100
,
0010
0000
0010
0000
,
0110
0000
0000
0000
,
0000
0000
0110
0110
,
0100
0100
0100
0100
,
0010
0010
0010
0000
,
1000
1000
1000
1000
,
1001
0000
1001
0000
,
0001
0001
0001
0001
,
1000
1000
1000
0000
,
0100
0100
0100
0100
,
0010
0010
0010
0010
,
0001
0001
1000
1000
,
0001
1000
1001
0000
,
0100
0100
0010
0010
,
0100
0010
0110
0000
,
0010
0010
1000
1000
,
0100
0010
0001
0000
,
0001
0001
0010
0010
,
0100
1000
0010
0000
,
1000
0000
1001
0000
,
1000
0001
1000
0000
,
0001
0000
1001
0000
,
0001
1000
0001
0000
,
0010
0010
0010
0010
,
0100
0100
0100
0100
,
0010
0010
0010
0010
,
0001
0001
0001
0001
,
2002
0000
0000
0000
,
0000
0000
3003
0000
;

//---------------dance-single - Chewi----------------
#NOTES:
     dance-single:
     Chewi:
     Medium:
     7:
     0.262,0.291,0.076,0.010,0.000:
0000
0000
0000
0000
,
0000
0000
0000
0000
,
0000
0000
0000
0000
,
0000
0000
0000
0000
,
1000
0100
0010
1000
,
0100
0000
0010
0100
0010
0000
0000
0000
,
0010
0001
0100
0010
,
0001
0100
0010
0000
,
0001
0010
0100
1000
,
0001
0010
0100
1000
,
0010
1000
0010
0000
1000
0000
0100
0000
,
0010
0001
0010
0001
0010
0000
0000
0000
,
0001
0010
0100
0001
,
0010
0000
1000
0100
0010
0000
0000
0000
,
0001
0010
0100
1000
,
0001
1000
0010
0000
,
1000
0010
1000
0000
0100
0000
0010
0000
,
0001
0010
0100
0000
1000
0000
0001
0000
,
1000
0010
0100
1000
,
0010
0100
0001
1000
,
0001
0000
0000
1000
0000
0000
1001
0000
,
0000
0000
0000
0000
,
1000
0100
0010
0001
,
0010
0000
0000
0000
,
0001
0010
1000
0100
,
0001
0010
1000
0010
,
0001
0010
1000
0100
,
0001
0010
1000
0100
,
0100
0000
0000
0000
,
0000
0000
1100
0101
,
0100
0000
0100
0100
,
0100
0010
0110
0000
,
0010
0010
0010
0000
,
1000
0001
1001
0000
,
1000
1000
1000
0000
,
1000
0100
1100
0000
,
0100
0010
0001
0000
,
0001
0010
0011
0000
,
0001
1000
0001
1000
,
0010
0100
0010
0100
0010
0000
0000
0000
,
0100
0010
1000
0001
,
0010
0100
1000
0000
,
1000
0100
0010
0100
,
1000
0100
1000
0100
1000
0000
0000
0000
,
0001
0100
0110
1000
,
0001
0000
1000
0000
,
1000
0100
0001
0010
,
1000
0100
0001
0100
,
1000
0001
0100
1000
,
0010
0001
0100
0010
,
0001
0100
0010
1000
,
0100
0010
1000
0100
,
0010
0001
0100
0010
,
1000
0000
1000
0000
0001
1000
0001
1000
,
0002
0000
0000
0000
,
0000
0000
0000
0000
0000
0000
0000
0000
0000
0000
0000
0000
0000
0000
0000
0000
0000
0000
0000
0000
0000
0000
0000
0000
0000
0000
0000
0000
0000
0000
0000
0000
0000
0000
0000
0000
0000
0000
0000
0000
0000
0000
0000
0000
0000
0000
0000
0000
0000
0000
0000
0000
0000
0000
0000
0000
0000
0000
0000
0000
0000
0000
0000
0000
0000
0000
0000
0000
0000
0000
0000
0000
0000
0000
0000
0000
0000
0000
0000
0000
0000
0000
0000
0000
0000
0000
0000
0000
0000
0000
0000
0000
0000
0000
0000
0000
0000
0003
0000
0000
0000
0000
0000
0000
0000
0000
0000
0000
0000
0000
0000
0000
0000
0000
0000
0000
0000
0000
0000
0000
0000
0000
0000
0000
0000
0000
0000
0000
0000
0000
0000
0000
0000
0000
0000
0000
0000
0000
0000
0000
0000
0000
0000
0000
0000
0000
0000
0000
0000
0000
0000
0000
0000
0000
0000
0000
0000
0000
0000
0000
0000
0000
0000
0000
0000
0000
0000
0000
0000
0000
0000
0000
0000
0000
0000
0000
0000
0000
0000
0000
0000
0000
0000
0000
0000
0000
0000
0000
0000
0000
0000
0000
;

//---------------dance-single - Chewi----------------
#NOTES:
     dance-single:
     Chewi:
     Hard:
     10:
     0.383,0.397,0.067,0.210,0.048: // measure 1
0000
0000
0000
0000
,  // measure 2
0000
0000
0000
0000
,  // measure 3
0000
0000
0000
0000
,  // measure 4
0000
0000
0000
0000
,  // measure 5
1000
1100
0001
0101
,  // measure 6
1000
0000
0001
1000
0002
0000
0003
0000
,  // measure 7
1000
1010
0001
0011
,  // measure 8
0010
0000
0100
0010
0002
0000
0003
0000
,  // measure 9
0002
0000
0013
0000
0100
1000
0100
0000
,  // measure 10
2000
0000
3010
0000
1000
0010
1000
0000
,  // measure 11
0020
0000
0130
0000
0001
1000
0100
0000
,  // measure 12
2000
0000
3100
0000
0010
0001
0100
0000
,  // measure 13
0001
1000
0001
0000
2000
0000
3001
0000
,  // measure 14
1000
0100
0010
0001
0020
0000
0030
0000
,  // measure 15
0001
0010
0001
0000
0020
0000
0130
0000
,  // measure 16
1000
0100
1000
0010
2000
0000
3000
0000
,  // measure 17
0010
0100
0010
0000
0200
0000
0310
0000
,  // measure 18
1000
0100
0010
0000
0002
0000
0013
0000
,  // measure 19
0001
0100
0010
0000
2000
0000
3001
0000
,  // measure 20
0010
0100
1000
0000
2000
0000
3010
0000
,  // measure 21
1000
0010
0100
0001
0000
0100
0002
0000
,  // measure 22
0000
0000
0000
0003
,  // measure 23
1000
0100
0010
0001
0000
1000
0100
1000
,  // measure 24
0020
0000
0000
0030
,  // measure 25
1000
0001
0100
0010
0000
0100
0010
1000
,  // measure 26
0000
0100
0010
0001
0010
0100
1000
0000
,  // measure 27
1000
0000
0100
0010
0000
0000
0001
1000
,  // measure 28
0010
0100
0001
0010
0000
0100
1000
0000
,  // measure 29
2002
0000
0000
0000
,  // measure 30
0000
3003
1100
0101
,  // measure 31
0100
0000
0000
0100
0000
0000
0100
0000
0010
0000
0000
0010
0000
0000
0010
0000
,  // measure 32
1000
0000
0000
1000
0000
0000
1000
0000
1000
0000
0000
0000
0000
0000
0000
0000
,  // measure 33
0001
0000
0000
1000
0000
0000
0001
0000
1000
0000
0000
0100
0000
0000
1000
0000
,  // measure 34
0200
0000
0000
0010
0020
0000
0330
0000
,  // measure 35
0100
0000
0000
0100
0000
0000
0100
0000
0010
0000
0000
0010
0000
0000
0010
0000
,  // measure 36
0001
0000
0000
0001
0000
0000
0001
0000
0001
0000
0000
0000
0000
0000
0000
0000
,  // measure 37
1000
0000
0000
0001
0000
0000
1000
0000
0010
0000
0000
1000
0000
0000
0100
0000
,  // measure 38
0020
0000
0000
0030
,  // measure 39
0001
0010
0100
0000
1000
0010
0100
0000
,  // measure 40
0001
1000
0001
1000
0100
0000
0000
0000
,  // measure 41
1000
0100
0010
0000
0001
0100
0010
0000
,  // measure 42
0100
0010
0100
0010
1000
0000
0000
0000
,  // measure 43
0001
0010
0100
0000
1000
0010
0100
0000
,  // measure 44
0010
0100
0001
1000
0100
0000
0000
0000
,  // measure 45
0010
0100
1000
0000
0001
0010
0100
0000
,  // measure 46
1000
0010
0100
0001
0100
0000
0000
0000
,  // measure 47
0001
1000
0100
0000
1000
0001
0100
0000
,  // measure 48
0010
0100
0001
0010
0100
1000
0010
0000
,  // measure 49
1000
0100
0010
0000
0001
0010
0100
0000
,  // measure 50
1000
0001
1000
0001
0100
0010
0100
0010
,  // measure 51
1000
0010
0100
0000
0001
0100
0010
0000
,  // measure 52
1000
0100
0010
0001
0010
0001
0010
0000
,  // measure 53
0001
0010
0100
0000
1000
0100
0010
0000
,  // measure 54
0001
1000
0001
1000
0010
0100
0001
0100
,  // measure 55
0020
0000
0000
0000
,  // measure 56
0000
0000
0030
0000
;
