#VERSION:0.83;
#TITLE:Free Somebody;
#SUBTITLE:;
#ARTIST:루나;
#TITLETRANSLIT:;
#SUBTITLETRANSLIT:;
#ARTISTTRANSLIT:LUNA;
#GENRE:Pop;
#ORIGIN:;
#CREDIT:chewi;
#BANNER:Free Somebody.png;
#BACKGROUND:Free Somebody-bg.png;
#PREVIEWVID:;
#JACKET:Free Somebody-jacket.png;
#CDIMAGE:;
#DISCIMAGE:;
#LYRICSPATH:;
#CDTITLE:cdtitle.png;
#MUSIC:Free Somebody.ogg;
#OFFSET:-0.012989;
#SAMPLESTART:83.472000;
#SAMPLELENGTH:15.000000;
#SELECTABLE:YES;
#BPMS:0.000=115.000,
64.000=57.500,
80.000=115.000;
#STOPS:140.000=1.024;
#DELAYS:;
#WARPS:;
#TIMESIGNATURES:0.000=4=4;
#TICKCOUNTS:0.000=4;
#COMBOS:0.000=1;
#SPEEDS:0.000=1.000=0.000=0;
#SCROLLS:0.000=1.000;
#FAKES:;
#LABELS:0.000=Song Start;
#BGCHANGES:;
#KEYSOUNDS:;
#ATTACKS:
;

//---------------dance-single - ----------------
#NOTEDATA:;
#CHARTNAME:;
#STEPSTYPE:dance-single;
#DESCRIPTION:;
#CHARTSTYLE:;
#DIFFICULTY:Beginner;
#METER:1;
#RADARVALUES:0.071021,0.129584,0.032600,0.065200,0.000000,61.000000,57.000000,4.000000,8.000000,0.000000,0.000000,0.000000,0.000000,0.000000,0.071021,0.129584,0.032600,0.065200,0.000000,61.000000,57.000000,4.000000,8.000000,0.000000,0.000000,0.000000,0.000000,0.000000;
#CREDIT:;
#NOTES:
0000
0000
0000
0000
,
0000
0000
0000
0000
,
0000
0000
0000
0000
,
0000
0000
0000
0000
,
2000
0000
0000
3000
,
1000
0000
0000
0000
,
0002
0000
0000
0003
,
0001
0000
0000
0000
,
0100
0000
0000
0000
,
0100
0000
0000
0000
,
0010
0000
0000
0000
,
0010
0000
0000
0000
,
0100
0000
0000
0000
,
0100
0000
0000
0000
,
0001
0000
0000
0000
,
0001
0000
0000
0000
,
1001
0000
0000
0000
,
0100
0000
0000
0000
,
1001
0000
0000
0000
,
0010
0000
0000
0000
,
0020
0000
0000
0030
,
0010
0000
0000
0000
,
0200
0000
0000
0300
,
0100
0000
0000
0000
,
0010
0000
0000
0000
,
0100
0000
0000
0000
,
0001
0000
0000
0000
,
1000
0000
0000
0000
,
2000
0000
0000
3000
,
1000
0000
0000
0000
,
0002
0000
0000
0003
,
0001
0000
0000
0000
,
1000
0000
0000
0000
,
0001
0000
0000
0000
,
1000
0000
0000
0000
,
0000
0000
0020
0000
,
0000
0030
0010
0000
,
0000
0000
1000
0000
,
0000
0000
0001
0000
,
0000
0000
0200
0000
,
0000
0300
0100
0000
,
0000
0000
0001
0000
,
0000
0000
1000
0000
,
0000
0000
1000
1000
,
1000
0000
1000
0000
,
0000
0000
0001
0001
,
0001
0000
0001
0000
,
0000
0000
0100
0100
,
0100
0000
0100
0000
,
0000
0000
0010
0010
,
0010
0000
0010
0000
,
0000
0000
0110
0000
,
0000
0000
0000
0000
,
0110
0000
0000
0000
;

//---------------dance-single - ----------------
#NOTEDATA:;
#CHARTNAME:;
#STEPSTYPE:dance-single;
#DESCRIPTION:;
#CHARTSTYLE:;
#DIFFICULTY:Easy;
#METER:3;
#RADARVALUES:0.109442,0.194377,0.048900,0.162999,0.000000,94.000000,88.000000,6.000000,20.000000,0.000000,0.000000,0.000000,0.000000,0.000000,0.109442,0.194377,0.048900,0.162999,0.000000,94.000000,88.000000,6.000000,20.000000,0.000000,0.000000,0.000000,0.000000,0.000000;
#CREDIT:;
#NOTES:
// measure 0
0000
0000
0000
0000
,  // measure 1
0000
0000
0000
0000
,  // measure 2
0000
0000
0000
0000
,  // measure 3
0000
0000
0000
0000
,  // measure 4
2000
0000
0000
3000
,  // measure 5
1000
0000
0100
0000
,  // measure 6
0020
0000
0000
0030
,  // measure 7
0010
0000
0001
0000
,  // measure 8
0001
0000
1000
0000
,  // measure 9
0001
1000
0010
0000
,  // measure 10
1000
0000
0001
0000
,  // measure 11
0010
0100
1000
0000
,  // measure 12
0001
0000
0100
0000
,  // measure 13
0010
1000
0001
0000
,  // measure 14
1000
0001
0100
0000
,  // measure 15
0001
1000
0100
0000
,  // measure 16
0220
0000
0000
0000
,  // measure 17
0000
0000
0000
0330
,  // measure 18
2002
0000
0000
0000
,  // measure 19
0000
0000
0000
3003
,  // measure 20
2000
0000
0000
3000
,  // measure 21
0020
0000
0000
0030
,  // measure 22
2000
0000
0000
3000
,  // measure 23
1000
0010
1000
0010
,  // measure 24
0200
0000
0000
0300
,  // measure 25
0002
0000
0000
0003
,  // measure 26
0100
0001
0100
0001
,  // measure 27
0001
1000
0001
0000
,  // measure 28
2002
0000
0000
0000
,  // measure 29
0000
0000
0000
3003
,  // measure 30
0220
0000
0000
0000
,  // measure 31
0000
0000
0000
0330
,  // measure 32
2002
0000
0000
0000
,  // measure 33
0000
0000
0000
3003
,  // measure 34
0220
0000
0000
0000
,  // measure 35
0330
0000
0100
0100
,  // measure 36
0100
0100
0100
0000
,  // measure 37
0000
0000
0100
0001
,  // measure 38
1000
0000
0100
1000
,  // measure 39
0001
0000
0010
0010
,  // measure 40
0010
0010
0010
0000
,  // measure 41
0000
0000
0010
0001
,  // measure 42
1000
0000
0010
1000
,  // measure 43
0001
0000
1000
0000
,  // measure 44
0100
0000
0001
0000
,  // measure 45
0100
0000
1000
0000
,  // measure 46
0100
0000
0001
0000
,  // measure 47
0010
0000
1000
0000
,  // measure 48
0010
0000
0001
0000
,  // measure 49
0010
0000
1000
0000
,  // measure 50
0010
0000
0001
0000
,  // measure 51
0100
0000
2000
0000
,  // measure 52
0000
0000
0000
0000
,  // measure 53
3000
0000
0000
0000
;

//---------------dance-single - ----------------
#NOTEDATA:;
#CHARTNAME:;
#STEPSTYPE:dance-single;
#DESCRIPTION:;
#CHARTSTYLE:;
#DIFFICULTY:Medium;
#METER:6;
#RADARVALUES:0.207242,0.280766,0.065200,0.244499,0.000000,178.000000,170.000000,8.000000,30.000000,0.000000,0.000000,0.000000,0.000000,0.000000,0.207242,0.280766,0.065200,0.244499,0.000000,178.000000,170.000000,8.000000,30.000000,0.000000,0.000000,0.000000,0.000000,0.000000;
#CREDIT:;
#NOTES:
// measure 0
0000
0000
0000
0000
,  // measure 1
0000
0000
0000
0000
,  // measure 2
0000
0000
0000
0000
,  // measure 3
0000
0000
0000
0000
,  // measure 4
1000
0010
0100
1000
,  // measure 5
0100
0000
0010
0000
1000
1000
1000
0000
,  // measure 6
0001
0010
0100
0001
,  // measure 7
0100
0000
0010
0000
0001
0001
0001
0000
,  // measure 8
1001
0100
1001
0010
,  // measure 9
1000
0010
0100
0000
0001
0100
0010
0000
,  // measure 10
2000
3200
0320
0032
,  // measure 11
0013
0100
1000
0000
0010
0100
0001
0000
,  // measure 12
1001
0100
1001
0010
,  // measure 13
0100
0010
1000
0000
0010
0100
0001
0000
,  // measure 14
0002
0203
0320
2030
,  // measure 15
3001
1000
0001
1000
0001
0000
1000
0000
,  // measure 16
2002
0000
3003
0000
,  // measure 17
0100
0000
0000
0000
,  // measure 18
0220
0000
0330
0000
,  // measure 19
0010
0000
0000
0000
,  // measure 20
1000
0000
0010
0000
0100
0010
1000
0000
,  // measure 21
0100
0010
0001
1000
,  // measure 22
0001
0000
0010
0000
0100
0010
0001
0000
,  // measure 23
0100
0010
1000
0001
,  // measure 24
1001
0000
1000
0001
0100
0000
0100
0000
,  // measure 25
0010
0010
0100
0100
,  // measure 26
0001
0000
1000
0001
0010
0000
0100
0000
,  // measure 27
1000
1000
0010
0010
,  // measure 28
0200
0000
0000
0000
,  // measure 29
0302
0000
0000
0000
,  // measure 30
0023
0000
0000
0000
,  // measure 31
2030
0000
0000
0000
,  // measure 32
3200
0000
0000
0000
,  // measure 33
0302
0000
0000
0000
,  // measure 34
0023
0000
0000
0000
,  // measure 35
0030
0000
0002
0203
,  // measure 36
2300
3200
0302
0003
,  // measure 37
0000
0000
0001
0000
1000
0001
0010
0000
,  // measure 38
0010
0000
0000
0000
0001
1000
0010
0000
,  // measure 39
0010
0000
2000
3020
,  // measure 40
0032
0023
2030
3000
,  // measure 41
0000
0000
1000
0000
0001
1000
0100
0000
,  // measure 42
0100
0000
0000
0000
1000
0001
0100
0000
,  // measure 43
0100
0000
0001
0100
,  // measure 44
0010
0100
0001
0000
0010
0000
0100
0000
,  // measure 45
1000
0001
1000
0100
,  // measure 46
0010
0100
1000
0000
0010
0000
0100
0000
,  // measure 47
0001
0000
1000
0000
1001
0000
0001
1000
,  // measure 48
0010
0010
0100
0100
,  // measure 49
0010
0000
0010
0000
1000
0000
0001
1000
,  // measure 50
0100
0010
0001
0001
,  // measure 51
0100
0100
0200
0000
,  // measure 52
0000
0000
0000
0000
,  // measure 53
0300
0000
0000
0000
;

//---------------dance-single - ----------------
#NOTEDATA:;
#CHARTNAME:;
#STEPSTYPE:dance-single;
#DESCRIPTION:;
#CHARTSTYLE:;
#DIFFICULTY:Hard;
#METER:9;
#RADARVALUES:0.302713,0.345558,0.138549,0.211899,0.073350,260.000000,243.000000,17.000000,26.000000,0.000000,0.000000,0.000000,0.000000,0.000000,0.302713,0.345558,0.138549,0.211899,0.073350,260.000000,243.000000,17.000000,26.000000,0.000000,0.000000,0.000000,0.000000,0.000000;
#CREDIT:;
#NOTES:
// measure 0
0000
0000
0000
0000
,  // measure 1
0000
0000
0000
0000
,  // measure 2
0000
0000
0000
0000
,  // measure 3
0000
0000
0000
0000
,  // measure 4
1000
0000
0000
0000
0100
0000
0000
0100
0000
0000
0100
0000
0000
0100
0000
0000
,  // measure 5
0010
0000
0000
0000
0001
0000
0000
0001
0000
0000
0001
0000
0000
0001
0000
0000
,  // measure 6
0100
0000
0000
0000
0010
0000
0000
0010
0000
0000
0010
0000
0000
0010
0000
0000
,  // measure 7
0100
0000
0001
0000
1000
0001
1001
0000
,  // measure 8
1000
0000
0000
0010
0000
0000
1000
0000
0000
0010
0000
0000
1000
0000
1000
0000
,  // measure 9
0001
0000
0010
0000
0100
1000
0001
0010
,  // measure 10
0001
0000
0000
0010
0000
0000
0001
0000
0000
0010
0000
0000
0001
0000
0001
0000
,  // measure 11
0010
0000
0100
0000
1000
0001
0100
0000
,  // measure 12
0100
0000
0000
0010
0000
0000
0100
0000
0000
0010
0000
0000
0100
0000
0100
0000
,  // measure 13
0001
0000
1000
0000
0010
1000
0001
0000
,  // measure 14
0001
0001
0100
0000
0010
0010
1000
0000
,  // measure 15
2000
0100
3100
0010
0002
0100
0103
0010
,  // measure 16
0220
0000
0330
0000
,  // measure 17
0100
0000
0000
0000
,  // measure 18
2002
0000
3003
0000
,  // measure 19
1000
0000
0000
0000
,  // measure 20
1001
0000
0010
0001
0100
1000
0010
0000
,  // measure 21
1001
0000
0010
1000
0100
0001
0010
0000
,  // measure 22
1001
0000
1000
0001
0100
0001
1000
0000
,  // measure 23
0001
0000
0010
0000
0100
1000
0100
1000
,  // measure 24
1000
0000
0010
0000
0100
0001
0100
0010
,  // measure 25
0100
0000
0001
0000
0010
0100
0010
0001
,  // measure 26
0010
0000
0100
0000
1000
0100
0010
0100
,  // measure 27
1000
0001
1000
0000
0001
1000
0001
1000
,  // measure 28
0002
1000
0000
1003
,  // measure 29
0200
0010
0000
0310
,  // measure 30
0020
0001
0000
0031
,  // measure 31
2000
0100
0000
3100
,  // measure 32
0100
0000
0000
0000
0010
0000
0000
0010
0000
0000
0010
0000
0000
0010
0000
0000
,  // measure 33
0001
0000
0000
0000
1000
0000
0000
1000
0000
0000
1000
0000
0000
1000
0000
0000
,  // measure 34
0100
0000
0000
0000
0010
0000
0000
0010
0000
0000
0010
0000
0000
0010
0000
0000
,  // measure 35
0000
0000
0001
0001
0001
0000
0100
0000
,  // measure 36
0010
0000
1000
1000
1010
0000
0100
0000
,  // measure 37
1000
1000
0010
0100
0010
1000
0010
0100
,  // measure 38
0001
0000
0001
0001
0100
0010
0100
0001
,  // measure 39
0100
0010
0100
0000
0001
0000
1000
0000
,  // measure 40
0010
0000
0100
0100
0101
0000
0010
0000
,  // measure 41
0001
0001
0100
0010
0100
0001
0100
0010
,  // measure 42
1000
0000
1000
1000
0010
0100
0010
1000
,  // measure 43
0010
0100
0010
0000
0220
0000
0330
0000
,  // measure 44
0100
0010
1000
0001
2002
0000
3003
0000
,  // measure 45
0010
0100
1000
0100
2200
0000
3300
0000
,  // measure 46
0100
0010
0100
1000
1001
0000
0100
0000
,  // measure 47
0010
0010
0100
0100
0220
0000
0330
0000
,  // measure 48
0010
0100
0001
1000
2002
0000
3003
0000
,  // measure 49
0100
0010
0001
0010
0022
0000
0033
0000
,  // measure 50
0010
0100
0010
0001
1002
0000
0023
0000
,  // measure 51
0130
0100
0010
0010
0220
0000
0000
0000
,  // measure 52
0000
0000
0000
0000
,  // measure 53
0330
0000
0000
0000
;

//---------------dance-single - ----------------
#NOTEDATA:;
#CHARTNAME:;
#STEPSTYPE:dance-single;
#DESCRIPTION:;
#CHARTSTYLE:;
#DIFFICULTY:Challenge;
#METER:13;
#RADARVALUES:0.462219,0.539935,0.048900,0.024450,0.554197,397.000000,391.000000,6.000000,3.000000,0.000000,0.000000,0.000000,0.000000,0.000000,0.462219,0.539935,0.048900,0.024450,0.554197,397.000000,391.000000,6.000000,3.000000,0.000000,0.000000,0.000000,0.000000,0.000000;
#CREDIT:;
#NOTES:
// measure 0
0000
0000
0000
0000
,  // measure 1
0000
0000
0000
0000
,  // measure 2
0000
0000
0000
0000
,  // measure 3
0000
0000
0000
0000
,  // measure 4
0000
0000
0000
0000
1000
0100
0000
0010
0000
0100
0000
1000
0000
0001
0000
0010
,  // measure 5
0000
0100
0000
0010
0000
0000
0000
0000
0000
0000
0000
0000
0000
0000
0000
0000
,  // measure 6
0000
0000
0000
0000
0001
0100
0000
0010
0000
0100
0000
0001
0000
0100
0000
0010
,  // measure 7
0000
0100
0000
0001
0000
1000
0100
0000
0010
0000
0010
0001
1001
0000
0000
0000
,  // measure 8
1000
0001
0000
1000
0001
0000
1000
0001
0000
1000
0001
0000
1000
0000
0100
0000
,  // measure 9
0010
0100
1000
0001
0010
0100
0010
0001
,  // measure 10
0010
0001
0000
0010
0001
0000
0010
0001
0000
0010
0001
0000
0010
0000
0001
0000
,  // measure 11
0100
0010
1000
0100
0010
0100
1000
0010
,  // measure 12
1000
0010
0000
1000
0010
0000
1000
0010
0000
1000
0010
0000
1000
0000
0010
0000
,  // measure 13
0100
0010
1000
0100
0010
0100
1000
0001
,  // measure 14
1000
1000
0001
0100
0010
0010
0100
0001
,  // measure 15
0100
0001
0100
0001
0100
0000
0001
0100
0001
0100
0001
0100
0010
1000
0100
0010
,  // measure 16
0002
0000
0003
0000
,  // measure 17
1000
0000
0000
0000
0000
0000
0001
0000
0000
0000
0000
1001
0000
0000
0000
0000
0000
0000
0000
0000
0000
0000
0000
0000
,  // measure 18
0200
0000
0300
0000
,  // measure 19
0010
0000
0000
0000
0000
0000
0000
0000
0000
0000
0000
0000
0000
0000
0000
0000
0000
0000
0000
0000
0000
0000
0000
0000
0000
0000
0000
0000
0000
0000
0000
0000
0000
0000
0000
0000
0000
0000
0000
0000
0000
0000
0000
0000
0000
0000
0000
0000
0100
0000
0000
0000
0000
0000
0000
0000
0000
0000
0000
0000
0000
0000
0000
0000
0000
0000
0000
0000
0000
0000
0000
0000
0000
0000
0000
0000
0000
0000
0000
0000
0000
0000
0000
0000
0000
0000
0000
0000
0110
0000
0000
0000
0000
0000
0000
0000
0000
0000
0000
0000
0000
0000
0000
0000
0000
0000
0000
0000
0000
0000
0000
0000
0000
0000
0000
0000
0000
0000
0000
0000
0000
0000
0000
0000
0000
0000
0000
0000
0000
0000
0000
0000
0000
0000
0000
0000
0000
0000
0000
0000
0000
0000
0000
0000
0000
0000
0000
0000
0000
0000
0000
0000
0000
0000
0000
0000
0000
0000
0000
0000
0000
0000
0010
0000
0000
0000
0000
0000
1000
0000
0000
0000
0000
0000
0100
0000
0000
0000
0000
0000
0010
0000
0000
0000
0000
0000
0001
0000
0000
0000
0000
0000
,  // measure 20
1000
0000
0000
0000
0010
0100
0010
0100
0000
0000
0100
0000
0000
0001
0100
0010
,  // measure 21
0100
0000
0000
0000
0001
0100
0001
0100
0000
0000
0001
0000
0000
0100
0001
1000
,  // measure 22
0010
0000
0000
0000
1000
0001
1000
0001
0000
0000
0010
0000
0100
1000
0100
1000
,  // measure 23
0000
0000
0010
0000
1000
0000
0010
0100
0000
0001
0000
1000
0000
0000
0100
0000
,  // measure 24
1001
0000
1000
0000
0010
0100
0001
1000
0100
0000
0010
0000
0100
0000
1000
0000
,  // measure 25
0100
0000
0010
0000
0001
0100
0010
1000
0001
0000
0100
0000
0010
0000
0100
0000
,  // measure 26
0001
0000
0100
0000
0010
1000
0100
0010
0001
0000
1000
0000
0100
0000
0010
0000
,  // measure 27
0100
0010
0100
0010
0100
0000
0010
0100
0010
0100
0010
0000
0100
1000
0010
0100
,  // measure 28
0001
0000
0000
0000
0100
0000
0000
0001
0000
0000
0100
0000
0000
0010
0000
0000
,  // measure 29
1000
0000
0000
0000
0100
0000
0000
1000
0000
0000
0010
0000
0000
1000
0000
0000
,  // measure 30
0100
0000
0000
0000
0010
0000
0000
0100
0000
0000
1000
0000
0000
0001
0000
0000
,  // measure 31
0010
0000
0000
0000
0100
0000
0000
0010
0000
0000
0001
0000
0000
1000
0000
0000
,  // measure 32
0010
0000
0000
0000
0100
0000
0000
0001
0000
0000
0100
0000
0000
0010
0000
0000
,  // measure 33
1000
0000
0000
0000
0100
0000
0000
1000
0000
0000
0001
0000
0000
0010
0000
0000
,  // measure 34
0100
0000
0000
0000
0010
0000
0000
0100
0000
0000
1000
0000
0000
0001
0000
0000
,  // measure 35
1001
0000
0000
1000
0001
0010
0100
1000
0001
0000
0000
0001
0100
0000
0000
0100
,  // measure 36
0010
0000
0000
0010
1000
0000
0000
1000
0010
0000
0100
0000
0001
0000
0010
0000
,  // measure 37
0001
0000
0100
0000
0010
0000
1000
0000
0001
1000
0001
0000
0010
0000
0100
0000
,  // measure 38
1000
0001
1000
0000
0100
0000
0010
0000
0100
1000
0100
0000
1000
0010
1000
0000
,  // measure 39
0010
0100
0010
0000
0100
0001
0100
0000
0001
0000
0000
0001
0100
0000
0000
0100
,  // measure 40
0010
0000
0000
0010
0100
0000
0000
0100
0001
0000
0010
0000
0100
0000
1000
0000
,  // measure 41
1000
0000
0010
0000
0100
0000
0001
0000
1000
0001
1000
0000
0100
0000
0010
0000
,  // measure 42
0001
1000
0001
0000
0010
0000
0100
0000
0010
0001
0010
0001
0010
0000
0001
0010
,  // measure 43
0000
0100
1000
0100
1000
0100
1000
0000
0001
0000
0000
0000
0100
0010
0100
0010
,  // measure 44
0000
0000
0010
0000
0000
1000
0010
0100
0010
0000
0000
0000
1000
0010
1000
0010
,  // measure 45
0000
0000
1000
0000
0000
0010
1000
0001
0100
0000
0000
0000
0001
1000
0001
1000
,  // measure 46
0000
0000
0100
0000
0010
0001
0010
0001
0000
0000
0100
0000
0001
0000
0100
0010
,  // measure 47
0000
1000
0000
0001
0000
0000
0010
0000
1001
0000
0001
0000
0100
0010
1000
0001
,  // measure 48
0010
0000
0100
0000
0010
0000
0001
0000
0010
0000
0100
0000
1000
0010
0100
0001
,  // measure 49
1000
0000
0010
0000
0100
0000
0010
0000
1000
0000
0010
0000
0100
0001
0010
0100
,  // measure 50
1000
0000
0001
0000
0010
0000
0100
0000
0010
0100
0010
0100
0010
0000
0100
0010
,  // measure 51
0100
0010
0100
0000
0010
0001
0100
0010
2000
0000
0000
0000
0000
0000
0000
0000
,  // measure 52
0000
0000
0000
0000
,  // measure 53
3000
0000
0000
0000
;
